osu file format v14

[General]
AudioFilename: audio.mp3
AudioLeadIn: 0
PreviewTime: 34005
Countdown: 0
SampleSet: Soft
StackLeniency: 0.3
Mode: 0
LetterboxInBreaks: 0
WidescreenStoryboard: 0

[Editor]
Bookmarks: 11505,22799,34093,56681,67975,79269,90563,113152
DistanceSpacing: 1.4
BeatDivisor: 4
GridSize: 4
TimelineZoom: 1.9

[Metadata]
Title:Proof of the existence
TitleUnicode:Proof of the existence
Artist:Nekomata Master+
ArtistUnicode:猫叉Master+
Creator:Alheak
Version:Hyper
Source:beatmania IIDX 20 tricoro
Tags:SKSalt tasuke912 ORIGINAL SOUNDTRACK Volume 1 konami hard electronica Naoyuki Sato jubeat plus jukebeat saucer REFLEC BEAT colette -Summer- plus
BeatmapID:929299
BeatmapSetID:427864

[Difficulty]
HPDrainRate:4
CircleSize:3.5
OverallDifficulty:6.5
ApproachRate:8
SliderMultiplier:1.6
SliderTickRate:1

[Events]
//Background and Video events
0,0,"bg.jpg",0,0
//Break Periods
//Storyboard Layer 0 (Background)
//Storyboard Layer 1 (Fail)
//Storyboard Layer 2 (Pass)
//Storyboard Layer 3 (Foreground)
//Storyboard Sound Samples

[TimingPoints]
211,352.941176470588,4,2,1,10,1,0
10093,-100,4,2,1,20,0,0
10446,-100,4,2,1,30,0,0
10799,-200,4,2,1,40,0,0
11152,-200,4,2,1,50,0,0
11505,-200,4,2,1,40,0,0
12210,-200,4,1,1,40,0,0
12387,-200,4,2,1,40,0,0
13622,-200,4,1,1,40,0,0
14328,-200,4,2,1,40,0,0
15034,-200,4,1,1,40,0,0
15210,-200,4,2,1,40,0,0
16446,-200,4,1,1,40,0,0
17152,-200,4,3,1,40,0,0
17505,-200,4,2,1,40,0,0
17858,-200,4,1,1,40,0,0
18034,-200,4,2,1,40,0,0
19269,-200,4,1,1,40,0,0
19975,-200,4,2,1,40,0,0
20593,-200,4,3,1,40,0,0
22799,-133.333333333333,4,2,1,50,0,0
29858,-133.333333333333,4,2,1,55,0,0
31269,-133.333333333333,4,2,1,60,0,0
32681,-133.333333333333,4,2,1,65,0,0
33563,-200,4,2,1,50,0,0
33916,-200,4,2,1,40,0,0
34093,-133.333333333333,4,2,1,70,0,0
56681,-200,4,3,1,50,0,0
57387,-200,4,3,1,40,0,0
62328,-200,4,2,1,40,0,0
62681,-200,4,1,1,40,0,0
63740,-200,4,2,1,40,0,0
63916,-200,4,1,1,40,0,0
65152,-200,4,2,1,40,0,0
65328,-200,4,1,1,40,0,0
66563,-200,4,2,1,40,0,0
67269,-133.333333333333,4,3,1,70,0,0
67975,-100,4,2,1,70,0,0
79269,-200,4,3,1,50,0,0
79975,-200,4,1,1,50,0,0
80681,-200,4,2,1,30,0,0
82799,-200,4,1,1,50,0,0
83505,-200,4,2,1,30,0,0
84210,-200,4,1,1,50,0,0
84916,-200,4,3,1,50,0,0
86328,-200,4,2,1,65,0,0
87740,-200,4,2,1,70,0,0
89152,-200,4,3,1,60,0,0
90210,-133.333333333333,4,2,1,70,0,0
90475,-133.333333333333,4,2,1,10,0,0
90563,-100,4,2,1,80,0,1
101681,-100,4,2,1,80,0,0
101858,-100,4,2,1,80,0,1
113152,-200,4,3,1,50,0,0
113505,-200,4,2,1,30,0,0
113858,-200,4,1,1,50,0,0
114563,-200,4,2,1,30,0,0
115269,-200,4,1,1,50,0,0
115975,-200,4,2,1,30,0,0
116681,-200,4,1,1,50,0,0
117387,-200,4,2,1,30,0,0
118093,-200,4,1,1,50,0,0
118799,-200,4,2,1,30,0,0
119505,-200,4,1,1,50,0,0
120210,-200,4,2,1,30,0,0
120916,-200,4,1,1,50,0,0
121622,-200,4,2,1,30,0,0
122328,-200,4,1,1,50,0,0
123034,-200,4,3,1,50,0,0

[Colours]
Combo1 : 224,125,101
Combo2 : 255,245,204
Combo3 : 255,201,100
Combo4 : 223,193,255
Combo5 : 175,128,227
Combo6 : 249,194,176

[HitObjects]
256,192,9740,12,2,11152,0:0:0:0:
170,103,11505,6,0,P|207:89|255:88,1,80,2|2,0:0|0:0,0:0:0:0:
340,107,12210,2,0,L|387:102,1,40,8|0,0:0|0:0,0:0:0:0:
276,177,12740,1,0,0:0:0:0:
276,177,12916,6,0,B|281:227|281:227|274:256,1,80,2|2,0:0|0:0,0:0:0:0:
251,349,13622,2,0,L|312:361,2,53.3333333333333,8|8|8,0:0|0:0|0:0,0:0:0:0:
162,329,14328,70,0,L|65:336,1,80,2|2,0:0|0:0,0:0:0:0:
185,234,15034,2,0,L|239:230,1,40,8|0,0:0|0:0,0:0:0:0:
126,161,15563,1,0,0:0:0:0:
126,161,15740,6,0,P|142:124|143:66,1,80,2|2,0:0|0:0,0:0:0:0:
239,63,16446,2,0,L|235:1,2,53.3333333333333,8|8|8,0:0|0:0|0:0,0:0:0:0:
303,133,17152,70,0,B|352:120|352:120|381:123,1,80,4|2,0:0|0:0,0:0:0:0:
454,198,17858,2,0,L|463:239,1,40,8|0,0:0|0:0,0:0:0:0:
354,216,18387,1,0,0:0:0:0:
354,216,18563,6,0,P|338:253|337:311,1,80,2|2,0:0|0:0,0:0:0:0:
258,351,19269,2,0,L|198:360,2,53.3333333333333,8|8|0,0:0|0:0|0:0,0:0:0:0:
202,270,19975,70,0,L|136:261,2,53.3333333333333,2|2|2,0:0|0:0|0:0,0:0:0:0:
277,212,20681,1,8,0:0:0:0:
236,99,21210,1,0,0:0:0:0:
236,99,21299,1,0,0:0:0:0:
236,99,21387,5,0,0:0:0:0:
141,122,22799,6,0,P|186:110|209:109,1,60.0000022888184,6|0,0:0|0:0,0:0:0:0:
276,145,23152,2,0,P|322:145|345:150,1,60.0000022888184,2|0,0:0|0:0,0:0:0:0:
361,241,23505,2,0,P|333:229|304:223,1,60.0000022888184,2|0,0:0|0:0,0:0:0:0:
221,239,23858,2,0,L|231:308,1,60.0000022888184,2|0,0:0|0:0,0:0:0:0:
154,332,24210,6,0,L|145:272,1,60.0000022888184,2|0,0:0|0:0,0:0:0:0:
151,190,24563,2,0,P|121:183|94:172,1,60.0000022888184,2|0,0:0|0:0,0:0:0:0:
94,75,24916,2,0,P|119:93|146:104,1,60.0000022888184,2|0,0:0|0:0,0:0:0:0:
229,118,25269,2,0,L|288:109,1,60.0000022888184,2|0,0:0|0:0,0:0:0:0:
269,191,25622,70,0,P|264:220|266:250,1,60.0000022888184,2|0,0:0|0:0,0:0:0:0:
350,256,25975,2,0,P|373:274|400:287,1,60.0000022888184,2|0,0:0|0:0,0:0:0:0:
446,218,26328,2,0,P|473:206|498:190,1,60.0000022888184,2|0,0:0|0:0,0:0:0:0:
461,115,26681,2,0,P|465:85|463:55,1,60.0000022888184,2|0,0:0|0:0,0:0:0:0:
371,19,27034,6,0,P|380:47|383:77,1,60.0000022888184,2|0,0:0|0:0,0:0:0:0:
318,130,27387,2,0,L|244:120,1,60.0000022888184,2|0,0:0|0:0,0:0:0:0:
228,43,27740,2,0,L|168:34,1,60.0000022888184,2|0,0:0|0:0,0:0:0:0:
85,21,28093,2,0,P|75:49|72:79,1,60.0000022888184,2|0,0:0|0:0,0:0:0:0:
113,153,28446,70,0,P|122:181|125:211,1,60.0000022888184,2|0,0:0|0:0,0:0:0:0:
126,253,28710,1,0,0:0:0:0:
122,295,28799,2,0,P|150:285|180:282,1,60.0000022888184,2|0,0:0|0:0,0:0:0:0:
264,286,29152,2,0,P|254:257|251:227,1,60.0000022888184,2|0,0:0|0:0,0:0:0:0:
250,186,29416,1,0,0:0:0:0:
255,144,29505,2,0,P|226:153|196:156,1,60.0000022888184,2|0,0:0|0:0,0:0:0:0:
163,79,29858,6,0,L|171:40,2,30.0000011444092,2|0|0,0:0|0:0|0:0,0:0:0:0:
245,62,30210,2,0,L|253:23,2,30.0000011444092,2|0|0,0:0|0:0|0:0,0:0:0:0:
307,118,30563,2,0,L|300:147,2,30.0000011444092,2|0|0,0:0|0:0|0:0,0:0:0:0:
389,101,30916,2,0,L|382:130,2,30.0000011444092,2|0|0,0:0|0:0|0:0,0:0:0:0:
456,154,31269,70,0,P|474:148|491:140,2,30.0000011444092,2|0|0,0:0|0:0|0:0,0:0:0:0:
424,232,31622,2,0,P|442:233|461:232,2,30.0000011444092,2|0|0,0:0|0:0|0:0,0:0:0:0:
347,267,31975,2,0,P|355:283|365:299,2,30.0000011444092,2|0|0,0:0|0:0|0:0,0:0:0:0:
278,217,32328,2,0,P|267:232|259:249,2,30.0000011444092,2|0|0,0:0|0:0|0:0,0:0:0:0:
286,132,32681,6,0,L|294:91,2,30.0000011444092,2|0|0,0:0|0:0|0:0,0:0:0:0:
189,118,33034,2,0,L|181:77,2,30.0000011444092,2|0|0,0:0|0:0|0:0,0:0:0:0:
110,167,33387,1,2,0:0:0:0:
110,167,33475,1,0,0:0:0:0:
110,167,33563,54,0,P|102:207|105:247,1,80
129,341,34093,38,0,P|159:335|192:334,1,60.0000022888184,6|0,0:0|0:0,0:0:0:0:
263,371,34446,2,0,P|292:376|322:378,1,60.0000022888184,8|0,0:0|0:0,0:0:0:0:
258,287,34799,2,0,L|266:210,1,60.0000022888184,2|0,0:0|0:0,0:0:0:0:
211,161,35152,1,8,0:0:0:0:
241,81,35328,1,0,0:0:0:0:
325,66,35505,6,0,P|355:72|388:73,1,60.0000022888184,2|0,0:0|0:0,0:0:0:0:
471,125,35858,2,0,P|442:133|415:147,1,60.0000022888184,8|0,0:0|0:0,0:0:0:0:
386,225,36210,2,0,L|392:284,1,60.0000022888184,2|0,0:0|0:0,0:0:0:0:
422,363,36563,2,0,L|394:368,3,20.0000007629395,8|0|0|0,0:0|0:0|0:0|0:0,0:0:0:0:
323,335,36916,70,0,P|294:326|267:312,1,60.0000022888184,2|0,0:0|0:0,0:0:0:0:
302,236,37269,2,0,P|276:219|254:200,1,60.0000022888184,8|0,0:0|0:0,0:0:0:0:
168,152,37622,2,0,L|174:211,1,60.0000022888184,2|0,0:0|0:0,0:0:0:0:
124,279,37975,1,8,0:0:0:0:
40,268,38152,1,0,0:0:0:0:
7,189,38328,6,0,P|6:160|14:129,2,60.0000022888184,2|0|8,0:0|0:0|0:0,0:0:0:0:
91,168,38858,2,0,P|100:140|114:114,1,60.0000022888184,0|2,0:0|0:0,0:0:0:0:
152,91,39122,1,8,0:0:0:0:
152,91,39210,1,0,0:0:0:0:
243,92,39387,2,0,L|276:88,3,20.0000007629395,8|0|0|0,0:0|0:0|0:0|0:0,0:0:0:0:
338,52,39740,70,0,P|339:81|346:111,1,60.0000022888184,2|0,0:0|0:0,0:0:0:0:
422,145,40093,2,0,P|431:172|445:199,1,60.0000022888184,8|0,0:0|0:0,0:0:0:0:
426,282,40446,2,0,L|367:273,1,60.0000022888185,2|0,0:0|0:0,0:0:0:0:
332,198,40799,1,8,0:0:0:0:
249,191,40975,1,0,0:0:0:0:
284,267,41152,6,0,P|282:296|275:326,1,60.0000022888184,2|0,0:0|0:0,0:0:0:0:
203,368,41505,2,0,P|196:338|194:308,1,60.0000022888184,8|0,0:0|0:0,0:0:0:0:
139,245,41858,1,2,0:0:0:0:
55,260,42034,1,0,0:0:0:0:
84,181,42210,1,8,0:0:0:0:
29,117,42387,1,0,0:0:0:0:
95,45,42563,70,0,P|121:31|149:21,1,60.0000022888184,2|0,0:0|0:0,0:0:0:0:
159,108,42916,2,0,P|188:101|218:99,1,60.0000022888184,8|0,0:0|0:0,0:0:0:0:
297,126,43269,2,0,L|292:198,1,60.0000022888185,2|0,0:0|0:0,0:0:0:0:
236,248,43622,1,8,0:0:0:0:
261,327,43799,1,0,0:0:0:0:
341,344,43975,6,0,P|370:342|400:335,1,60.0000022888184,2|0,0:0|0:0,0:0:0:0:
457,272,44328,1,8,0:0:0:0:
430,190,44505,2,0,L|435:129,1,60.0000022888184,0|2,0:0|0:0,0:0:0:0:
419,47,44858,1,0,0:0:0:0:
419,47,44946,1,0,0:0:0:0:
419,47,45034,2,0,L|441:12,2,30.0000011444092
339,73,45387,70,0,P|309:79|279:82,1,60.0000022888184,6|0,0:0|0:0,0:0:0:0:
184,87,45740,2,0,P|204:108|221:133,1,60.0000022888184,8|0,0:0|0:0,0:0:0:0:
262,210,46093,2,0,P|232:216|204:227,1,60.0000022888184,2|0,0:0|0:0,0:0:0:0:
155,295,46446,1,8,0:0:0:0:
188,371,46622,1,0,0:0:0:0:
104,364,46799,6,0,L|36:357,1,60.0000022888185,2|0,0:0|0:0,0:0:0:0:
10,274,47152,2,0,L|69:280,1,60.0000022888185,8|0,0:0|0:0,0:0:0:0:
143,238,47505,2,0,P|153:210|160:180,1,60.0000022888184,2|0,0:0|0:0,0:0:0:0:
141,98,47858,2,0,L|174:94,3,20.0000007629395,8|0|0|0,0:0|0:0|0:0|0:0,0:0:0:0:
232,138,48210,70,0,P|259:148|289:155,1,60.0000022888184,2|0,0:0|0:0,0:0:0:0:
294,71,48563,2,0,P|323:74|353:72,1,60.0000022888184,8|0,0:0|0:0,0:0:0:0:
435,50,48916,2,0,L|430:116,1,60.0000022888185,2|0,0:0|0:0,0:0:0:0:
373,172,49269,1,8,0:0:0:0:
397,252,49446,1,0,0:0:0:0:
426,331,49622,6,0,P|453:342|483:343,2,60.0000022888185,2|0|8,0:0|0:0|0:0,0:0:0:0:
340,318,50152,2,0,P|305:315|277:324,1,60.0000022888185,0|2,0:0|0:0,0:0:0:0:
251,352,50416,1,8,0:0:0:0:
251,352,50505,1,0,0:0:0:0:
161,335,50681,2,0,L|137:334,3,20.0000007629395,8|0|0|0,0:0|0:0|0:0|0:0,0:0:0:0:
81,235,51034,70,0,P|111:250|141:252,1,60.0000022888185,2|0,0:0|0:0,0:0:0:0:
198,195,51387,2,0,P|195:160|182:133,1,60.0000022888185,8|0,0:0|0:0,0:0:0:0:
102,152,51740,2,0,L|52:94,1,60.0000022888184,2|0,0:0|0:0,0:0:0:0:
115,41,52093,1,8,0:0:0:0:
197,52,52269,1,0,0:0:0:0:
286,14,52446,6,0,P|288:48|301:75,1,60.0000022888185,2|0,0:0|0:0,0:0:0:0:
357,144,52799,2,0,L|287:156,1,60.0000022888184,8|0,0:0|0:0,0:0:0:0:
340,226,53152,1,2,0:0:0:0:
298,298,53328,1,0,0:0:0:0:
340,369,53505,1,8,0:0:0:0:
256,370,53681,1,0,0:0:0:0:
219,279,53858,70,0,P|191:267|161:266,1,60.0000022888185,2|0,0:0|0:0,0:0:0:0:
52,267,54210,2,0,P|75:248|91:223,1,60.0000022888185,8|0,0:0|0:0,0:0:0:0:
105,140,54563,2,0,L|96:71,1,60.0000022888184,2|0,0:0|0:0,0:0:0:0:
168,35,54916,1,8,0:0:0:0:
242,73,55093,1,0,0:0:0:0:
246,156,55269,6,0,P|273:145|303:144,1,60.0000022888185,2|0,0:0|0:0,0:0:0:0:
369,196,55622,1,8,0:0:0:0:
292,229,55799,2,0,P|266:245|247:268,1,60.0000022888185,0|2,0:0|0:0,0:0:0:0:
253,352,56152,1,8,0:0:0:0:
320,304,56328,2,0,L|356:300,3,20.0000007629395,0|0|0|0,0:0|0:0|0:0|0:0,0:0:0:0:
422,332,56681,6,0,P|463:347|477:348,2,53.3333333333333,4|0|0,0:2|0:0|0:0,0:0:0:0:
456,255,57387,2,0,P|499:258|513:256,2,53.3333333333333,8|0|0,0:0|0:0|0:0,0:0:0:0:
407,186,58093,1,4,0:0:0:0:
407,186,58799,2,0,L|412:130,2,53.3333333333333,8|0|0,0:0|0:0|0:0,0:0:0:0:
328,151,59505,6,0,L|323:95,2,53.3333333333333,4|0|0,0:0|0:0|0:0,0:0:0:0:
310,234,60210,2,0,P|313:277|311:291,2,53.3333333333333,8|0|0,0:0|0:0|0:0,0:0:0:0:
255,175,60916,1,4,0:0:0:0:
150,294,61622,1,8,0:0:0:0:
112,206,61975,2,0,L|79:211,2,26.6666666666667,0|0|0,0:0|0:0|0:0,0:0:0:0:
124,170,62328,70,0,P|127:126|125:112,2,53.3333333333333,2|0|8,0:0|0:0|0:0,0:0:0:0:
207,155,63034,2,0,P|225:115|234:104,2,53.3333333333333,8|8|8,0:0|0:0|0:0,0:0:0:0:
283,191,63740,1,2,0:0:0:0:
283,191,64446,2,0,L|335:183,2,53.3333333333333,8|8|8,0:0|0:0|0:0,0:0:0:0:
232,252,65152,6,0,L|168:244,2,53.3333333333333,2|8|8,0:0|0:0|0:0,0:0:0:0:
310,267,65858,2,0,L|362:259,2,53.3333333333333,8|8|8,0:0|0:0|0:0,0:0:0:0:
256,326,66563,1,2,0:0:0:0:
89,302,67269,22,0,P|48:286|17:255,2,80.0000030517579,4|4|4,0:0|0:0|0:0,0:0:0:0:
102,205,67975,6,0,B|107:168|107:168|90:97,1,106.666666666667,6|0,0:0|0:0,0:0:0:0:
116,10,68328,2,0,L|60:3,2,53.3333333333333,8|0|0,0:0|0:0|0:0,0:0:0:0:
208,29,68681,2,0,P|251:27|306:60,1,106.666666666667,2|0,0:0|0:0,0:0:0:0:
233,120,69034,2,0,L|161:129,2,53.3333333333333,8|0|0,0:0|0:0|0:0,0:0:0:0:
323,150,69387,6,0,B|375:144|375:144|414:153,1,80,2|0,0:0|0:0,0:0:0:0:
370,237,69740,2,0,P|408:243|453:227,1,80,8|0,0:0|0:0,0:0:0:0:
504,160,70093,1,2,0:0:0:0:
504,160,70181,1,8,0:0:0:0:
504,160,70269,1,0,0:0:0:0:
470,247,70446,2,0,L|463:332,1,80,8|0,0:0|0:0,0:0:0:0:
386,376,70799,70,0,P|345:343|293:345,1,106.666666666667,2|0,0:0|0:0,0:0:0:0:
207,364,71152,2,0,L|202:308,2,53.3333333333333,8|0|0,0:0|0:0|0:0,0:0:0:0:
119,366,71505,2,0,B|112:296|112:296|122:261,1,106.666666666667,2|0,0:0|0:0,0:0:0:0:
168,180,71858,2,0,P|194:176|220:169,2,53.3333333333333,8|0|0,0:0|0:0|0:0,0:0:0:0:
73,180,72210,6,0,P|60:142|60:102,1,80,2|0,0:0|0:0,0:0:0:0:
137,45,72563,2,0,L|216:50,1,80,8|0,0:0|0:0,0:0:0:0:
243,146,72916,1,2,0:0:0:0:
243,146,73005,1,8,0:0:0:0:
243,146,73093,1,0,0:0:0:0:
262,233,73269,2,0,L|301:235,3,40,8|0|0|0,0:0|0:0|0:0|0:0,0:0:0:0:
329,252,73622,70,0,P|318:199|330:143,1,106.666666666667,2|0,0:0|0:0,0:0:0:0:
408,109,73975,2,0,L|468:101,2,53.3333333333333,8|0|0,0:0|0:0|0:0,0:0:0:0:
426,16,74328,2,0,B|358:24|358:24|316:15,1,106.666666666667,2|0,0:0|0:0,0:0:0:0:
227,1,74681,2,0,P|200:0|174:4,2,53.3333333333333,8|0|0,0:0|0:0|0:0,0:0:0:0:
262,89,75034,6,0,B|268:141|268:141|262:168,1,80,2|0,0:0|0:0,0:0:0:0:
179,134,75387,2,0,B|173:161|173:161|179:213,1,80,8|0,0:0|0:0,0:0:0:0:
266,268,75740,1,2,0:0:0:0:
266,268,75828,1,8,0:0:0:0:
266,268,75916,1,0,0:0:0:0:
340,225,76093,2,0,P|371:220|422:229,1,80,8|0,0:0|0:0,0:0:0:0:
439,350,76446,70,0,P|399:317|347:319,1,106.666666666667,2|0,0:0|0:0,0:0:0:0:
262,362,76799,2,0,L|192:357,2,53.3333333333333,8|0|0,0:0|0:0|0:0,0:0:0:0:
266,268,77152,2,0,B|281:233|281:233|281:195|262:160,1,106.666666666667,2|0,0:0|0:0,0:0:0:0:
178,133,77505,2,0,L|108:128,2,53.3333333333333,8|0|0,0:0|0:0|0:0,0:0:0:0:
251,73,77858,6,0,P|301:56|330:56,1,80,2|0,0:0|0:0,0:0:0:0:
417,40,78210,2,0,L|409:141,1,80,8|0,0:0|0:0,0:0:0:0:
404,212,78563,2,0,L|400:263,3,40,2|0|8|0,0:0|0:0|0:0|0:0,0:0:0:0:
447,190,78916,2,0,L|443:235,3,40,2|0|8|0,0:0|0:0|0:0|0:0,0:0:0:0:
490,167,79269,6,0,P|460:224|483:323,1,160,4|8,0:2|0:0,0:0:0:0:
309,351,80681,6,0,L|218:340,2,80,2|2|8,0:0|0:0|1:0,0:0:0:0:
231,212,82093,70,0,B|205:142|257:131|232:50,1,160,2|8,0:0|0:0,0:0:0:0:
331,170,83505,6,0,P|387:183|424:181,2,80,2|2|8,0:0|0:0|0:0,0:0:0:0:
133,96,84916,69,4,0:0:0:0:
256,192,85093,12,8,88446,0:0:0:0:
155,133,89152,6,0,L|163:70,1,53.3333333333333,4|4,0:0|0:0,0:0:0:0:
235,170,89622,54,0,L|243:233,2,53.3333333333333,4|4|4,0:0|0:0|0:0,0:0:0:0:
314,133,90210,54,0,P|333:177|372:207,1,90.0000034332277
401,220,90563,6,0,L|395:312,1,80,6|0,0:0|0:0,0:0:0:0:
314,351,90916,2,0,L|308:259,1,80,8|0,0:0|0:0,0:0:0:0:
231,213,91269,2,0,P|181:199|141:207,1,80,2|0,0:0|0:0,0:0:0:0:
143,298,91622,2,0,P|193:312|233:304,1,80,8|0,0:0|0:0,0:0:0:0:
308,271,91975,6,0,B|353:247|353:247|463:261,1,160,2|8,0:0|0:0,0:0:0:0:
414,345,92505,1,0,0:0:0:0:
367,215,92681,2,0,P|364:175|377:137,1,80,2|0,0:0|0:0,0:0:0:0:
441,47,93034,2,0,L|354:57,1,80,8|0,0:0|0:0,0:0:0:0:
267,79,93387,70,0,L|225:74,2,40,2|0|0,0:0|0:0|0:0,0:0:0:0:
338,144,93740,2,0,L|380:138,2,40,8|0|0,0:0|0:0|0:0,0:0:0:0:
246,173,94093,2,0,L|203:167,2,40,2|0|0,0:0|0:0|0:0,0:0:0:0:
316,238,94446,2,0,L|361:230,2,40,8|0|0,0:0|0:0|0:0,0:0:0:0:
224,267,94799,6,0,B|205:314|224:368|224:368|162:360,1,160,2|8,0:0|0:0,0:0:0:0:
117,207,95505,1,2,0:0:0:0:
117,207,95593,1,8,0:0:0:0:
117,207,95681,1,0,0:0:0:0:
208,177,95858,2,0,P|210:137|197:99,1,80,8|0,0:0|0:0,0:0:0:0:
139,24,96210,70,0,L|218:18,1,80,6|0,0:0|0:0,0:0:0:0:
291,82,96563,2,0,L|370:76,1,80,8|0,0:0|0:0,0:0:0:0:
320,158,96916,2,0,P|306:195|309:235,1,80,2|0,0:0|0:0,0:0:0:0:
390,286,97269,2,0,P|403:248|402:209,1,80,8|0,0:0|0:0,0:0:0:0:
306,331,97622,6,0,L|312:370,2,40,2|0|0,0:0|0:0|0:0,0:0:0:0:
223,280,97975,2,0,L|228:241,2,40,8|0|0,0:0|0:0|0:0,0:0:0:0:
145,336,98328,2,0,P|124:343|100:346,2,40,2|0|0,0:0|0:0|0:0,0:0:0:0:
99,251,98681,2,0,P|76:252|52:249,2,40,8|0|0,0:0|0:0|0:0,0:0:0:0:
164,180,99034,70,0,P|166:140|153:102,1,80,2|0,0:0|0:0,0:0:0:0:
133,77,99299,1,0,0:0:0:0:
107,57,99387,2,0,L|188:44,1,80,8|0,0:0|0:0,0:0:0:0:
272,72,99740,2,0,P|269:111|282:149,1,80,2|0,0:0|0:0,0:0:0:0:
303,175,100005,1,0,0:0:0:0:
329,195,100093,2,0,L|248:208,1,80,8|0,0:0|0:0,0:0:0:0:
319,291,100446,6,0,P|328:313|333:340,3,40,2|0|0|0,0:0|0:0|0:0|0:0,0:0:0:0:
335,377,100799,2,0,P|373:357|410:351,1,80,8|0,0:0|0:0,0:0:0:0:
440,260,101152,1,2,0:0:0:0:
439,227,101240,1,0,0:0:0:0:
431,195,101328,1,0,0:0:0:0:
361,137,101505,1,2,0:0:0:0:
361,137,101681,1,2,0:0:0:0:
384,42,101858,70,0,P|340:43|298:61,1,80,6|0,0:0|0:0,0:0:0:0:
268,143,102210,2,0,L|280:236,1,80,8|0,0:0|0:0,0:0:0:0:
191,264,102563,2,0,L|180:184,1,80,2|0,0:0|0:0,0:0:0:0:
120,110,102916,2,0,P|80:106|41:116,1,80,8|0,0:0|0:0,0:0:0:0:
88,201,103269,6,0,B|101:309|101:309|77:354,1,160,2|8,0:0|0:0,0:0:0:0:
7,287,103799,1,0,0:0:0:0:
134,289,103975,2,0,B|171:286|171:286|206:263,1,80,2|0,0:0|0:0,0:0:0:0:
271,334,104328,2,0,B|300:315|300:315|321:275,1,80,8|0,0:0|0:0,0:0:0:0:
398,217,104681,70,0,L|451:213,2,40,2|0|0,0:0|0:0|0:0,0:0:0:0:
309,178,105034,2,0,L|279:133,2,40,8|0|0,0:0|0:0|0:0,0:0:0:0:
386,121,105387,2,0,L|404:74,2,40,2|0|0,0:0|0:0|0:0,0:0:0:0:
320,43,105740,2,0,L|312:-1,2,40,8|0|0,0:0|0:0|0:0,0:0:0:0:
225,58,106093,6,0,B|191:87|191:142|191:142|126:131,1,160,2|8,0:0|0:0,0:0:0:0:
33,14,106799,1,2,0:0:0:0:
33,14,106887,1,8,0:0:0:0:
33,14,106975,1,0,0:0:0:0:
15,108,107152,2,0,P|9:152|20:203,1,80,8|0,0:0|0:0,0:0:0:0:
22,283,107505,70,0,L|102:297,1,80,6|0,0:0|0:0,0:0:0:0:
169,228,107858,2,0,L|249:242,1,80,8|0,0:0|0:0,0:0:0:0:
332,285,108210,2,0,P|326:241|337:190,1,80,2|0,0:0|0:0,0:0:0:0:
425,143,108563,2,0,P|431:187|420:238,1,80,8|0,0:0|0:0,0:0:0:0:
336,110,108916,6,0,L|315:72,2,40,2|0|0,0:0|0:0|0:0,0:0:0:0:
251,155,109269,2,0,L|213:132,2,40,8|0|0,0:0|0:0|0:0,0:0:0:0:
331,206,109622,2,0,L|368:228,2,40,2|0|0,0:0|0:0|0:0,0:0:0:0:
246,251,109975,2,0,L|267:289,2,40,8|0|0,0:0|0:0|0:0,0:0:0:0:
155,217,110328,70,0,P|108:220|49:244,2,106.666666666667,6|2|2,0:0|0:0|0:0,0:0:0:0:
81,139,111034,2,0,P|67:101|69:61,1,80,6|2,0:0|0:0,0:0:0:0:
162,85,111387,2,0,P|158:45|171:7,1,80,2|2,0:0|0:0,0:0:0:0:
254,57,111740,6,0,L|290:61,6,26.6666666666667,2|2|2|2|2|2|8,0:0|0:0|0:0|0:0|0:0|0:0|0:0,0:0:0:0:
252,166,112269,1,8,0:0:0:0:
346,223,112446,2,0,P|354:273|311:335,1,120,2|2,0:0|0:0,0:0:0:0:
281,344,112799,2,0,L|228:352,2,53.3333333333333,2|2|2,0:0|0:0|0:0,0:0:0:0:
272,261,113152,6,0,B|203:270|203:270|153:289|143:341,1,160,4|8,0:2|0:0,0:0:0:0:
74,173,114563,6,0,L|66:81,2,80,2|2|8,0:0|0:0|0:0,0:0:0:0:
223,122,115975,70,0,B|325:138|325:138|393:118,1,160,2|8,0:0|0:0,0:0:0:0:
244,35,117387,6,0,P|185:40|161:53,2,80,2|2|8,0:0|0:0|0:0,0:0:0:0:
222,193,118799,70,0,B|244:244|226:295|226:295|284:284,1,160,2|8,0:0|0:0,0:0:0:0:
396,174,120210,6,0,B|450:164|450:164|486:177,2,80,2|2|8,0:0|0:0|0:0,0:0:0:0:
248,116,121622,70,0,P|270:55|368:41,1,160,2|8,0:0|0:0,0:0:0:0:
292,216,123034,5,4,0:0:0:0:
