osu file format v14

[General]
AudioFilename: audio.mp3
AudioLeadIn: 0
PreviewTime: 34005
Countdown: 0
SampleSet: Soft
StackLeniency: 0.2
Mode: 0
LetterboxInBreaks: 0
WidescreenStoryboard: 0

[Editor]
Bookmarks: 11505,22799,34093,56681,67975,79269,90563,113152
DistanceSpacing: 1
BeatDivisor: 4
GridSize: 4
TimelineZoom: 1.9

[Metadata]
Title:Proof of the existence
TitleUnicode:Proof of the existence
Artist:Nekomata Master+
ArtistUnicode:猫叉Master+
Creator:Alheak
Version:Another
Source:beatmania IIDX 20 tricoro
Tags:SKSalt tasuke912 ORIGINAL SOUNDTRACK Volume 1 konami hard electronica Naoyuki Sato jubeat plus jukebeat saucer REFLEC BEAT colette -Summer- plus
BeatmapID:928624
BeatmapSetID:427864

[Difficulty]
HPDrainRate:5
CircleSize:4
OverallDifficulty:8
ApproachRate:9
SliderMultiplier:1.8
SliderTickRate:1

[Events]
//Background and Video events
0,0,"bg.jpg",0,0
//Break Periods
//Storyboard Layer 0 (Background)
//Storyboard Layer 1 (Fail)
//Storyboard Layer 2 (Pass)
//Storyboard Layer 3 (Foreground)
//Storyboard Sound Samples

[TimingPoints]
211,352.941176470588,4,2,1,10,1,0
10093,-100,4,2,1,20,0,0
10446,-100,4,2,1,30,0,0
10799,-200,4,2,1,40,0,0
11152,-200,4,2,1,50,0,0
11505,-200,4,2,1,40,0,0
12210,-200,4,1,1,40,0,0
12387,-200,4,2,1,40,0,0
13622,-200,4,1,1,40,0,0
14328,-200,4,2,1,40,0,0
15034,-200,4,1,1,40,0,0
15210,-200,4,2,1,40,0,0
16446,-200,4,1,1,40,0,0
17152,-200,4,3,1,40,0,0
17505,-200,4,2,1,40,0,0
17858,-200,4,1,1,40,0,0
18034,-200,4,2,1,40,0,0
19269,-200,4,1,1,40,0,0
19975,-200,4,2,1,40,0,0
20593,-200,4,3,1,40,0,0
22799,-133.333333333333,4,2,1,50,0,0
29858,-133.333333333333,4,2,1,55,0,0
31269,-133.333333333333,4,2,1,60,0,0
32681,-133.333333333333,4,2,1,65,0,0
33563,-200,4,2,1,50,0,0
34005,-200,4,2,1,40,0,0
34093,-100,4,2,1,70,0,0
56681,-200,4,3,1,50,0,0
57387,-200,4,3,1,40,0,0
62328,-200,4,2,1,40,0,0
62681,-200,4,1,1,40,0,0
63740,-200,4,2,1,40,0,0
63916,-200,4,1,1,40,0,0
65152,-200,4,2,1,40,0,0
65328,-200,4,1,1,40,0,0
66563,-200,4,2,1,40,0,0
66740,-200,4,1,1,40,0,0
67269,-133.333333333333,4,3,1,70,0,0
67975,-100,4,2,1,70,0,0
79269,-200,4,3,1,50,0,0
79975,-200,4,1,1,50,0,0
80681,-200,4,2,1,30,0,0
82799,-200,4,1,1,50,0,0
83505,-200,4,2,1,30,0,0
84210,-200,4,1,1,50,0,0
84916,-200,4,3,1,50,0,0
86328,-200,4,2,1,65,0,0
87740,-200,4,2,1,70,0,0
89152,-200,4,3,1,60,0,0
90210,-133.333333333333,4,2,1,70,0,0
90475,-133.333333333333,4,2,1,10,0,0
90563,-100,4,2,1,80,0,1
101681,-100,4,2,1,80,0,0
101858,-100,4,2,1,80,0,1
113152,-200,4,3,1,50,0,0
113505,-200,4,2,1,30,0,0
113858,-200,4,1,1,50,0,0
114563,-200,4,2,1,30,0,0
115269,-200,4,1,1,50,0,0
115975,-200,4,2,1,30,0,0
116681,-200,4,1,1,50,0,0
117387,-200,4,2,1,30,0,0
118093,-200,4,1,1,50,0,0
118799,-200,4,2,1,30,0,0
119505,-200,4,1,1,50,0,0
120210,-200,4,2,1,30,0,0
120916,-200,4,1,1,50,0,0
121622,-200,4,2,1,30,0,0
122328,-200,4,1,1,50,0,0
123034,-200,4,3,1,50,0,0

[Colours]
Combo1 : 224,125,101
Combo2 : 255,245,204
Combo3 : 255,201,100
Combo4 : 223,193,255
Combo5 : 175,128,227
Combo6 : 249,194,176

[HitObjects]
256,192,9740,12,2,11152,0:0:0:0:
90,66,11505,5,2,0:0:0:0:
164,144,11858,1,2,0:0:0:0:
59,169,12210,2,0,P|45:206|45:224,2,45,8|0|0,0:0|0:0|0:0,0:0:0:0:
132,223,12740,1,0,0:0:0:0:
132,223,12828,1,0,0:0:0:0:
132,223,12916,5,2,0:0:0:0:
240,208,13269,1,2,0:0:0:0:
306,294,13622,2,0,L|297:359,2,60,8|8|8,0:0|0:0|0:0,0:0:0:0:
386,309,14328,70,0,P|431:319|501:261,1,135,2|0,0:0|0:0,0:0:0:0:
418,191,15034,2,0,L|424:236,2,45,8|0|0,0:0|0:0|0:0,0:0:0:0:
405,101,15563,1,0,0:0:0:0:
402,96,15651,1,0,0:0:0:0:
399,91,15740,5,2,0:0:0:0:
285,140,16093,1,2,0:0:0:0:
193,68,16446,2,0,P|164:53|134:51,2,60,8|8|8,0:0|0:0|0:0,0:0:0:0:
139,143,17152,70,0,B|147:179|147:179|141:236,1,90,4|2,0:0|0:0,0:0:0:0:
236,302,17858,2,0,L|242:347,2,45,8|0|0,0:0|0:0|0:0,0:0:0:0:
224,220,18387,1,0,0:0:0:0:
224,220,18475,1,0,0:0:0:0:
224,220,18563,5,2,0:0:0:0:
338,191,18916,1,2,0:0:0:0:
423,273,19269,2,0,B|486:285,2,60,8|8|0,0:0|0:0|0:0,0:0:0:0:
342,313,19975,70,0,B|279:325,2,60,2|2|2,0:0|0:0|0:0,0:0:0:0:
205,265,20681,1,8,0:0:0:0:
335,168,21210,1,0,0:0:0:0:
335,168,21299,1,0,0:0:0:0:
335,168,21387,5,0,0:0:0:0:
256,192,21475,12,0,22622,0:0:0:0:
147,99,22799,6,0,L|218:92,1,67.5000025749208,6|0,0:0|0:0,0:0:0:0:
292,129,23063,1,0,0:0:0:0:
292,129,23152,2,0,P|332:136|363:129,1,67.5000025749208,2|0,0:0|0:0,0:0:0:0:
430,91,23416,1,0,0:0:0:0:
430,91,23505,1,2,0:0:0:0:
393,213,23681,1,0,0:0:0:0:
393,213,23769,2,0,L|400:264,1,33.7500012874604,0|2,0:0|0:0,0:0:0:0:
346,370,24034,1,0,0:0:0:0:
346,370,24122,1,0,0:0:0:0:
346,370,24210,5,2,0:0:0:0:
295,272,24387,1,0,0:0:0:0:
295,272,24475,2,0,L|291:239,1,33.7500012874604,0|2,0:0|0:0,0:0:0:0:
182,218,24740,2,0,P|142:211|111:218,1,67.5000025749208,0|2,0:0|0:0,0:0:0:0:
81,329,25093,2,0,P|121:336|152:329,1,67.5000025749208,0|2,0:0|0:0,0:0:0:0:
10,249,25446,1,0,0:0:0:0:
10,249,25534,1,0,0:0:0:0:
10,249,25622,70,0,B|6:182,1,67.5000025749208,2|0,0:0|0:0,0:0:0:0:
40,109,25887,1,0,0:0:0:0:
40,109,25975,2,0,P|80:116|111:109,1,67.5000025749208,2|0,0:0|0:0,0:0:0:0:
182,76,26240,1,0,0:0:0:0:
182,76,26328,1,2,0:0:0:0:
165,214,26505,1,0,0:0:0:0:
165,214,26593,2,0,L|158:267,1,33.7500012874604,0|2,0:0|0:0,0:0:0:0:
250,164,26858,1,0,0:0:0:0:
250,164,26946,1,0,0:0:0:0:
250,164,27034,5,2,0:0:0:0:
233,302,27211,1,0,0:0:0:0:
233,302,27299,2,0,L|226:355,1,33.7500012874604,0|2,0:0|0:0,0:0:0:0:
338,257,27563,2,0,L|418:248,1,67.5000025749208,0|2,0:0|0:0,0:0:0:0:
469,144,27916,2,0,L|401:151,1,67.5000025749208,0|2,0:0|0:0,0:0:0:0:
309,67,28269,1,0,0:0:0:0:
309,67,28358,1,0,0:0:0:0:
309,67,28446,70,0,P|310:107|299:137,1,67.5000025749208,2|0,0:0|0:0,0:0:0:0:
254,199,28710,1,0,0:0:0:0:
254,199,28799,2,0,L|261:266,1,67.5000025749208,2|0,0:0|0:0,0:0:0:0:
213,332,29063,1,0,0:0:0:0:
213,332,29152,1,2,0:0:0:0:
110,251,29328,1,0,0:0:0:0:
110,251,29416,2,0,L|47:245,1,33.7500012874604,0|2,0:0|0:0,0:0:0:0:
163,162,29681,1,0,0:0:0:0:
87,51,29858,6,0,L|64:19,3,33.7500012874604,2|0|0|0,0:0|0:0|0:0|0:0,0:0:0:0:
172,52,30210,2,0,L|168:12,3,33.7500012874604,2|0|0|0,0:0|0:0|0:0|0:0,0:0:0:0:
245,95,30563,2,0,L|261:59,3,33.7500012874604,2|0|0|0,0:0|0:0|0:0|0:0,0:0:0:0:
286,168,30916,2,0,L|318:145,3,33.7500012874604,2|0|0|0,0:0|0:0|0:0|0:0,0:0:0:0:
243,240,31269,70,0,P|236:257|232:278,3,33.7500012874604,2|0|0|0,0:0|0:0|0:0|0:0,0:0:0:0:
317,319,31622,2,0,P|312:303|310:287,1,33.7500012874604,2|0,0:0|0:0,0:0:0:0:
322,175,31799,2,0,P|319:191|320:208,1,33.7500012874604,0|0,0:0|0:0,0:0:0:0:
391,256,31975,6,0,P|402:270|418:284,3,33.7500012874604,2|0|0|0,0:0|0:0|0:0|0:0,0:0:0:0:
497,231,32328,2,0,P|480:227|465:220,1,33.7500012874604,2|0,0:0|0:0,0:0:0:0:
386,143,32505,2,0,P|393:158|402:173,1,33.7500012874604
479,143,32681,69,2,0:0:0:0:
483,123,32769,1,0,0:0:0:0:
479,102,32858,1,0,0:0:0:0:
469,84,32946,1,0,0:0:0:0:
447,68,33034,1,2,0:0:0:0:
421,60,33122,1,0,0:0:0:0:
394,59,33210,1,0,0:0:0:0:
367,66,33299,1,0,0:0:0:0:
333,68,33387,1,2,0:0:0:0:
300,59,33475,1,0,0:0:0:0:
263,28,33563,70,0,P|274:78|234:142,1,112.5,0|0,0:0|0:0,0:0:0:0:
193,71,34093,38,0,B|165:59|165:59|95:67,1,90,6|0,0:0|0:0,0:0:0:0:
68,153,34358,1,0,0:0:0:0:
54,176,34446,2,0,L|151:165,1,90,8|0,0:0|0:0,0:0:0:0:
195,228,34710,1,0,0:0:0:0:
214,248,34799,2,0,B|189:265|189:265|119:273,1,90,2|0,0:0|0:0,0:0:0:0:
274,348,35152,1,8,0:0:0:0:
331,180,35328,1,0,0:0:0:0:
331,180,35505,6,0,P|385:168|432:170,1,90,2|0,0:0|0:0,0:0:0:0:
480,253,35769,1,0,0:0:0:0:
480,253,35858,2,0,P|426:265|379:263,1,90,8|0,0:0|0:0,0:0:0:0:
321,166,36122,1,0,0:0:0:0:
321,166,36211,2,0,P|375:154|422:156,1,90,2|0,0:0|0:0,0:0:0:0:
279,273,36563,2,0,L|274:306,3,30,8|0|0|0,0:0|0:0|0:0|0:0,0:0:0:0:
164,160,36916,70,0,P|110:148|63:150,1,90,2|0,0:0|0:0,0:0:0:0:
15,233,37180,1,0,0:0:0:0:
15,233,37269,2,0,P|69:245|116:243,1,90,8|0,0:0|0:0,0:0:0:0:
174,146,37533,1,0,0:0:0:0:
174,146,37622,2,0,P|120:134|73:136,1,90,2|0,0:0|0:0,0:0:0:0:
219,252,37975,1,8,0:0:0:0:
281,82,38152,1,0,0:0:0:0:
281,82,38328,6,0,B|336:84|336:84|370:74,1,90,2|0,0:0|0:0,0:0:0:0:
413,59,38593,1,0,0:0:0:0:
455,43,38681,2,0,L|450:93,1,45,8|0,0:0|0:0,0:0:0:0:
506,160,38858,2,0,L|511:210,1,45
432,266,39034,2,0,L|426:326,1,45,2|8,0:0|0:0,0:0:0:0:
300,210,39210,1,0,0:0:0:0:
337,350,39387,2,0,L|345:379,3,30,8|0|0|0,0:0|0:0|0:0|0:0,0:0:0:0:
370,166,39740,70,0,P|336:137|284:127,1,90,2|0,0:0|0:0,0:0:0:0:
201,162,40005,1,0,0:0:0:0:
201,162,40093,2,0,L|206:64,1,90,8|0,0:0|0:0,0:0:0:0:
119,33,40358,1,0,0:0:0:0:
119,33,40446,2,0,L|114:131,1,90,2|0,0:0|0:0,0:0:0:0:
36,251,40799,1,8,0:0:0:0:
211,212,40975,1,0,0:0:0:0:
211,212,41152,6,0,B|270:198|270:198|306:205,1,90,2|0,0:0|0:0,0:0:0:0:
231,281,41416,1,0,0:0:0:0:
214,302,41505,2,0,B|273:288|273:288|309:295,1,90,8|0,0:0|0:0,0:0:0:0:
372,312,41740,2,0,L|401:317,2,30,0|0|2,0:0|0:0|0:0,0:0:0:0:
298,203,42034,1,0,0:0:0:0:
457,177,42210,1,8,0:0:0:0:
296,95,42387,1,0,0:0:0:0:
476,34,42563,70,0,P|439:43|364:37,1,90,2|0,0:0|0:0,0:0:0:0:
300,20,42828,1,0,0:0:0:0:
274,14,42916,2,0,P|229:12|185:22,1,90,8|0,0:0|0:0,0:0:0:0:
128,92,43181,1,0,0:0:0:0:
115,116,43269,2,0,B|121:174|121:174|113:209,1,90,2|0,0:0|0:0,0:0:0:0:
17,105,43622,1,8,0:0:0:0:
214,133,43799,1,0,0:0:0:0:
214,133,43975,6,0,B|220:191|220:191|212:226,1,90,2|0,0:0|0:0,0:0:0:0:
194,292,44210,2,0,L|186:322,2,30,0|0|8,0:0|0:0|0:0,0:0:0:0:
325,228,44505,2,0,P|380:215|429:220,1,90,0|2,0:0|0:0,0:0:0:0:
296,71,44858,2,0,L|283:26,1,45,0|0,0:0|0:0,0:0:0:0:
281,151,45033,2,0,L|248:184,1,45,0|0,0:0|0:0,0:0:0:0:
358,125,45210,2,0,L|403:136,1,45,0|0,0:0|0:0,0:0:0:0:
219,97,45387,70,0,L|117:72,1,90,6|0,0:0|0:0,0:0:0:0:
67,126,45652,1,0,0:0:0:0:
46,143,45740,2,0,B|82:152|82:152|120:193,1,90,8|0,0:0|0:0,0:0:0:0:
120,282,46005,1,0,0:0:0:0:
113,308,46093,2,0,P|154:269|199:249,1,90,2|0,0:0|0:0,0:0:0:0:
346,253,46446,1,8,0:0:0:0:
206,141,46622,1,0,0:0:0:0:
206,141,46799,6,0,B|239:157|239:157|291:150,1,90,2|0,0:0|0:0,0:0:0:0:
345,89,47063,1,0,0:0:0:0:
345,89,47152,2,0,P|369:130|368:181,1,90,8|0,0:0|0:0,0:0:0:0:
346,253,47416,1,0,0:0:0:0:
346,253,47505,2,0,L|354:347,1,90,2|0,0:0|0:0,0:0:0:0:
202,271,47858,2,0,L|174:258,3,30,8|0|0|0,0:0|0:0|0:0|0:0,0:0:0:0:
119,321,48210,70,0,P|95:278|96:229,1,90,2|0,0:0|0:0,0:0:0:0:
128,163,48475,1,0,0:0:0:0:
139,138,48563,2,0,B|151:106|151:106|146:49,1,90,8|0,0:0|0:0,0:0:0:0:
236,84,48828,1,0,0:0:0:0:
253,105,48916,2,0,L|261:199,1,90,2|0,0:0|0:0,0:0:0:0:
354,54,49269,1,8,0:0:0:0:
439,213,49446,1,0,0:0:0:0:
439,213,49622,6,0,P|396:189|347:190,1,90,2|0,0:0|0:0,0:0:0:0:
298,246,49887,1,0,0:0:0:0:
298,246,49975,1,8,0:0:0:0:
234,117,50152,1,0,0:0:0:0:
98,204,50328,2,0,L|40:213,1,45,2|8,0:0|0:0,0:0:0:0:
189,258,50505,1,0,0:0:0:0:
131,106,50681,2,0,L|116:67,3,30,8|0|0|0,0:0|0:0|0:0|0:0,0:0:0:0:
205,41,51034,70,0,P|249:38|289:57,1,90,2|0,0:0|0:0,0:0:0:0:
360,124,51299,1,0,0:0:0:0:
360,124,51387,2,0,B|392:136|392:136|447:131,1,90,8|0,0:0|0:0,0:0:0:0:
495,46,51652,1,0,0:0:0:0:
495,46,51740,2,0,L|381:57,1,90,2|0,0:0|0:0,0:0:0:0:
266,154,52093,1,8,0:0:0:0:
422,243,52269,1,0,0:0:0:0:
422,243,52446,6,0,B|390:255|390:255|334:250,1,90,2|0,0:0|0:0,0:0:0:0:
259,273,52710,1,0,0:0:0:0:
259,273,52799,1,8,0:0:0:0:
366,152,52975,2,0,L|411:156,3,30,0|0|0|2,0:0|0:0|0:0|0:0,0:0:0:0:
278,42,53328,1,0,0:0:0:0:
194,192,53505,1,8,0:0:0:0:
124,25,53681,1,0,0:0:0:0:
58,202,53858,70,0,P|55:246|74:286,1,90,2|0,0:0|0:0,0:0:0:0:
138,234,54122,1,0,0:0:0:0:
138,234,54210,2,0,B|170:222|170:222|225:226,1,90,8|0,0:0|0:0,0:0:0:0:
274,299,54475,1,0,0:0:0:0:
274,299,54563,2,0,B|242:311|242:311|186:306,1,90,2|0,0:0|0:0,0:0:0:0:
308,224,54916,1,8,0:0:0:0:
426,361,55093,1,0,0:0:0:0:
426,361,55269,6,0,L|433:267,1,90,2|0,0:0|0:0,0:0:0:0:
465,205,55505,2,0,L|467:175,2,30,0|0|8,0:0|0:0|0:0,0:0:0:0:
325,211,55799,2,0,P|283:225|253:258,1,90,0|2,0:0|0:0,0:0:0:0:
375,125,56152,1,8,0:0:0:0:
327,294,56328,2,0,L|331:323,3,30
214,358,56681,6,0,L|140:346,2,60,4|0|0,0:2|0:0|0:0,0:0:0:0:
66,276,57387,2,0,L|125:266,2,60,8|0|0,0:0|0:0|0:0,0:0:0:0:
214,194,58093,1,4,0:0:0:0:
214,194,58799,1,8,0:0:0:0:
234,112,59034,1,0,0:0:0:0:
172,53,59269,1,0,0:0:0:0:
315,87,59505,6,0,L|376:68,2,60,4|0|0,0:0|0:0|0:0,0:0:0:0:
152,135,60210,2,0,L|91:116,2,60,8|0|0,0:0|0:0|0:0,0:0:0:0:
296,171,60916,1,4,0:0:0:0:
195,273,61622,1,8,0:0:0:0:
339,309,61975,2,0,L|383:322,2,30,0|0|0,0:0|0:0|0:0,0:0:0:0:
316,228,62328,69,2,0:0:0:0:
374,167,62563,1,0,0:0:0:0:
234,208,62799,2,0,L|205:199,2,30,8|0|8,0:0|0:0|0:0,0:0:0:0:
397,248,63269,1,8,0:0:0:0:
420,329,63505,1,8,0:0:0:0:
456,188,63740,6,0,L|505:144,2,60,2|8|8,0:0|0:0|0:0,0:0:0:0:
339,309,64446,1,8,0:0:0:0:
258,289,64681,1,8,0:0:0:0:
234,208,64916,1,8,0:0:0:0:
200,350,65152,6,0,B|171:363|171:363|133:362,1,60,2|8,0:0|0:0,0:0:0:0:
80,305,65622,1,8,0:0:0:0:
98,223,65858,1,8,0:0:0:0:
178,197,66093,1,8,0:0:0:0:
196,115,66328,1,8,0:0:0:0:
240,253,66563,6,0,L|296:298,2,60,2|8|8,0:0|0:0|0:0,0:0:0:0:
116,141,67269,21,4,0:0:0:0:
304,209,67505,21,4,0:0:0:0:
276,11,67740,21,4,0:0:0:0:
222,200,67975,6,0,P|237:256|285:290,1,120,6|2,0:0|3:0,0:0:0:0:
371,270,68328,1,8,0:0:0:0:
371,270,68446,2,0,L|449:259,1,60,2|0,3:0|0:0,0:0:0:0:
353,121,68681,2,0,B|307:114|307:114|227:125,1,120,2|2,0:0|3:0,0:0:0:0:
127,197,69034,1,8,0:0:0:0:
127,197,69152,2,0,P|128:168|123:131,1,60,2|0,3:0|0:0,0:0:0:0:
27,43,69387,6,0,P|80:99|176:74,1,180,2|8,0:0|0:0,0:0:0:0:
292,7,69916,1,0,0:0:0:0:
186,66,70093,2,0,L|192:132,1,60,2|0,0:0|0:0,0:0:0:0:
266,201,70328,2,0,L|278:133,1,60,0|8,0:0|0:0,0:0:0:0:
361,65,70563,2,0,P|390:61|420:62,1,60,2|0,3:0|0:0,0:0:0:0:
483,168,70799,70,0,P|425:152|365:154,1,120,2|2,0:0|3:0,0:0:0:0:
266,201,71152,1,8,0:0:0:0:
266,201,71269,2,0,L|204:194,1,60,2|0,3:0|0:0,0:0:0:0:
303,122,71505,2,0,P|350:182|345:238,1,120,2|2,0:0|3:0,0:0:0:0:
309,325,71858,1,8,0:0:0:0:
309,325,71975,2,0,L|371:318,1,60,2|0,3:0|0:0,0:0:0:0:
227,279,72210,6,0,B|167:285|167:285|113:311|113:311|54:317,1,180,2|8,0:0|0:0,0:0:0:0:
85,195,72740,2,0,L|89:149,2,30,0|0|0,0:0|0:0|0:0,0:0:0:0:
100,208,72916,2,0,L|106:156,1,45,2|8,0:0|0:0,0:0:0:0:
125,52,73093,1,0,0:0:0:0:
125,52,73181,1,0,0:0:0:0:
125,52,73269,1,8,0:0:0:0:
157,68,73358,1,0,0:0:0:0:
192,71,73446,1,0,0:0:0:0:
227,65,73534,1,0,0:0:0:0:
273,36,73622,70,0,B|343:29|343:29|391:44,1,120,2|2,0:0|3:0,0:0:0:0:
463,124,73975,1,8,0:0:0:0:
463,124,74093,2,0,P|436:140|404:151,1,60,2|0,3:0|0:0,0:0:0:0:
290,135,74328,2,0,P|316:202|313:255,1,120,2|2,0:0|3:0,0:0:0:0:
257,342,74681,1,8,0:0:0:0:
257,342,74799,2,0,L|332:335,1,60,2|0,3:0|0:0,0:0:0:0:
433,258,75034,6,0,B|373:263|373:263|315:248|315:248|255:253,1,180,2|8,0:0|0:0,0:0:0:0:
129,328,75563,1,0,0:0:0:0:
237,260,75740,2,0,P|242:238|242:201,1,60,2|0,0:0|0:0,0:0:0:0:
149,178,75975,2,0,P|156:203|157:238,1,60,0|8,0:0|0:0,0:0:0:0:
129,328,76210,2,0,L|54:321,1,60,2|0,3:0|0:0,0:0:0:0:
65,163,76446,70,0,P|110:102|166:92,1,120,2|2,0:0|3:0,0:0:0:0:
256,116,76799,1,8,0:0:0:0:
256,116,76916,2,0,L|315:109,1,60,2|0,3:0|0:0,0:0:0:0:
375,50,77152,2,0,B|363:119|363:119|374:168,1,120,2|2,0:0|3:0,0:0:0:0:
406,272,77505,1,8,0:0:0:0:
406,272,77622,2,0,L|331:264,1,60,2|0,3:0|0:0,0:0:0:0:
214,195,77858,6,0,P|221:233|205:297,1,90,2|0,0:0|0:0,0:0:0:0:
94,328,78210,2,0,P|87:290|103:226,1,90,8|0,0:0|0:0,0:0:0:0:
114,114,78563,1,2,0:0:0:0:
152,89,78652,1,0,0:0:0:0:
196,82,78740,1,8,0:0:0:0:
240,86,78828,1,0,0:0:0:0:
277,110,78916,2,0,P|292:126|304:148,1,45,2|0,0:0|0:0,0:0:0:0:
388,76,79093,2,0,P|399:56|406:35,1,45,8|0,0:0|0:0,0:0:0:0:
408,185,79269,6,0,P|414:223|474:164,1,180,4|8,0:2|0:0,0:0:0:0:
307,207,80681,6,0,P|311:245|344:298,2,90,2|2|8,0:0|0:0|1:0,0:0:0:0:
194,71,82093,70,0,B|148:86|148:86|79:72|79:72|50:82|35:120,1,180,2|8,0:0|0:0,0:0:0:0:
104,284,83505,6,0,B|155:295|155:295|201:280,2,90,2|2|8,0:0|0:0|0:0,0:0:0:0:
256,192,84916,69,4,0:0:0:0:
256,192,85005,12,8,88446,0:0:0:0:
358,132,89152,6,0,L|319:124,1,30,4|0,0:0|0:0,0:0:0:0:
191,141,89387,22,0,L|220:147,1,30,4|0,0:0|0:0,0:0:0:0:
338,221,89622,54,0,L|299:213,1,30,4|0,0:0|0:0,0:0:0:0:
171,230,89857,54,0,L|200:236,1,30,4|0,0:0|0:0,0:0:0:0:
318,310,90093,21,4,0:0:0:0:
238,324,90210,22,0,B|173:334|173:334|138:326,1,101.250003862381
248,231,90563,6,0,P|257:173|249:136,1,90,6|0,0:0|0:0,0:0:0:0:
123,77,90916,2,0,P|114:135|122:172,1,90,8|0,0:0|0:0,0:0:0:0:
229,42,91269,2,0,B|283:37|283:37|326:47,1,90,2|0,0:0|0:0,0:0:0:0:
414,119,91534,1,0,0:0:0:0:
436,136,91622,2,0,L|339:128,1,90,8|0,0:0|0:0,0:0:0:0:
270,214,91887,1,0,0:0:0:0:
248,231,91975,6,0,L|345:223,1,90,2|0,0:0|0:0,0:0:0:0:
446,319,92328,2,0,L|500:323,3,45,8|0|0|0,0:0|0:0|0:0|0:0,0:0:0:0:
354,343,92681,2,0,L|302:350,3,45,2|0|0|0,0:0|0:0|0:0|0:0,0:0:0:0:
377,249,93034,2,0,P|378:226|374:204,1,45,8|0,0:0|0:0,0:0:0:0:
295,228,93210,2,0,P|284:207|269:190,1,45,0|0,0:0|0:0,0:0:0:0:
216,305,93387,69,2,0:0:0:0:
182,317,93475,1,0,0:0:0:0:
146,316,93563,1,0,0:0:0:0:
114,297,93652,1,0,0:0:0:0:
95,266,93740,2,0,P|88:243|87:221,3,45,8|0|0|0,0:0|0:0|0:0|0:0,0:0:0:0:
128,150,94093,1,2,0:0:0:0:
136,115,94181,1,0,0:0:0:0:
130,79,94269,1,0,0:0:0:0:
107,50,94358,1,0,0:0:0:0:
73,36,94446,2,0,P|50:32|27:35,1,45,8|0,0:0|0:0,0:0:0:0:
83,149,94622,2,0,P|105:152|128:150,1,45
237,58,94799,6,0,P|279:34|328:29,1,90,2|0,0:0|0:0,0:0:0:0:
427,150,95152,2,0,P|385:174|336:179,1,90,8|0,0:0|0:0,0:0:0:0:
209,190,95505,1,2,0:0:0:0:
209,190,95593,1,8,0:0:0:0:
209,190,95681,1,0,0:0:0:0:
279,313,95858,1,8,0:0:0:0:
279,313,95946,1,0,0:0:0:0:
279,313,96034,1,0,0:0:0:0:
137,312,96210,69,6,0:0:0:0:
103,297,96299,1,0,0:0:0:0:
79,269,96387,1,0,0:0:0:0:
66,235,96475,1,0,0:0:0:0:
63,199,96563,2,0,P|64:176|70:154,3,45,8|0|0|0,0:0|0:0|0:0|0:0,0:0:0:0:
149,104,96916,1,2,0:0:0:0:
149,104,97005,1,0,0:0:0:0:
149,104,97093,2,0,P|147:81|141:59,1,45,0|0,0:0|0:0,0:0:0:0:
234,147,97269,1,8,0:0:0:0:
234,147,97358,1,0,0:0:0:0:
234,147,97446,2,0,P|238:125|238:102,1,45,0|0,0:0|0:0,0:0:0:0:
378,69,97622,6,0,L|443:60,3,45,2|0|0|0,0:0|0:0|0:0|0:0,0:0:0:0:
278,153,97975,2,0,L|213:144,3,45,8|0|0|0,0:0|0:0|0:0|0:0,0:0:0:0:
416,203,98328,2,0,L|481:194,3,45,2|0|0|0,0:0|0:0|0:0|0:0,0:0:0:0:
316,287,98681,2,0,L|251:278,3,45,8|0|0|0,0:0|0:0|0:0|0:0,0:0:0:0:
159,265,99034,70,0,P|148:285|144:314,3,45,2|0|0|0,0:0|0:0|0:0|0:0,0:0:0:0:
232,203,99387,1,8,0:0:0:0:
250,173,99475,1,0,0:0:0:0:
259,137,99563,2,0,P|259:114|255:92,1,45
98,47,99740,2,0,P|76:52|55:61,3,45,2|0|0|0,0:0|0:0|0:0|0:0,0:0:0:0:
192,59,100093,1,8,0:0:0:0:
224,74,100181,1,0,0:0:0:0:
268,75,100269,2,0,P|290:73|312:67,1,45
437,13,100446,6,0,L|432:70,3,45,2|0|0|0,0:0|0:0|0:0|0:0,0:0:0:0:
373,148,100799,2,0,L|378:205,3,45,8|0|0|0,0:0|0:0|0:0|0:0,0:0:0:0:
437,283,101152,1,2,0:0:0:0:
421,325,101240,1,0,0:0:0:0:
386,353,101328,1,0,0:0:0:0:
341,358,101416,1,0,0:0:0:0:
298,341,101505,2,0,P|282:324|270:305,1,45,2|0,0:0|0:0,0:0:0:0:
213,194,101681,2,0,P|206:215|196:235,1,45,2|0,0:0|0:0,0:0:0:0:
97,329,101858,70,0,L|189:319,1,90,6|0,0:0|0:0,0:0:0:0:
76,222,102210,2,0,P|54:172|55:129,1,90,8|0,0:0|0:0,0:0:0:0:
176,58,102563,2,0,P|155:97|153:142,1,90,2|0,0:0|0:0,0:0:0:0:
209,215,102828,1,0,0:0:0:0:
232,230,102916,2,0,L|324:240,1,90,8|0,0:0|0:0,0:0:0:0:
383,307,103181,1,0,0:0:0:0:
360,322,103269,6,0,L|268:332,1,90,2|0,0:0|0:0,0:0:0:0:
232,230,103622,2,0,P|227:205|226:176,3,45,8|0|0|0,0:0|0:0|0:0|0:0,0:0:0:0:
318,190,103975,2,0,P|319:164|326:136,3,45,2|0|0|0,0:0|0:0|0:0|0:0,0:0:0:0:
411,173,104328,2,0,P|419:148|432:123,1,45,8|0,0:0|0:0,0:0:0:0:
479,34,104505,2,0,P|454:38|425:40,1,45,0|0,0:0|0:0,0:0:0:0:
338,20,104681,69,2,0:0:0:0:
303,11,104769,1,0,0:0:0:0:
266,8,104858,1,0,0:0:0:0:
230,10,104946,1,0,0:0:0:0:
195,19,105034,2,0,P|174:28|156:42,3,45,8|0|0|0,0:0|0:0|0:0|0:0,0:0:0:0:
196,114,105387,1,2,0:0:0:0:
208,147,105475,1,0,0:0:0:0:
206,182,105563,1,0,0:0:0:0:
191,215,105652,1,0,0:0:0:0:
162,237,105740,2,0,P|141:245|118:247,1,45,8|0,0:0|0:0,0:0:0:0:
223,319,105916,2,0,P|243:327|265:331,1,45,0|0,0:0|0:0,0:0:0:0:
297,227,106093,6,0,P|323:188|368:162,1,90,2|0,0:0|0:0,0:0:0:0:
495,217,106446,2,0,P|469:256|424:282,1,90,8|0,0:0|0:0,0:0:0:0:
468,103,106799,1,2,0:0:0:0:
468,103,106887,1,8,0:0:0:0:
468,103,106975,1,0,0:0:0:0:
361,52,107152,1,8,0:0:0:0:
361,52,107240,1,0,0:0:0:0:
361,52,107328,1,0,0:0:0:0:
263,119,107505,69,6,0:0:0:0:
227,125,107593,1,0,0:0:0:0:
192,116,107681,1,0,0:0:0:0:
165,92,107769,1,0,0:0:0:0:
144,62,107858,2,0,P|135:41|131:19,3,45,8|0|0|0,0:0|0:0|0:0|0:0,0:0:0:0:
93,120,108210,1,2,0:0:0:0:
93,120,108299,1,0,0:0:0:0:
93,120,108387,2,0,P|102:140|115:158,1,45,0|0,0:0|0:0,0:0:0:0:
45,200,108563,1,8,0:0:0:0:
45,200,108652,1,0,0:0:0:0:
45,200,108740,2,0,P|59:217|77:231,1,45,0|0,0:0|0:0,0:0:0:0:
194,237,108916,6,0,L|250:229,3,45,2|0|0|0,0:0|0:0|0:0|0:0,0:0:0:0:
348,295,109269,2,0,L|303:301,3,45,8|0|0|0,0:0|0:0|0:0|0:0,0:0:0:0:
317,175,109622,2,0,L|373:167,3,45,2|0|0|0,0:0|0:0|0:0|0:0,0:0:0:0:
471,233,109975,2,0,L|426:239,3,45,8|0|0|0,0:0|0:0|0:0|0:0,0:0:0:0:
440,113,110328,21,6,0:0:0:0:
262,235,110563,21,2,0:0:0:0:
245,19,110799,21,2,0:0:0:0:
340,159,111034,22,0,L|398:240,1,90,6|2,0:0|0:0,0:0:0:0:
377,377,111387,2,0,L|324:303,1,90,2|2,0:0|0:0,0:0:0:0:
227,280,111740,22,0,L|183:269,4,30,2|2|2|2|2,0:0|0:0|0:0|0:0|0:0,0:0:0:0:
296,207,112093,1,8,0:0:0:0:
296,207,112269,1,8,0:0:0:0:
365,134,112446,2,0,L|405:144,6,22.5,2|2|2|2|2|2|2,0:0|0:0|0:0|0:0|0:0|0:0|0:0,0:0:0:0:
266,110,112799,2,0,L|245:26,2,60,2|2|2,0:0|0:0|0:0,0:0:0:0:
222,177,113152,38,0,P|244:259|180:315,1,180,4|8,0:2|0:0,0:0:0:0:
368,286,114563,6,0,B|424:277|424:277|461:286,2,90,2|2|8,0:0|0:0|0:0,0:0:0:0:
279,121,115975,70,0,B|260:72|260:72|246:202,1,180,2|8,0:0|0:0,0:0:0:0:
100,82,117387,6,0,B|47:74|47:74|6:84,2,90,2|2|8,0:0|0:0|0:0,0:0:0:0:
190,247,118799,70,0,B|136:239|88:262|88:262|122:231|130:191,1,180,2|8,0:0|0:0,0:0:0:0:
247,115,120210,6,0,P|262:60|259:21,2,90,2|2|8,0:0|0:0|0:0,0:0:0:0:
258,295,121622,70,0,B|303:295|343:266|343:266|384:285|384:285|436:274,1,180,2|8,0:0|0:0,0:0:0:0:
260,171,123034,5,4,0:0:0:0:
