osu file format v14

[General]
AudioFilename: audio.mp3
AudioLeadIn: 0
PreviewTime: 84368
Countdown: 0
SampleSet: Normal
StackLeniency: 0.7
Mode: 1
LetterboxInBreaks: 0
WidescreenStoryboard: 1

[Editor]
Bookmarks: 1000,12368,22473,32578,52789,74263,84368,104578,114684
DistanceSpacing: 0.1
BeatDivisor: 8
GridSize: 32
TimelineZoom: 3.2

[Metadata]
Title:squall
TitleUnicode:squall
Artist:Nekomata Master+
ArtistUnicode:猫叉Master+
Creator:Ulqui
Version:Tormenta
Source:jubeat saucer
Tags:electronic instrumental video game Naoyuki Sato bemani konami fulfill prop qubell clan festo plus jukebeat music pack 24
BeatmapID:2907483
BeatmapSetID:948847

[Difficulty]
HPDrainRate:6
CircleSize:5
OverallDifficulty:7
ApproachRate:6
SliderMultiplier:1.4
SliderTickRate:1

[Events]
//Background and Video events
0,0,"aaaaaa.jpg",0,-15
//Break Periods
//Storyboard Layer 0 (Background)
//Storyboard Layer 1 (Fail)
//Storyboard Layer 2 (Pass)
//Storyboard Layer 3 (Foreground)
//Storyboard Layer 4 (Overlay)
//Storyboard Sound Samples

[TimingPoints]
1000,315.789473684211,4,1,0,60,1,0
11105,-100,4,1,0,60,0,0
11315,-102.040816326531,4,1,0,60,0,0
11526,-104.166666666667,4,1,0,60,0,0
11736,-106.382978723404,4,1,0,60,0,0
11947,-108.695652173913,4,1,0,60,0,0
12157,-111.111111111111,4,1,0,60,0,0
12328,-111.111111111111,4,1,0,60,0,0
12368,-113.636363636364,4,1,0,60,0,0
17381,-113.636363636364,4,1,0,70,0,0
17421,-66.6666666666667,4,1,0,70,0,0
17736,-113.636363636364,4,1,0,70,0,0
21210,-84.7457627118646,4,1,0,70,0,0
21421,-92.5925925925929,4,1,0,70,0,0
21631,-102.040816326531,4,1,0,70,0,0
21842,-113.636363636364,4,1,0,70,0,0
22157,-71.4285714285714,4,1,0,70,0,0
22434,-71.4285714285714,4,1,0,80,0,0
22473,-100,4,1,0,80,0,0
27526,-66.6666666666667,4,1,0,80,0,0
27684,-100,4,1,0,80,0,0
32105,-100,4,1,0,80,0,0
32184,-90.9090909090909,4,1,0,80,0,0
32263,-83.3333333333333,4,1,0,80,0,0
32342,-76.9230769230769,4,1,0,80,0,0
32421,-71.4285714285714,4,1,0,80,0,0
32500,-66.6666666666667,4,1,0,80,0,0
32578,-62.5,4,1,0,80,0,0
32894,-100,4,1,0,80,0,0
36171,-90.9090909090909,4,1,0,80,0,0
36250,-92.5925925925926,4,1,0,80,0,0
36329,-94.3396226415094,4,1,0,80,0,0
36408,-96.1538461538461,4,1,0,80,0,0
36487,-98.0392156862745,4,1,0,80,0,0
36566,-100,4,1,0,80,0,0
36644,-102.040816326531,4,1,0,80,0,0
36723,-104.166666666667,4,1,0,80,0,0
36802,-106.382978723404,4,1,0,80,0,0
36882,-108.695652173913,4,1,0,80,0,0
36961,-111.111111111111,4,1,0,80,0,0
37119,-106.382978723404,4,1,0,80,0,0
37276,-102.040816326531,4,1,0,80,0,0
37434,-98.0392156862745,4,1,0,80,0,0
37513,-96.1538461538461,4,1,0,80,0,0
37592,-90.9090909090909,4,1,0,80,0,0
37671,-100,4,1,0,80,0,0
47078,-90.9090909090909,4,1,0,80,0,0
47184,-89.2857142857143,4,1,0,80,0,0
47289,-87.719298245614,4,1,0,80,0,0
47394,-86.2068965517241,4,1,0,80,0,0
47500,-84.7457627118644,4,1,0,80,0,0
47605,-83.3333333333333,4,1,0,80,0,0
47710,-81.9672131147541,4,1,0,80,0,0
47855,-90.9090909090909,4,1,0,80,0,0
47934,-92.5925925925926,4,1,0,80,0,0
48013,-94.3396226415094,4,1,0,80,0,0
48092,-96.1538461538461,4,1,0,80,0,0
48171,-98.0392156862745,4,1,0,80,0,0
48250,-100,4,1,0,80,0,0
48328,-102.040816326531,4,1,0,80,0,0
48407,-104.166666666667,4,1,0,80,0,0
48486,-106.382978723404,4,1,0,80,0,0
48644,-83.3333333333333,4,1,0,80,0,0
48960,-100,4,1,0,80,0,0
51486,-90.9090909090909,4,1,0,80,0,0
51565,-92.5925925925926,4,1,0,80,0,0
51644,-94.3396226415094,4,1,0,80,0,0
51723,-96.1538461538461,4,1,0,80,0,0
51802,-98.0392156862745,4,1,0,80,0,0
51881,-100,4,1,0,80,0,0
51959,-102.040816326531,4,1,0,80,0,0
52038,-104.166666666667,4,1,0,80,0,0
52117,-106.382978723404,4,1,0,80,0,0
52197,-108.695652173913,4,1,0,80,0,0
52276,-111.111111111111,4,1,0,80,0,0
52355,-113.636363636364,4,1,0,80,0,0
52434,-116.279069767442,4,1,0,80,0,0
52789,-90.9090909090909,4,1,0,80,0,0
62894,-66.6666666666667,4,1,0,80,0,0
63210,-90.9090909090909,4,1,0,80,0,0
63368,-66.6666666666667,4,1,0,80,0,0
63526,-90.9090909090909,4,1,0,80,0,0
65421,-66.6666666666667,4,1,0,80,0,0
65736,-90.9090909090909,4,1,0,80,0,0
65894,-66.6666666666667,4,1,0,80,0,0
66052,-90.9090909090909,4,1,0,80,0,0
67947,-66.6666666666667,4,1,0,80,0,0
68263,-90.9090909090909,4,1,0,80,0,0
68421,-66.6666666666667,4,1,0,80,0,0
68736,-90.9090909090909,4,1,0,80,0,0
70473,-90.9090909090909,4,1,0,80,0,0
70552,-86.9565217391304,4,1,0,80,0,0
70631,-83.3333333333333,4,1,0,80,0,0
70710,-80,4,1,0,80,0,0
70789,-76.9230769230769,4,1,0,80,0,0
73000,-62.5,4,1,0,80,0,0
73210,-66.6666666666667,4,1,0,80,0,0
73421,-71.4285714285714,4,1,0,80,0,0
73631,-76.9230769230769,4,1,0,80,0,0
73842,-83.3333333333333,4,1,0,80,0,0
74052,-90.9090909090909,4,1,0,80,0,0
74263,-100,4,1,0,80,0,0
81802,-100,4,1,0,80,0,0
81960,-99.009900990099,4,1,0,80,0,0
82118,-98.0392156862745,4,1,0,80,0,0
82276,-97.0873786407767,4,1,0,80,0,0
82434,-96.1538461538461,4,1,0,80,0,0
82592,-95.2380952380952,4,1,0,80,0,0
82750,-94.3396226415094,4,1,0,80,0,0
82907,-93.4579439252336,4,1,0,80,0,0
83065,-92.5925925925926,4,1,0,80,0,0
83223,-91.743119266055,4,1,0,80,0,0
83381,-90.9090909090909,4,1,0,80,0,0
83539,-90.0900900900901,4,1,0,80,0,0
83697,-89.2857142857143,4,1,0,80,0,0
83776,-88.495575221239,4,1,0,80,0,0
83855,-87.719298245614,4,1,0,80,0,0
83934,-86.9565217391304,4,1,0,80,0,0
84013,-86.2068965517241,4,1,0,80,0,0
84092,-85.4700854700855,4,1,0,80,0,0
84171,-84.7457627118644,4,1,0,80,0,0
84250,-84.0336134453782,4,1,0,80,0,0
84328,-84.0336134453782,4,1,0,100,0,0
84368,-71.4285714285714,4,1,0,100,0,1
84407,-83.3333333333333,4,1,0,100,0,1
84486,-81.9672131147541,4,1,0,100,0,1
84565,-82.6446280991736,4,1,0,100,0,1
84644,-83.3333333333333,4,1,0,100,0,1
84802,-80.6451612903226,4,1,0,100,0,1
84881,-81.3008130081301,4,1,0,100,0,1
84960,-81.9672131147541,4,1,0,100,0,1
85039,-82.6446280991736,4,1,0,100,0,1
85118,-83.3333333333333,4,1,0,100,0,1
85276,-83.3333333333333,4,1,0,100,0,1
85434,-79.3650793650794,4,1,0,100,0,1
85513,-80,4,1,0,100,0,1
85592,-80.6451612903226,4,1,0,100,0,1
85671,-81.3008130081301,4,1,0,100,0,1
85750,-81.9672131147541,4,1,0,100,0,1
85828,-82.6446280991736,4,1,0,100,0,1
85907,-83.3333333333333,4,1,0,100,0,1
86065,-76.9230769230769,4,1,0,100,0,1
86144,-77.5193798449612,4,1,0,100,0,1
86223,-78.125,4,1,0,100,0,1
86302,-78.7401574803149,4,1,0,100,0,1
86381,-79.3650793650794,4,1,0,100,0,1
86459,-80,4,1,0,100,0,1
86538,-80.6451612903226,4,1,0,100,0,1
86618,-81.3008130081301,4,1,0,100,0,1
86697,-81.9672131147541,4,1,0,100,0,1
86776,-82.6446280991736,4,1,0,100,0,1
86855,-83.3333333333333,4,1,0,100,0,1
87013,-81.9672131147541,4,1,0,100,0,1
87092,-82.6446280991736,4,1,0,100,0,1
87171,-83.3333333333333,4,1,0,100,0,1
87329,-80.6451612903226,4,1,0,100,0,1
87408,-81.3008130081301,4,1,0,100,0,1
87487,-81.9672131147541,4,1,0,100,0,1
87566,-82.6446280991736,4,1,0,100,0,1
87645,-83.3333333333333,4,1,0,100,0,1
87803,-83.3333333333333,4,1,0,100,0,1
87961,-79.3650793650794,4,1,0,100,0,1
88040,-80,4,1,0,100,0,1
88119,-80.6451612903226,4,1,0,100,0,1
88198,-81.3008130081301,4,1,0,100,0,1
88277,-81.9672131147541,4,1,0,100,0,1
88355,-82.6446280991736,4,1,0,100,0,1
88434,-83.3333333333333,4,1,0,100,0,1
88592,-76.9230769230769,4,1,0,100,0,1
88671,-77.5193798449612,4,1,0,100,0,1
88750,-78.125,4,1,0,100,0,1
88829,-78.7401574803149,4,1,0,100,0,1
88908,-79.3650793650794,4,1,0,100,0,1
88986,-80,4,1,0,100,0,1
89065,-80.6451612903226,4,1,0,100,0,1
89145,-81.3008130081301,4,1,0,100,0,1
89224,-81.9672131147541,4,1,0,100,0,1
89303,-82.6446280991736,4,1,0,100,0,1
89382,-83.3333333333333,4,1,0,100,0,1
89447,-80.6451612903226,4,1,0,100,0,1
89500,-78.125,4,1,0,100,0,1
89552,-75.7575757575758,4,1,0,100,0,1
89736,-90.9090909090909,4,1,0,100,0,1
89868,-83.3333333333333,4,1,0,100,0,1
89921,-81.3008130081301,4,1,0,100,0,1
89973,-79.3650793650794,4,1,0,100,0,1
90026,-77.5193798449612,4,1,0,100,0,1
90210,-90.9090909090909,4,1,0,100,0,1
90328,-73.5294117647059,4,1,0,100,0,1
90407,-74.6268656716418,4,1,0,100,0,1
90486,-75.7575757575758,4,1,0,100,0,1
90565,-76.9230769230769,4,1,0,100,0,1
90644,-78.125,4,1,0,100,0,1
90723,-79.3650793650794,4,1,0,100,0,1
90802,-80.6451612903226,4,1,0,100,0,1
90880,-81.9672131147541,4,1,0,100,0,1
90959,-83.3333333333333,4,1,0,100,0,1
91118,-76.9230769230769,4,1,0,100,0,1
91197,-77.5193798449612,4,1,0,100,0,1
91276,-78.125,4,1,0,100,0,1
91355,-78.7401574803149,4,1,0,100,0,1
91434,-79.3650793650794,4,1,0,100,0,1
91512,-80,4,1,0,100,0,1
91591,-80.6451612903226,4,1,0,100,0,1
91671,-81.3008130081301,4,1,0,100,0,1
91750,-81.9672131147541,4,1,0,100,0,1
91829,-82.6446280991736,4,1,0,100,0,1
91908,-83.3333333333333,4,1,0,100,0,1
92065,-81.9672131147541,4,1,0,100,0,1
92144,-82.6446280991736,4,1,0,100,0,1
92223,-83.3333333333333,4,1,0,100,0,1
92381,-80.6451612903226,4,1,0,100,0,1
92460,-81.3008130081301,4,1,0,100,0,1
92539,-81.9672131147541,4,1,0,100,0,1
92618,-82.6446280991736,4,1,0,100,0,1
92697,-83.3333333333333,4,1,0,100,0,1
92855,-83.3333333333333,4,1,0,100,0,1
93013,-79.3650793650794,4,1,0,100,0,1
93092,-80,4,1,0,100,0,1
93171,-80.6451612903226,4,1,0,100,0,1
93250,-81.3008130081301,4,1,0,100,0,1
93329,-81.9672131147541,4,1,0,100,0,1
93407,-82.6446280991736,4,1,0,100,0,1
93486,-83.3333333333333,4,1,0,100,0,1
93644,-76.9230769230769,4,1,0,100,0,1
93723,-77.5193798449612,4,1,0,100,0,1
93802,-78.125,4,1,0,100,0,1
93881,-78.7401574803149,4,1,0,100,0,1
93960,-79.3650793650794,4,1,0,100,0,1
94038,-80,4,1,0,100,0,1
94117,-80.6451612903226,4,1,0,100,0,1
94197,-81.3008130081301,4,1,0,100,0,1
94276,-81.9672131147541,4,1,0,100,0,1
94355,-82.6446280991736,4,1,0,100,0,1
94434,-71.4285714285714,4,1,0,100,0,1
94513,-83.3333333333333,4,1,0,100,0,1
94592,-81.9672131147541,4,1,0,100,0,1
94671,-82.6446280991736,4,1,0,100,0,1
94750,-83.3333333333333,4,1,0,100,0,1
94908,-80.6451612903226,4,1,0,100,0,1
94987,-81.3008130081301,4,1,0,100,0,1
95066,-81.9672131147541,4,1,0,100,0,1
95145,-82.6446280991736,4,1,0,100,0,1
95224,-83.3333333333333,4,1,0,100,0,1
95382,-83.3333333333333,4,1,0,100,0,1
95540,-79.3650793650794,4,1,0,100,0,1
95619,-80,4,1,0,100,0,1
95698,-80.6451612903226,4,1,0,100,0,1
95777,-81.3008130081301,4,1,0,100,0,1
95856,-81.9672131147541,4,1,0,100,0,1
95934,-82.6446280991736,4,1,0,100,0,1
96013,-83.3333333333333,4,1,0,100,0,1
96171,-76.9230769230769,4,1,0,100,0,1
96250,-77.5193798449612,4,1,0,100,0,1
96329,-78.125,4,1,0,100,0,1
96408,-78.7401574803149,4,1,0,100,0,1
96487,-79.3650793650794,4,1,0,100,0,1
96565,-80,4,1,0,100,0,1
96644,-80.6451612903226,4,1,0,100,0,1
96724,-81.3008130081301,4,1,0,100,0,1
96803,-81.9672131147541,4,1,0,100,0,1
96882,-82.6446280991736,4,1,0,100,0,1
96961,-83.3333333333333,4,1,0,100,0,1
97119,-81.9672131147541,4,1,0,100,0,1
97198,-82.6446280991736,4,1,0,100,0,1
97277,-83.3333333333333,4,1,0,100,0,1
97435,-80.6451612903226,4,1,0,100,0,1
97514,-81.3008130081301,4,1,0,100,0,1
97593,-81.9672131147541,4,1,0,100,0,1
97672,-82.6446280991736,4,1,0,100,0,1
97751,-83.3333333333333,4,1,0,100,0,1
97909,-83.3333333333333,4,1,0,100,0,1
98067,-79.3650793650794,4,1,0,100,0,1
98146,-80,4,1,0,100,0,1
98225,-80.6451612903226,4,1,0,100,0,1
98304,-81.3008130081301,4,1,0,100,0,1
98383,-81.9672131147541,4,1,0,100,0,1
98461,-82.6446280991736,4,1,0,100,0,1
98540,-83.3333333333333,4,1,0,100,0,1
98698,-76.9230769230769,4,1,0,100,0,1
98777,-77.5193798449612,4,1,0,100,0,1
98856,-78.125,4,1,0,100,0,1
98935,-78.7401574803149,4,1,0,100,0,1
99014,-79.3650793650794,4,1,0,100,0,1
99092,-80,4,1,0,100,0,1
99171,-80.6451612903226,4,1,0,100,0,1
99251,-81.3008130081301,4,1,0,100,0,1
99330,-81.9672131147541,4,1,0,100,0,1
99409,-82.6446280991736,4,1,0,100,0,1
99488,-83.3333333333333,4,1,0,100,0,1
99553,-80.6451612903226,4,1,0,100,0,1
99606,-78.125,4,1,0,100,0,1
99658,-75.7575757575758,4,1,0,100,0,1
99822,-90.9090909090909,4,1,0,100,0,1
99974,-83.3333333333333,4,1,0,100,0,1
100027,-81.3008130081301,4,1,0,100,0,1
100079,-79.3650793650794,4,1,0,100,0,1
100132,-77.5193798449612,4,1,0,100,0,1
100296,-90.9090909090909,4,1,0,100,0,1
100434,-73.5294117647059,4,1,0,100,0,1
100513,-74.6268656716418,4,1,0,100,0,1
100592,-75.7575757575758,4,1,0,100,0,1
100671,-76.9230769230769,4,1,0,100,0,1
100750,-78.125,4,1,0,100,0,1
100829,-79.3650793650794,4,1,0,100,0,1
100908,-80.6451612903226,4,1,0,100,0,1
100986,-81.9672131147541,4,1,0,100,0,1
101065,-83.3333333333333,4,1,0,100,0,1
101224,-76.9230769230769,4,1,0,100,0,1
101303,-77.5193798449612,4,1,0,100,0,1
101382,-78.125,4,1,0,100,0,1
101461,-78.7401574803149,4,1,0,100,0,1
101540,-79.3650793650794,4,1,0,100,0,1
101618,-80,4,1,0,100,0,1
101697,-80.6451612903226,4,1,0,100,0,1
101777,-81.3008130081301,4,1,0,100,0,1
101856,-81.9672131147541,4,1,0,100,0,1
101935,-82.6446280991736,4,1,0,100,0,1
102014,-83.3333333333333,4,1,0,100,0,1
102171,-81.9672131147541,4,1,0,100,0,1
102250,-82.6446280991736,4,1,0,100,0,1
102329,-83.3333333333333,4,1,0,100,0,1
102487,-80.6451612903226,4,1,0,100,0,1
102566,-81.3008130081301,4,1,0,100,0,1
102645,-81.9672131147541,4,1,0,100,0,1
102724,-82.6446280991736,4,1,0,100,0,1
102803,-83.3333333333333,4,1,0,100,0,1
102961,-83.3333333333333,4,1,0,100,0,1
103119,-79.3650793650794,4,1,0,100,0,1
103198,-80,4,1,0,100,0,1
103277,-80.6451612903226,4,1,0,100,0,1
103356,-81.3008130081301,4,1,0,100,0,1
103435,-81.9672131147541,4,1,0,100,0,1
103513,-82.6446280991736,4,1,0,100,0,1
103592,-83.3333333333333,4,1,0,100,0,1
103750,-81.9672131147541,4,1,0,100,0,1
103829,-82.6446280991736,4,1,0,100,0,1
103908,-83.3333333333333,4,1,0,100,0,1
103987,-78.7401574803149,4,1,0,100,0,1
104066,-81.9672131147541,4,1,0,100,0,1
104144,-82.6446280991736,4,1,0,100,0,1
104223,-83.3333333333333,4,1,0,100,0,1
104303,-81.3008130081301,4,1,0,100,0,1
104382,-86.9565217391304,4,1,0,100,0,1
104461,-82.6446280991736,4,1,0,100,0,1
104540,-83.3333333333333,4,1,0,100,0,1
104578,-100,4,1,0,100,0,0
104697,-100,4,1,0,60,0,0
104736,-100,4,1,0,60,0,0

[HitObjects]
133,127,1000,5,0,0:0:0:0:
133,127,1157,1,8,0:0:0:0:
58,115,1236,1,8,0:0:0:0:
133,127,1315,1,0,0:0:0:0:
145,62,1473,1,8,0:0:0:0:
145,62,1631,1,0,0:0:0:0:
151,77,1710,1,8,0:0:0:0:
152,78,1868,1,8,0:0:0:0:
152,78,1947,1,0,0:0:0:0:
161,86,2105,1,8,0:0:0:0:
161,86,2263,1,0,0:0:0:0:
131,76,2342,1,0,0:0:0:0:
60,136,2421,1,8,0:0:0:0:
60,136,2578,1,0,0:0:0:0:
170,109,2657,1,8,0:0:0:0:
168,110,2815,1,8,0:0:0:0:
184,89,2894,1,0,0:0:0:0:
175,68,3052,1,8,0:0:0:0:
175,68,3210,1,0,0:0:0:0:
181,64,3526,1,8,0:0:0:0:
181,64,3842,1,0,0:0:0:0:
126,50,4000,1,8,0:0:0:0:
186,63,4078,1,8,0:0:0:0:
165,85,4157,1,0,0:0:0:0:
186,63,4236,1,8,0:0:0:0:
181,64,4394,1,8,0:0:0:0:
181,64,4473,1,0,0:0:0:0:
166,63,4631,1,8,0:0:0:0:
166,63,4789,1,0,0:0:0:0:
158,60,4947,1,8,0:0:0:0:
158,60,5026,1,8,0:0:0:0:
109,26,5105,1,0,0:0:0:0:
159,85,5263,1,8,0:0:0:0:
159,85,5421,1,0,0:0:0:0:
155,78,5578,1,0,0:0:0:0:
155,78,5657,1,8,0:0:0:0:
155,78,5736,1,0,0:0:0:0:
151,63,5894,1,8,0:0:0:0:
151,63,5947,1,8,0:0:0:0:
151,63,6000,1,8,0:0:0:0:
151,63,6052,1,0,0:0:0:0:
141,106,6210,1,8,0:0:0:0:
141,106,6368,1,0,0:0:0:0:
192,102,6526,1,8,0:0:0:0:
192,102,6605,1,8,0:0:0:0:
192,102,6684,1,0,0:0:0:0:
192,102,6842,1,8,0:0:0:0:
192,102,7000,1,0,0:0:0:0:
187,66,7078,1,8,0:0:0:0:
187,66,7236,1,8,0:0:0:0:
170,62,7315,1,0,0:0:0:0:
169,69,7473,1,8,0:0:0:0:
163,66,7631,1,0,0:0:0:0:
163,66,7710,1,0,0:0:0:0:
163,66,7789,1,8,0:0:0:0:
171,46,7947,1,0,0:0:0:0:
171,61,8105,1,8,0:0:0:0:
171,61,8263,1,0,0:0:0:0:
192,41,8578,1,8,0:0:0:0:
157,45,8894,1,0,0:0:0:0:
180,76,9052,1,8,0:0:0:0:
180,76,9131,1,8,0:0:0:0:
180,76,9210,1,0,0:0:0:0:
180,72,9289,1,8,0:0:0:0:
166,45,9447,1,8,0:0:0:0:
180,76,9526,1,0,0:0:0:0:
226,100,9631,1,8,0:0:0:0:
222,88,9736,1,8,0:0:0:0:
222,88,9842,1,0,0:0:0:0:
197,97,10000,1,8,0:0:0:0:
197,97,10157,1,0,0:0:0:0:
180,72,10315,1,0,0:0:0:0:
180,76,10394,1,8,0:0:0:0:
180,76,10473,1,0,0:0:0:0:
195,43,10631,1,0,0:0:0:0:
195,43,10710,1,0,0:0:0:0:
195,43,10789,1,8,0:0:0:0:
157,101,10894,1,8,0:0:0:0:
156,71,11000,1,8,0:0:0:0:
157,101,11105,1,8,0:0:0:0:
227,117,11315,1,8,0:0:0:0:
227,117,11526,1,8,0:0:0:0:
227,117,11736,1,8,0:0:0:0:
227,117,11947,1,8,0:0:0:0:
227,117,12157,1,8,0:0:0:0:
227,117,12368,1,4,0:0:0:0:
159,114,12684,1,0,0:0:0:0:
159,114,12842,1,8,0:0:0:0:
156,105,13000,1,0,0:0:0:0:
207,52,13157,1,0,0:0:0:0:
156,103,13315,1,8,0:0:0:0:
165,107,13631,1,0,0:0:0:0:
165,107,13789,1,8,0:0:0:0:
158,84,14105,1,0,0:0:0:0:
158,84,14263,1,8,0:0:0:0:
157,85,14421,1,8,0:0:0:0:
157,85,14578,1,0,0:0:0:0:
140,73,14736,1,8,0:0:0:0:
140,73,14894,1,0,0:0:0:0:
158,84,15210,1,0,0:0:0:0:
157,79,15368,1,8,0:0:0:0:
176,95,15684,1,0,0:0:0:0:
176,95,15842,1,8,0:0:0:0:
176,95,16000,1,0,0:0:0:0:
176,95,16157,1,0,0:0:0:0:
176,95,16315,1,8,0:0:0:0:
161,64,16631,1,0,0:0:0:0:
161,64,16789,1,8,0:0:0:0:
295,101,16947,1,0,0:0:0:0:
295,101,17000,1,0,0:0:0:0:
295,101,17052,1,8,0:0:0:0:
295,101,17105,1,0,0:0:0:0:
128,77,17263,1,8,0:0:0:0:
128,77,17421,1,4,0:0:0:0:
167,113,17736,1,0,0:0:0:0:
167,113,17894,1,8,0:0:0:0:
167,113,18052,1,0,0:0:0:0:
158,120,18210,1,0,0:0:0:0:
156,122,18368,1,8,0:0:0:0:
156,122,18684,1,0,0:0:0:0:
156,122,18842,1,8,0:0:0:0:
155,113,19157,1,0,0:0:0:0:
154,117,19315,1,8,0:0:0:0:
154,117,19473,1,0,0:0:0:0:
154,117,19631,1,0,0:0:0:0:
154,117,19789,1,8,0:0:0:0:
155,113,19947,1,0,0:0:0:0:
165,109,20263,1,0,0:0:0:0:
165,109,20421,1,8,0:0:0:0:
159,71,20736,1,8,0:0:0:0:
159,71,20894,1,0,0:0:0:0:
184,71,21210,1,8,0:0:0:0:
126,128,21421,1,0,0:0:0:0:
126,128,21631,1,0,0:0:0:0:
126,128,21842,1,0,0:0:0:0:
155,114,22157,1,8,0:0:0:0:
177,92,22473,1,4,0:0:0:0:
186,127,22631,1,0,0:0:0:0:
186,127,22789,1,8,0:0:0:0:
134,109,22947,1,0,0:0:0:0:
136,107,23026,1,0,0:0:0:0:
134,109,23105,1,8,0:0:0:0:
136,107,23184,1,8,0:0:0:0:
134,109,23263,1,0,0:0:0:0:
153,87,23421,1,8,0:0:0:0:
151,91,23578,1,0,0:0:0:0:
148,94,23657,1,0,0:0:0:0:
151,91,23736,1,0,0:0:0:0:
146,111,23894,1,0,0:0:0:0:
146,112,24052,1,8,0:0:0:0:
148,98,24210,1,8,0:0:0:0:
147,100,24289,1,0,0:0:0:0:
148,98,24368,1,8,0:0:0:0:
147,100,24447,1,8,0:0:0:0:
147,99,24526,1,0,0:0:0:0:
186,85,24684,1,8,0:0:0:0:
186,85,24842,1,0,0:0:0:0:
177,79,24921,1,0,0:0:0:0:
177,80,25000,1,0,0:0:0:0:
172,87,25157,1,0,0:0:0:0:
170,89,25315,1,8,0:0:0:0:
131,143,25473,1,0,0:0:0:0:
126,149,25552,1,0,0:0:0:0:
131,143,25631,1,8,0:0:0:0:
126,149,25710,1,8,0:0:0:0:
126,148,25789,1,0,0:0:0:0:
161,94,25947,1,8,0:0:0:0:
161,94,26105,1,0,0:0:0:0:
161,94,26184,1,8,0:0:0:0:
161,94,26263,1,0,0:0:0:0:
156,96,26421,1,0,0:0:0:0:
154,124,26500,1,0,0:0:0:0:
156,96,26578,1,8,0:0:0:0:
154,124,26657,1,0,0:0:0:0:
154,124,26736,1,8,0:0:0:0:
154,124,26815,1,8,0:0:0:0:
154,124,26894,1,0,0:0:0:0:
160,69,27052,1,8,0:0:0:0:
161,71,27131,1,0,0:0:0:0:
160,69,27210,1,8,0:0:0:0:
160,73,27526,1,4,0:0:0:0:
160,130,27684,1,0,0:0:0:0:
160,131,27842,1,8,0:0:0:0:
176,85,28000,1,0,0:0:0:0:
176,85,28078,1,0,0:0:0:0:
176,85,28157,1,8,0:0:0:0:
176,85,28236,1,8,0:0:0:0:
176,85,28315,1,0,0:0:0:0:
168,70,28473,1,8,0:0:0:0:
190,74,28552,1,8,0:0:0:0:
190,71,28631,1,0,0:0:0:0:
190,72,28789,1,0,0:0:0:0:
179,94,28947,1,0,0:0:0:0:
173,96,29026,1,0,0:0:0:0:
179,94,29105,1,8,0:0:0:0:
176,85,29263,1,0,0:0:0:0:
176,85,29342,1,0,0:0:0:0:
174,83,29421,1,8,0:0:0:0:
174,83,29500,1,8,0:0:0:0:
149,104,29578,1,0,0:0:0:0:
149,104,29657,1,0,0:0:0:0:
152,66,29736,1,8,0:0:0:0:
166,76,29894,1,8,0:0:0:0:
166,76,30052,1,0,0:0:0:0:
149,112,30131,1,8,0:0:0:0:
177,71,30210,1,0,0:0:0:0:
149,79,30289,1,0,0:0:0:0:
177,72,30368,1,8,0:0:0:0:
222,114,30421,1,8,0:0:0:0:
222,114,30473,1,8,0:0:0:0:
222,114,30526,1,0,0:0:0:0:
184,59,30684,1,0,0:0:0:0:
170,52,30763,1,0,0:0:0:0:
184,59,30842,1,0,0:0:0:0:
178,27,30921,1,0,0:0:0:0:
170,52,31000,1,8,0:0:0:0:
176,32,31157,1,0,0:0:0:0:
176,32,31315,1,0,0:0:0:0:
173,28,31473,1,0,0:0:0:0:
176,33,31552,1,0,0:0:0:0:
157,64,31631,1,8,0:0:0:0:
174,102,31789,1,8,0:0:0:0:
174,102,31947,1,0,0:0:0:0:
174,102,32105,1,0,0:0:0:0:
174,102,32184,1,0,0:0:0:0:
174,102,32263,1,8,0:0:0:0:
174,102,32342,1,8,0:0:0:0:
174,102,32421,1,8,0:0:0:0:
174,102,32500,1,8,0:0:0:0:
174,102,32578,1,4,0:0:0:0:
125,102,32894,1,8,0:0:0:0:
174,76,33052,1,0,0:0:0:0:
166,67,33131,1,0,0:0:0:0:
174,77,33210,1,0,0:0:0:0:
145,57,33289,1,0,0:0:0:0:
171,124,33368,1,0,0:0:0:0:
163,128,33526,1,8,0:0:0:0:
179,72,33684,1,8,0:0:0:0:
160,138,33842,1,0,0:0:0:0:
179,72,34000,1,0,0:0:0:0:
191,48,34078,1,0,0:0:0:0:
160,140,34157,1,8,0:0:0:0:
160,154,34315,1,0,0:0:0:0:
181,43,34394,1,0,0:0:0:0:
160,154,34473,1,0,0:0:0:0:
160,158,34552,1,8,0:0:0:0:
160,156,34631,1,0,0:0:0:0:
161,158,34789,1,8,0:0:0:0:
212,52,34947,1,8,0:0:0:0:
212,52,35026,1,8,0:0:0:0:
212,52,35105,1,0,0:0:0:0:
200,78,35263,1,0,0:0:0:0:
200,78,35421,1,8,0:0:0:0:
189,76,35578,1,0,0:0:0:0:
190,81,35657,1,8,0:0:0:0:
189,77,35736,1,0,0:0:0:0:
177,49,35815,1,0,0:0:0:0:
189,77,35894,1,0,0:0:0:0:
190,82,36052,1,8,0:0:0:0:
206,159,36210,1,8,0:0:0:0:
206,159,36289,1,0,0:0:0:0:
206,159,36368,1,8,0:0:0:0:
204,163,36447,1,8,0:0:0:0:
204,164,36526,1,0,0:0:0:0:
204,165,36605,1,0,0:0:0:0:
204,164,36684,1,8,0:0:0:0:
204,165,36763,1,8,0:0:0:0:
204,164,36842,1,0,0:0:0:0:
204,165,36921,1,8,0:0:0:0:
204,164,37000,1,0,0:0:0:0:
204,165,37157,1,0,0:0:0:0:
204,167,37315,1,8,0:0:0:0:
204,163,37473,1,8,0:0:0:0:
160,163,37552,1,8,0:0:0:0:
204,159,37631,1,4,0:0:0:0:
181,173,37947,1,8,0:0:0:0:
155,138,38105,1,0,0:0:0:0:
155,143,38184,1,0,0:0:0:0:
155,138,38263,1,0,0:0:0:0:
155,143,38421,1,0,0:0:0:0:
155,144,38578,1,8,0:0:0:0:
148,151,38657,1,8,0:0:0:0:
150,146,38736,1,0,0:0:0:0:
148,148,38894,1,0,0:0:0:0:
148,151,39052,1,0,0:0:0:0:
186,58,39131,1,0,0:0:0:0:
186,58,39210,1,8,0:0:0:0:
165,115,39368,1,0,0:0:0:0:
188,71,39447,1,0,0:0:0:0:
165,115,39526,1,0,0:0:0:0:
165,115,39605,1,8,0:0:0:0:
165,115,39684,1,0,0:0:0:0:
165,115,39842,1,8,0:0:0:0:
153,80,40000,1,0,0:0:0:0:
181,100,40078,1,0,0:0:0:0:
153,80,40157,1,0,0:0:0:0:
174,107,40315,1,0,0:0:0:0:
178,116,40473,1,8,0:0:0:0:
159,125,40631,1,0,0:0:0:0:
187,76,40710,1,8,0:0:0:0:
159,125,40789,1,0,0:0:0:0:
159,128,40868,1,0,0:0:0:0:
159,125,40947,1,0,0:0:0:0:
159,133,41105,1,8,0:0:0:0:
221,76,41263,1,0,0:0:0:0:
221,76,41421,1,0,0:0:0:0:
160,95,41578,1,0,0:0:0:0:
160,95,41657,1,0,0:0:0:0:
160,95,41736,1,8,0:0:0:0:
189,106,41894,1,0,0:0:0:0:
189,106,41947,1,8,0:0:0:0:
151,13,42000,1,8,0:0:0:0:
189,106,42052,1,0,0:0:0:0:
189,106,42131,1,0,0:0:0:0:
189,106,42210,1,8,0:0:0:0:
189,106,42368,1,8,0:0:0:0:
201,90,42447,1,0,0:0:0:0:
201,89,42684,1,4,0:0:0:0:
206,165,43000,1,8,0:0:0:0:
179,112,43157,1,0,0:0:0:0:
179,111,43315,1,0,0:0:0:0:
168,85,43394,1,0,0:0:0:0:
179,112,43473,1,0,0:0:0:0:
207,93,43631,1,8,0:0:0:0:
207,93,43789,1,0,0:0:0:0:
207,93,43947,1,0,0:0:0:0:
207,93,44105,1,0,0:0:0:0:
168,85,44184,1,0,0:0:0:0:
207,93,44263,1,8,0:0:0:0:
207,93,44421,1,0,0:0:0:0:
172,76,44500,1,0,0:0:0:0:
207,93,44578,1,0,0:0:0:0:
172,76,44657,1,8,0:0:0:0:
207,93,44736,1,0,0:0:0:0:
207,93,44894,1,8,0:0:0:0:
207,93,45052,1,8,0:0:0:0:
166,34,45131,1,8,0:0:0:0:
207,93,45210,1,0,0:0:0:0:
207,93,45526,1,8,0:0:0:0:
207,93,45684,1,0,0:0:0:0:
185,52,45763,1,0,0:0:0:0:
185,52,45842,1,0,0:0:0:0:
185,52,45921,1,0,0:0:0:0:
207,93,46000,1,0,0:0:0:0:
207,93,46157,1,8,0:0:0:0:
207,93,46315,1,8,0:0:0:0:
185,52,46394,1,8,0:0:0:0:
207,93,46473,1,0,0:0:0:0:
207,93,46631,1,0,0:0:0:0:
187,31,46710,1,0,0:0:0:0:
207,93,46789,1,8,0:0:0:0:
207,93,46947,1,0,0:0:0:0:
207,93,47105,1,8,0:0:0:0:
223,133,47210,1,0,0:0:0:0:
223,133,47315,1,0,0:0:0:0:
223,133,47421,1,8,0:0:0:0:
223,133,47526,1,8,0:0:0:0:
223,133,47631,1,8,0:0:0:0:
223,133,47736,1,8,0:0:0:0:
179,122,47894,1,0,0:0:0:0:
179,122,47973,1,0,0:0:0:0:
179,122,48052,1,0,0:0:0:0:
179,122,48131,1,0,0:0:0:0:
179,122,48210,1,0,0:0:0:0:
179,122,48289,1,0,0:0:0:0:
179,122,48368,1,0,0:0:0:0:
179,122,48447,1,0,0:0:0:0:
179,122,48526,1,0,0:0:0:0:
179,122,48684,1,12,0:0:0:0:
179,122,49000,1,0,0:0:0:0:
179,122,49157,1,0,0:0:0:0:
180,57,49236,1,0,0:0:0:0:
179,122,49315,1,8,0:0:0:0:
180,57,49473,1,0,0:0:0:0:
180,57,49552,1,8,0:0:0:0:
180,57,49631,1,0,0:0:0:0:
180,57,49710,1,0,0:0:0:0:
179,122,49789,1,0,0:0:0:0:
179,122,49947,1,8,0:0:0:0:
190,143,50105,1,8,0:0:0:0:
190,143,50263,1,0,0:0:0:0:
172,43,50342,1,0,0:0:0:0:
190,143,50421,1,0,0:0:0:0:
173,43,50500,1,0,0:0:0:0:
190,143,50578,1,8,0:0:0:0:
190,143,50736,1,0,0:0:0:0:
172,43,50815,1,0,0:0:0:0:
190,143,50894,1,0,0:0:0:0:
172,43,50973,1,0,0:0:0:0:
190,143,51052,1,0,0:0:0:0:
190,143,51210,1,8,0:0:0:0:
173,56,51368,1,0,0:0:0:0:
190,143,51526,1,8,0:0:0:0:
174,50,51605,1,8,0:0:0:0:
190,143,51684,1,0,0:0:0:0:
174,48,51763,1,0,0:0:0:0:
190,143,51842,1,8,0:0:0:0:
170,48,51921,1,8,0:0:0:0:
190,143,52000,1,0,0:0:0:0:
174,50,52078,1,8,0:0:0:0:
190,143,52157,1,0,0:0:0:0:
172,62,52236,1,0,0:0:0:0:
190,143,52315,1,0,0:0:0:0:
172,62,52394,1,0,0:0:0:0:
172,62,52473,1,8,0:0:0:0:
190,143,52789,1,4,0:0:0:0:
165,92,53105,1,8,0:0:0:0:
165,92,53263,1,4,0:0:0:0:
139,188,53421,1,0,0:0:0:0:
184,47,53500,1,8,0:0:0:0:
139,188,53578,1,0,0:0:0:0:
139,188,53736,1,8,0:0:0:0:
197,91,53894,1,0,0:0:0:0:
196,91,53973,1,0,0:0:0:0:
197,91,54052,1,8,0:0:0:0:
176,92,54210,1,0,0:0:0:0:
176,92,54289,1,0,0:0:0:0:
176,92,54368,1,0,0:0:0:0:
176,92,54526,1,8,0:0:0:0:
176,92,54684,1,0,0:0:0:0:
171,123,54763,1,0,0:0:0:0:
171,123,54842,1,8,0:0:0:0:
171,123,54921,1,8,0:0:0:0:
171,123,55000,1,0,0:0:0:0:
158,64,55157,1,8,0:0:0:0:
158,64,55315,1,0,0:0:0:0:
153,196,55473,1,0,0:0:0:0:
154,186,55552,1,0,0:0:0:0:
153,196,55631,1,8,0:0:0:0:
164,71,55789,1,0,0:0:0:0:
166,68,55947,1,0,0:0:0:0:
176,42,56026,1,0,0:0:0:0:
164,71,56105,1,8,0:0:0:0:
176,31,56263,1,0,0:0:0:0:
176,42,56421,1,8,0:0:0:0:
176,42,56500,1,8,0:0:0:0:
172,37,56578,1,0,0:0:0:0:
164,71,56736,1,0,0:0:0:0:
166,68,56894,1,8,0:0:0:0:
186,44,57052,1,0,0:0:0:0:
186,44,57210,1,0,0:0:0:0:
182,80,57289,1,0,0:0:0:0:
186,44,57368,1,8,0:0:0:0:
182,80,57447,1,8,0:0:0:0:
186,44,57526,1,0,0:0:0:0:
187,57,57605,1,0,0:0:0:0:
187,57,57684,1,8,0:0:0:0:
183,28,57842,1,4,0:0:0:0:
178,71,58000,1,0,0:0:0:0:
178,69,58078,1,0,0:0:0:0:
178,71,58157,1,8,0:0:0:0:
158,134,58315,1,0,0:0:0:0:
158,134,58473,1,0,0:0:0:0:
158,134,58631,1,8,0:0:0:0:
162,143,58710,1,8,0:0:0:0:
162,143,58789,1,0,0:0:0:0:
163,56,58947,1,8,0:0:0:0:
171,102,59105,1,0,0:0:0:0:
171,102,59184,1,0,0:0:0:0:
171,102,59263,1,0,0:0:0:0:
171,102,59342,1,0,0:0:0:0:
171,102,59421,1,8,0:0:0:0:
181,36,59578,1,0,0:0:0:0:
156,99,59657,1,0,0:0:0:0:
141,67,59736,1,0,0:0:0:0:
141,67,59815,1,8,0:0:0:0:
141,67,59894,1,8,0:0:0:0:
166,38,60052,1,0,0:0:0:0:
166,38,60131,1,0,0:0:0:0:
166,38,60210,1,8,0:0:0:0:
198,66,60289,1,8,0:0:0:0:
205,57,60368,1,0,0:0:0:0:
198,66,60526,1,0,0:0:0:0:
196,57,60605,1,0,0:0:0:0:
198,66,60684,1,8,0:0:0:0:
166,38,60842,1,0,0:0:0:0:
173,60,61000,1,0,0:0:0:0:
166,38,61078,1,0,0:0:0:0:
173,60,61157,1,8,0:0:0:0:
154,88,61236,1,8,0:0:0:0:
148,83,61315,1,0,0:0:0:0:
148,83,61473,1,8,0:0:0:0:
148,83,61631,1,0,0:0:0:0:
192,52,61789,1,0,0:0:0:0:
192,52,61868,1,0,0:0:0:0:
192,52,61947,1,8,0:0:0:0:
167,52,62105,1,0,0:0:0:0:
168,52,62263,1,8,0:0:0:0:
167,52,62342,1,0,0:0:0:0:
168,52,62421,1,8,0:0:0:0:
167,52,62500,1,8,0:0:0:0:
168,52,62578,1,0,0:0:0:0:
167,52,62657,1,0,0:0:0:0:
168,52,62736,1,8,0:0:0:0:
168,52,62894,1,4,0:0:0:0:
173,93,63210,1,8,0:0:0:0:
155,78,63368,1,4,0:0:0:0:
177,152,64000,1,8,0:0:0:0:
154,109,64789,1,0,0:0:0:0:
154,109,64947,1,8,0:0:0:0:
154,109,65105,1,0,0:0:0:0:
186,34,65263,1,8,0:0:0:0:
197,74,65421,1,4,0:0:0:0:
186,96,65736,1,8,0:0:0:0:
186,96,65894,1,4,0:0:0:0:
183,97,66842,1,8,0:0:0:0:
153,73,67000,1,0,0:0:0:0:
153,73,67078,1,8,0:0:0:0:
153,73,67157,1,0,0:0:0:0:
163,67,67236,1,8,0:0:0:0:
163,67,67315,1,0,0:0:0:0:
179,57,67394,1,0,0:0:0:0:
179,57,67473,1,0,0:0:0:0:
177,60,67552,1,0,0:0:0:0:
179,57,67631,1,8,0:0:0:0:
177,80,67736,1,8,0:0:0:0:
177,80,67842,1,8,0:0:0:0:
170,71,67947,1,4,0:0:0:0:
166,86,68263,1,8,0:0:0:0:
207,85,68421,1,4,0:0:0:0:
171,92,68736,1,0,0:0:0:0:
171,92,68894,1,8,0:0:0:0:
179,72,68973,1,0,0:0:0:0:
171,92,69131,1,8,0:0:0:0:
165,37,69210,1,0,0:0:0:0:
201,104,69328,1,8,0:0:0:0:
201,104,69447,1,8,0:0:0:0:
201,104,69526,1,0,0:0:0:0:
172,47,69605,1,0,0:0:0:0:
179,100,69684,1,8,0:0:0:0:
179,100,69842,1,0,0:0:0:0:
172,52,69947,1,0,0:0:0:0:
172,52,70052,1,0,0:0:0:0:
186,63,70157,1,8,0:0:0:0:
180,102,70315,1,0,0:0:0:0:
180,102,70473,1,0,0:0:0:0:
169,88,70552,1,0,0:0:0:0:
169,88,70631,1,0,0:0:0:0:
172,79,70710,1,0,0:0:0:0:
169,88,70789,1,8,0:0:0:0:
166,82,70947,1,0,0:0:0:0:
165,83,71026,1,0,0:0:0:0:
166,82,71105,1,0,0:0:0:0:
165,84,71263,1,8,0:0:0:0:
165,84,71421,1,0,0:0:0:0:
165,84,71500,1,8,0:0:0:0:
156,13,71578,1,8,0:0:0:0:
156,13,71657,1,8,0:0:0:0:
152,43,71736,1,0,0:0:0:0:
181,68,71894,1,0,0:0:0:0:
153,55,71973,1,8,0:0:0:0:
181,68,72052,1,0,0:0:0:0:
158,88,72210,1,0,0:0:0:0:
158,88,72368,1,8,0:0:0:0:
169,67,72526,1,8,0:0:0:0:
189,161,72578,1,0,0:0:0:0:
189,161,72631,1,0,0:0:0:0:
168,69,72684,1,8,0:0:0:0:
196,107,72842,1,8,0:0:0:0:
195,75,73000,1,4,0:0:0:0:
186,144,73210,1,12,0:0:0:0:
186,144,73421,1,12,0:0:0:0:
186,144,73631,1,4,0:0:0:0:
186,144,73842,1,4,0:0:0:0:
186,144,74052,1,12,0:0:0:0:
193,42,74263,5,4,0:0:0:0:
154,108,74578,1,8,0:0:0:0:
250,71,74736,1,0,0:0:0:0:
229,167,74894,1,0,0:0:0:0:
142,106,75052,1,8,0:0:0:0:
142,106,75210,1,0,0:0:0:0:
229,52,75368,1,0,0:0:0:0:
236,109,75447,1,0,0:0:0:0:
194,108,75526,1,8,0:0:0:0:
194,108,75684,1,8,0:0:0:0:
194,108,75763,1,0,0:0:0:0:
194,108,75842,1,8,0:0:0:0:
212,79,76000,1,0,0:0:0:0:
207,83,76157,1,8,0:0:0:0:
207,83,76236,1,0,0:0:0:0:
206,87,76315,1,8,0:0:0:0:
153,89,76368,1,8,0:0:0:0:
153,89,76421,1,8,0:0:0:0:
153,89,76473,1,0,0:0:0:0:
179,52,76552,1,0,0:0:0:0:
179,52,76631,1,8,0:0:0:0:
179,52,76710,1,8,0:0:0:0:
169,25,76789,1,0,0:0:0:0:
154,96,77105,1,8,0:0:0:0:
173,72,77263,1,0,0:0:0:0:
236,158,77421,1,0,0:0:0:0:
149,84,77578,1,8,0:0:0:0:
149,84,77736,1,0,0:0:0:0:
211,79,77894,1,0,0:0:0:0:
211,79,77973,1,0,0:0:0:0:
149,84,78052,1,8,0:0:0:0:
268,198,78131,1,0,0:0:0:0:
151,69,78289,1,0,0:0:0:0:
149,70,78368,1,8,0:0:0:0:
149,70,78447,1,8,0:0:0:0:
151,69,78526,1,0,0:0:0:0:
149,70,78605,1,0,0:0:0:0:
149,70,78684,1,8,0:0:0:0:
168,24,78763,1,0,0:0:0:0:
153,37,78842,1,8,0:0:0:0:
186,63,78894,1,8,0:0:0:0:
153,37,78947,1,8,0:0:0:0:
153,37,79000,1,0,0:0:0:0:
153,37,79078,1,0,0:0:0:0:
153,37,79157,1,8,0:0:0:0:
153,37,79236,1,8,0:0:0:0:
153,37,79315,1,0,0:0:0:0:
182,54,79473,1,0,0:0:0:0:
175,69,79631,1,8,0:0:0:0:
189,89,79789,1,0,0:0:0:0:
203,72,80105,1,8,0:0:0:0:
180,84,80263,1,0,0:0:0:0:
217,84,80421,1,0,0:0:0:0:
176,90,80578,1,8,0:0:0:0:
176,91,80736,1,0,0:0:0:0:
171,37,80815,1,0,0:0:0:0:
176,91,80894,1,8,0:0:0:0:
158,108,81052,1,0,0:0:0:0:
158,108,81131,1,0,0:0:0:0:
158,108,81210,1,8,0:0:0:0:
158,108,81289,1,0,0:0:0:0:
158,108,81368,1,8,0:0:0:0:
175,84,81447,1,8,0:0:0:0:
197,52,81526,1,0,0:0:0:0:
197,52,81684,1,8,0:0:0:0:
171,68,81763,1,8,0:0:0:0:
197,52,81842,1,0,0:0:0:0:
171,68,82000,1,0,0:0:0:0:
171,68,82157,1,8,0:0:0:0:
146,90,82315,1,0,0:0:0:0:
146,90,82631,1,8,0:0:0:0:
151,60,82789,1,0,0:0:0:0:
200,170,83105,5,12,0:0:0:0:
200,170,83421,1,0,0:0:0:0:
154,70,83578,1,0,0:0:0:0:
218,138,83736,1,8,0:0:0:0:
218,138,83815,1,8,0:0:0:0:
218,138,83894,1,0,0:0:0:0:
218,138,83973,1,0,0:0:0:0:
218,138,84052,1,8,0:0:0:0:
161,62,84131,1,8,0:0:0:0:
161,62,84210,1,8,0:0:0:0:
161,62,84289,1,8,0:0:0:0:
166,77,84368,1,4,0:0:0:0:
166,77,84526,1,0,0:0:0:0:
166,77,84605,1,0,0:0:0:0:
166,77,84684,1,8,0:0:0:0:
168,99,84842,1,8,0:0:0:0:
168,99,84921,1,8,0:0:0:0:
186,51,85000,1,0,0:0:0:0:
185,57,85078,1,0,0:0:0:0:
186,51,85157,1,8,0:0:0:0:
186,51,85315,1,8,0:0:0:0:
156,52,85473,1,0,0:0:0:0:
156,52,85552,1,8,0:0:0:0:
160,76,85631,1,0,0:0:0:0:
160,77,85710,1,0,0:0:0:0:
160,77,85789,1,8,0:0:0:0:
184,56,85868,1,0,0:0:0:0:
170,67,85947,1,8,0:0:0:0:
144,100,86105,1,8,0:0:0:0:
184,58,86184,1,0,0:0:0:0:
144,100,86263,1,8,0:0:0:0:
189,21,86342,1,8,0:0:0:0:
189,21,86421,1,0,0:0:0:0:
189,21,86500,1,0,0:0:0:0:
189,21,86578,1,8,0:0:0:0:
178,83,86657,1,8,0:0:0:0:
178,83,86736,1,0,0:0:0:0:
178,83,86815,1,0,0:0:0:0:
178,83,86894,1,8,0:0:0:0:
186,63,87052,1,0,0:0:0:0:
178,42,87131,1,8,0:0:0:0:
186,64,87210,1,8,0:0:0:0:
165,40,87368,1,8,0:0:0:0:
165,40,87447,1,0,0:0:0:0:
165,40,87526,1,0,0:0:0:0:
165,40,87605,1,8,0:0:0:0:
165,40,87684,1,8,0:0:0:0:
191,70,87842,1,8,0:0:0:0:
190,71,88000,1,0,0:0:0:0:
200,48,88078,1,8,0:0:0:0:
199,50,88157,1,0,0:0:0:0:
200,48,88236,1,0,0:0:0:0:
198,51,88315,1,8,0:0:0:0:
197,56,88394,1,8,0:0:0:0:
197,56,88473,1,0,0:0:0:0:
165,75,88631,1,8,0:0:0:0:
161,45,88710,1,0,0:0:0:0:
212,52,88789,1,8,0:0:0:0:
165,75,88868,1,8,0:0:0:0:
165,59,88947,1,8,0:0:0:0:
177,39,89026,1,0,0:0:0:0:
165,60,89105,1,8,0:0:0:0:
177,40,89184,1,0,0:0:0:0:
149,83,89263,1,8,0:0:0:0:
149,83,89342,1,8,0:0:0:0:
150,98,89421,1,0,0:0:0:0:
229,74,89473,1,0,0:0:0:0:
167,61,89526,1,0,0:0:0:0:
239,25,89578,1,0,0:0:0:0:
167,136,89736,1,8,0:0:0:0:
167,136,89894,1,0,0:0:0:0:
195,57,89947,1,0,0:0:0:0:
206,72,90000,1,0,0:0:0:0:
196,57,90052,1,0,0:0:0:0:
167,136,90210,1,8,0:0:0:0:
182,82,90368,1,0,0:0:0:0:
222,64,90447,1,0,0:0:0:0:
246,68,90526,1,8,0:0:0:0:
182,82,90605,1,0,0:0:0:0:
182,82,90684,1,8,0:0:0:0:
140,47,90763,1,8,0:0:0:0:
140,47,90842,1,0,0:0:0:0:
140,47,90921,1,0,0:0:0:0:
140,47,91000,1,8,0:0:0:0:
160,89,91157,1,8,0:0:0:0:
162,86,91236,1,0,0:0:0:0:
160,88,91315,1,8,0:0:0:0:
163,109,91394,1,8,0:0:0:0:
166,39,91473,1,0,0:0:0:0:
195,111,91552,1,8,0:0:0:0:
166,39,91631,1,0,0:0:0:0:
166,39,91710,1,0,0:0:0:0:
195,111,91789,1,8,0:0:0:0:
195,111,91868,1,8,0:0:0:0:
195,111,91947,1,0,0:0:0:0:
180,50,92105,1,0,0:0:0:0:
180,51,92184,1,8,0:0:0:0:
173,68,92263,1,8,0:0:0:0:
161,79,92421,1,0,0:0:0:0:
181,31,92500,1,8,0:0:0:0:
181,29,92578,1,8,0:0:0:0:
181,29,92657,1,0,0:0:0:0:
181,31,92736,1,0,0:0:0:0:
179,45,92894,1,8,0:0:0:0:
178,45,93052,1,0,0:0:0:0:
178,43,93131,1,8,0:0:0:0:
178,45,93210,1,0,0:0:0:0:
145,52,93289,1,8,0:0:0:0:
145,52,93368,1,8,0:0:0:0:
145,52,93447,1,0,0:0:0:0:
145,52,93526,1,0,0:0:0:0:
181,120,93684,1,8,0:0:0:0:
181,120,93763,1,0,0:0:0:0:
181,120,93842,1,8,0:0:0:0:
176,63,93921,1,8,0:0:0:0:
175,74,94000,1,8,0:0:0:0:
175,72,94078,1,0,0:0:0:0:
188,29,94157,1,8,0:0:0:0:
188,29,94236,1,0,0:0:0:0:
188,29,94315,1,8,0:0:0:0:
174,57,94394,1,8,0:0:0:0:
188,29,94473,1,4,0:0:0:0:
166,77,94631,1,0,0:0:0:0:
166,77,94710,1,0,0:0:0:0:
166,77,94789,1,8,0:0:0:0:
168,99,94947,1,8,0:0:0:0:
168,99,95026,1,8,0:0:0:0:
186,51,95105,1,0,0:0:0:0:
185,57,95183,1,0,0:0:0:0:
186,51,95262,1,8,0:0:0:0:
186,51,95420,1,8,0:0:0:0:
156,52,95578,1,0,0:0:0:0:
156,52,95657,1,8,0:0:0:0:
160,76,95736,1,0,0:0:0:0:
160,77,95815,1,0,0:0:0:0:
160,77,95894,1,8,0:0:0:0:
184,56,95973,1,0,0:0:0:0:
170,67,96052,1,8,0:0:0:0:
144,100,96210,1,8,0:0:0:0:
184,58,96289,1,0,0:0:0:0:
144,100,96368,1,8,0:0:0:0:
189,21,96447,1,8,0:0:0:0:
189,21,96526,1,0,0:0:0:0:
189,21,96605,1,0,0:0:0:0:
189,21,96683,1,8,0:0:0:0:
178,83,96762,1,8,0:0:0:0:
178,83,96841,1,0,0:0:0:0:
178,83,96921,1,0,0:0:0:0:
178,83,96999,1,8,0:0:0:0:
186,63,97157,1,0,0:0:0:0:
178,42,97236,1,8,0:0:0:0:
186,64,97315,1,8,0:0:0:0:
165,40,97473,1,8,0:0:0:0:
165,40,97552,1,0,0:0:0:0:
165,40,97631,1,0,0:0:0:0:
165,40,97710,1,8,0:0:0:0:
165,40,97789,1,8,0:0:0:0:
191,70,97947,1,8,0:0:0:0:
190,71,98105,1,0,0:0:0:0:
200,48,98183,1,8,0:0:0:0:
199,50,98262,1,0,0:0:0:0:
200,48,98341,1,0,0:0:0:0:
198,51,98420,1,8,0:0:0:0:
197,56,98499,1,8,0:0:0:0:
197,56,98578,1,0,0:0:0:0:
165,75,98736,1,8,0:0:0:0:
161,45,98815,1,0,0:0:0:0:
212,52,98894,1,8,0:0:0:0:
165,75,98973,1,8,0:0:0:0:
165,59,99052,1,8,0:0:0:0:
177,39,99131,1,0,0:0:0:0:
165,60,99210,1,8,0:0:0:0:
177,40,99289,1,0,0:0:0:0:
149,83,99368,1,8,0:0:0:0:
149,83,99447,1,8,0:0:0:0:
150,98,99526,1,0,0:0:0:0:
229,74,99578,1,0,0:0:0:0:
167,61,99631,1,0,0:0:0:0:
239,25,99683,1,0,0:0:0:0:
167,136,99841,1,8,0:0:0:0:
167,136,99999,1,0,0:0:0:0:
195,57,100052,1,0,0:0:0:0:
206,72,100105,1,0,0:0:0:0:
196,57,100157,1,0,0:0:0:0:
167,136,100315,1,8,0:0:0:0:
182,82,100473,1,0,0:0:0:0:
222,64,100552,1,0,0:0:0:0:
246,68,100631,1,8,0:0:0:0:
182,82,100710,1,0,0:0:0:0:
182,82,100789,1,8,0:0:0:0:
140,47,100868,1,8,0:0:0:0:
140,47,100947,1,0,0:0:0:0:
140,47,101026,1,0,0:0:0:0:
140,47,101105,1,8,0:0:0:0:
160,89,101262,1,8,0:0:0:0:
162,86,101341,1,0,0:0:0:0:
160,88,101420,1,8,0:0:0:0:
163,109,101499,1,8,0:0:0:0:
166,39,101578,1,0,0:0:0:0:
195,111,101657,1,8,0:0:0:0:
166,39,101736,1,0,0:0:0:0:
166,39,101815,1,0,0:0:0:0:
195,111,101894,1,8,0:0:0:0:
195,111,101973,1,8,0:0:0:0:
195,111,102052,1,0,0:0:0:0:
180,50,102210,1,0,0:0:0:0:
180,51,102289,1,8,0:0:0:0:
173,68,102368,1,8,0:0:0:0:
161,79,102526,1,0,0:0:0:0:
181,31,102605,1,8,0:0:0:0:
181,29,102684,1,8,0:0:0:0:
181,29,102762,1,0,0:0:0:0:
181,31,102841,1,8,0:0:0:0:
179,45,102999,1,8,0:0:0:0:
178,45,103157,1,0,0:0:0:0:
178,43,103236,1,8,0:0:0:0:
178,45,103315,1,0,0:0:0:0:
145,52,103394,1,0,0:0:0:0:
145,52,103473,1,8,0:0:0:0:
145,52,103552,5,0,0:0:0:0:
145,52,103631,1,8,0:0:0:0:
181,120,103789,1,8,0:0:0:0:
181,120,103868,1,0,0:0:0:0:
181,120,103947,1,8,0:0:0:0:
175,74,104105,1,0,0:0:0:0:
175,72,104183,1,0,0:0:0:0:
188,29,104262,1,0,0:0:0:0:
188,29,104420,1,8,0:0:0:0:
188,29,104578,1,0,0:0:0:0:
176,88,104736,1,8,0:0:0:0:
131,164,104815,1,8,0:0:0:0:
176,88,104894,1,0,0:0:0:0:
176,86,105052,1,8,0:0:0:0:
176,86,105210,1,0,0:0:0:0:
131,164,105289,1,8,0:0:0:0:
190,95,105447,1,8,0:0:0:0:
190,95,105526,1,0,0:0:0:0:
190,95,105684,1,8,0:0:0:0:
190,95,105842,1,0,0:0:0:0:
190,95,106000,1,8,0:0:0:0:
190,95,106157,1,0,0:0:0:0:
144,74,106236,1,0,0:0:0:0:
190,95,106315,1,8,0:0:0:0:
190,95,106473,1,0,0:0:0:0:
175,28,106552,1,8,0:0:0:0:
190,95,106710,1,8,0:0:0:0:
190,95,106789,1,0,0:0:0:0:
190,95,107105,1,8,0:0:0:0:
190,95,107421,1,0,0:0:0:0:
190,95,107578,1,8,0:0:0:0:
170,57,107657,1,8,0:0:0:0:
190,95,107736,1,0,0:0:0:0:
190,95,107815,1,8,0:0:0:0:
170,57,107973,1,8,0:0:0:0:
190,95,108052,1,0,0:0:0:0:
190,95,108210,1,8,0:0:0:0:
190,95,108368,1,0,0:0:0:0:
190,95,108526,1,8,0:0:0:0:
171,38,108605,1,8,0:0:0:0:
190,95,108684,1,0,0:0:0:0:
190,95,108842,1,8,0:0:0:0:
156,82,109000,1,0,0:0:0:0:
156,87,109157,1,0,0:0:0:0:
156,82,109236,1,8,0:0:0:0:
156,87,109315,1,0,0:0:0:0:
156,87,109473,1,8,0:0:0:0:
196,38,109526,1,8,0:0:0:0:
196,38,109578,1,8,0:0:0:0:
156,87,109631,1,0,0:0:0:0:
156,87,109789,1,8,0:0:0:0:
154,91,109868,1,8,0:0:0:0:
156,87,109947,1,0,0:0:0:0:
154,91,110026,1,0,0:0:0:0:
156,87,110105,1,8,0:0:0:0:
154,91,110184,1,8,0:0:0:0:
154,91,110263,1,0,0:0:0:0:
156,87,110421,1,8,0:0:0:0:
156,87,110500,1,8,0:0:0:0:
156,87,110578,1,0,0:0:0:0:
144,108,110736,1,8,0:0:0:0:
144,108,110894,1,0,0:0:0:0:
145,110,110973,1,0,0:0:0:0:
144,108,111052,1,8,0:0:0:0:
145,110,111131,1,8,0:0:0:0:
145,110,111210,1,0,0:0:0:0:
145,110,111368,1,8,0:0:0:0:
144,108,111447,1,8,0:0:0:0:
144,108,111526,1,0,0:0:0:0:
144,108,111605,1,8,0:0:0:0:
144,108,111763,1,8,0:0:0:0:
144,108,111842,1,0,0:0:0:0:
145,110,112157,1,8,0:0:0:0:
144,108,112473,1,0,0:0:0:0:
144,108,112631,1,8,0:0:0:0:
144,108,112710,1,8,0:0:0:0:
144,108,112789,1,0,0:0:0:0:
144,108,112868,1,8,0:0:0:0:
145,110,113026,1,8,0:0:0:0:
128,104,113105,1,0,0:0:0:0:
128,104,113263,1,8,0:0:0:0:
128,104,113421,1,0,0:0:0:0:
130,107,113500,1,0,0:0:0:0:
130,107,113578,1,0,0:0:0:0:
131,111,113657,1,0,0:0:0:0:
130,111,113736,1,8,0:0:0:0:
131,111,113894,1,8,0:0:0:0:
131,111,113973,1,8,0:0:0:0:
131,111,114052,1,0,0:0:0:0:
131,111,114131,1,8,0:0:0:0:
131,111,114210,1,0,0:0:0:0:
131,111,114289,1,0,0:0:0:0:
131,111,114368,1,8,0:0:0:0:
130,107,114526,1,0,0:0:0:0:
