osu file format v14

[General]
AudioFilename: audio.mp3
AudioLeadIn: 0
PreviewTime: 84368
Countdown: 0
SampleSet: Normal
StackLeniency: 0.7
Mode: 1
LetterboxInBreaks: 0
WidescreenStoryboard: 1

[Editor]
Bookmarks: 1000,12368,22473,32578,52789,74263,84368,104578,114684
DistanceSpacing: 0.1
BeatDivisor: 3
GridSize: 32
TimelineZoom: 3.65

[Metadata]
Title:squall
TitleUnicode:squall
Artist:Nekomata Master+
ArtistUnicode:猫叉Master+
Creator:Ulqui
Version:Oni
Source:jubeat saucer
Tags:electronic instrumental video game Naoyuki Sato bemani konami fulfill prop qubell clan festo plus jukebeat music pack 24
BeatmapID:3095620
BeatmapSetID:948847

[Difficulty]
HPDrainRate:5
CircleSize:5
OverallDifficulty:6
ApproachRate:6
SliderMultiplier:1.4
SliderTickRate:1

[Events]
//Background and Video events
0,0,"aaaaaa.jpg",0,-15
//Break Periods
//Storyboard Layer 0 (Background)
//Storyboard Layer 1 (Fail)
//Storyboard Layer 2 (Pass)
//Storyboard Layer 3 (Foreground)
//Storyboard Layer 4 (Overlay)
//Storyboard Sound Samples

[TimingPoints]
1000,315.789473684211,4,1,0,60,1,0
1000,-100,4,1,0,60,0,0
10631,-100,4,1,0,60,0,0
10736,-98.0392156862745,4,1,0,60,0,0
10842,-96.1538461538461,4,1,0,60,0,0
10947,-94.3396226415094,4,1,0,60,0,0
11052,-92.5925925925926,4,1,0,60,0,0
12368,-111.111111111111,4,1,0,60,0,0
17381,-100,4,1,0,70,0,0
17460,-111.111111111111,4,1,0,70,0,0
21157,-100,4,1,0,70,0,0
21368,-104.166666666667,4,1,0,70,0,0
21578,-108.695652173913,4,1,0,70,0,0
21789,-113.636363636364,4,1,0,70,0,0
22105,-121.951219512195,4,1,0,70,0,0
22434,-100,4,1,0,80,0,0
31263,-100,4,1,0,80,0,0
31421,-98.0392156862745,4,1,0,80,0,0
31578,-96.1538461538461,4,1,0,80,0,0
31736,-94.3396226415094,4,1,0,80,0,0
31894,-92.5925925925926,4,1,0,80,0,0
32052,-90.9090909090909,4,1,0,80,0,0
32578,-100,4,1,0,80,0,0
47052,-100,4,1,0,80,0,0
47157,-102.040816326531,4,1,0,80,0,0
47263,-104.166666666667,4,1,0,80,0,0
47368,-106.382978723404,4,1,0,80,0,0
47473,-108.695652173913,4,1,0,80,0,0
47578,-111.111111111111,4,1,0,80,0,0
47684,-113.636363636364,4,1,0,80,0,0
47842,-116.279069767442,4,1,0,80,0,0
48368,-125,4,1,0,80,0,0
48631,-116.279069767442,4,1,0,80,0,0
48947,-100,4,1,0,80,0,0
52789,-100,4,1,0,80,0,0
72947,-90.9090909090909,4,1,0,80,0,0
73157,-100,4,1,0,80,0,0
73368,-111.111111111111,4,1,0,80,0,0
73578,-125,4,1,0,80,0,0
74223,-100,4,1,0,80,0,0
84328,-100,4,1,0,100,0,0
84368,-100,4,1,0,100,0,1
104578,-100,4,1,0,100,0,0
104697,-100,4,1,0,60,0,0
104736,-100,4,1,0,60,0,0

[HitObjects]
160,192,1000,5,0,0:0:0:0:
192,128,1236,1,0,0:0:0:0:
192,128,1315,1,0,0:0:0:0:
192,128,1473,1,8,0:0:0:0:
192,128,1631,1,0,0:0:0:0:
160,96,1947,1,0,0:0:0:0:
192,128,2263,1,0,0:0:0:0:
192,128,2421,1,8,0:0:0:0:
192,128,2578,1,0,0:0:0:0:
192,128,2736,1,8,0:0:0:0:
192,128,2894,1,0,0:0:0:0:
192,128,3210,1,8,0:0:0:0:
192,160,3526,1,8,0:0:0:0:
192,160,3763,1,0,0:0:0:0:
192,160,3842,1,0,0:0:0:0:
192,160,4000,1,8,0:0:0:0:
192,160,4157,1,0,0:0:0:0:
192,160,4473,1,0,0:0:0:0:
192,160,4789,1,0,0:0:0:0:
192,160,4947,1,8,0:0:0:0:
192,160,5105,1,0,0:0:0:0:
192,160,5263,1,8,0:0:0:0:
192,160,5421,1,0,0:0:0:0:
192,32,5657,1,0,0:0:0:0:
192,160,5736,1,0,0:0:0:0:
187,163,5894,1,8,0:0:0:0:
160,160,6052,1,0,0:0:0:0:
160,64,6289,1,8,0:0:0:0:
160,160,6368,1,0,0:0:0:0:
160,160,6526,1,8,0:0:0:0:
128,160,6684,1,0,0:0:0:0:
128,160,7000,1,0,0:0:0:0:
128,192,7315,1,0,0:0:0:0:
128,192,7473,1,8,0:0:0:0:
128,192,7631,1,0,0:0:0:0:
160,224,7789,1,8,0:0:0:0:
160,224,7947,1,0,0:0:0:0:
128,224,8263,1,8,0:0:0:0:
160,160,8578,1,8,0:0:0:0:
160,160,8815,1,8,0:0:0:0:
160,160,8894,1,0,0:0:0:0:
160,160,9052,1,8,0:0:0:0:
160,192,9210,1,0,0:0:0:0:
224,64,9368,1,0,0:0:0:0:
64,192,9526,1,8,0:0:0:0:
192,224,9631,1,8,0:0:0:0:
192,224,9736,1,8,0:0:0:0:
192,224,9842,1,0,0:0:0:0:
160,96,10157,1,0,0:0:0:0:
160,128,10473,1,0,0:0:0:0:
256,96,10684,1,0,0:0:0:0:
160,96,10789,1,8,0:0:0:0:
192,192,10894,1,8,0:0:0:0:
192,192,11000,1,8,0:0:0:0:
192,192,11105,1,8,0:0:0:0:
243,128,12368,5,4,0:0:0:0:
170,139,12683,1,8,0:0:0:0:
170,139,12841,1,8,0:0:0:0:
176,78,12999,1,0,0:0:0:0:
170,77,13157,1,0,0:0:0:0:
170,77,13315,1,8,0:0:0:0:
176,78,13631,1,0,0:0:0:0:
176,78,13789,1,8,0:0:0:0:
198,84,14105,1,0,0:0:0:0:
123,109,14262,1,8,0:0:0:0:
123,109,14420,1,0,0:0:0:0:
123,109,14578,1,0,0:0:0:0:
123,109,14736,1,8,0:0:0:0:
123,109,14894,1,0,0:0:0:0:
122,118,15210,1,8,0:0:0:0:
122,118,15368,1,8,0:0:0:0:
122,118,15526,1,0,0:0:0:0:
122,119,15683,1,0,0:0:0:0:
189,202,15841,1,8,0:0:0:0:
170,219,16157,1,0,0:0:0:0:
181,145,16315,1,8,0:0:0:0:
144,88,16631,1,0,0:0:0:0:
148,103,16789,1,8,0:0:0:0:
150,105,16947,1,8,0:0:0:0:
224,64,17026,1,8,0:0:0:0:
150,105,17105,1,0,0:0:0:0:
147,108,17262,1,8,0:0:0:0:
147,108,17420,1,4,0:0:0:0:
132,122,17736,1,8,0:0:0:0:
132,122,17894,1,8,0:0:0:0:
135,128,18052,1,0,0:0:0:0:
135,130,18210,1,0,0:0:0:0:
138,150,18368,1,8,0:0:0:0:
150,107,18683,1,0,0:0:0:0:
150,110,18841,1,8,0:0:0:0:
159,102,19157,1,0,0:0:0:0:
158,105,19315,1,8,0:0:0:0:
154,112,19473,1,0,0:0:0:0:
153,119,19631,1,0,0:0:0:0:
155,125,19789,1,8,0:0:0:0:
154,131,19947,1,0,0:0:0:0:
134,194,20262,1,8,0:0:0:0:
134,122,20420,1,8,0:0:0:0:
204,153,20736,1,0,0:0:0:0:
204,153,20894,1,0,0:0:0:0:
224,128,21210,1,8,0:0:0:0:
160,96,21421,1,0,0:0:0:0:
224,160,21631,1,0,0:0:0:0:
224,160,21842,1,0,0:0:0:0:
224,96,22157,1,8,0:0:0:0:
160,160,22473,1,4,0:0:0:0:
224,96,22789,1,8,0:0:0:0:
224,96,22947,1,0,0:0:0:0:
160,64,23026,1,0,0:0:0:0:
224,96,23105,1,0,0:0:0:0:
224,96,23263,1,0,0:0:0:0:
224,96,23421,1,8,0:0:0:0:
224,64,23578,1,0,0:0:0:0:
192,64,23657,1,8,0:0:0:0:
224,128,23736,1,0,0:0:0:0:
192,64,23894,1,0,0:0:0:0:
192,128,24052,1,8,0:0:0:0:
192,128,24210,1,0,0:0:0:0:
192,128,24368,1,8,0:0:0:0:
192,128,24526,1,8,0:0:0:0:
192,128,24684,1,8,0:0:0:0:
192,128,24842,1,0,0:0:0:0:
224,64,25157,1,0,0:0:0:0:
192,128,25315,1,8,0:0:0:0:
160,96,25473,1,0,0:0:0:0:
160,96,25552,1,0,0:0:0:0:
192,32,25631,1,8,0:0:0:0:
160,32,25710,1,8,0:0:0:0:
192,128,25789,1,0,0:0:0:0:
192,128,25947,1,8,0:0:0:0:
160,64,26105,1,8,0:0:0:0:
224,96,26184,1,8,0:0:0:0:
192,128,26263,1,8,0:0:0:0:
192,96,26421,1,0,0:0:0:0:
192,128,26578,1,8,0:0:0:0:
192,128,26736,1,0,0:0:0:0:
192,128,26894,1,8,0:0:0:0:
192,128,27052,1,8,0:0:0:0:
192,128,27210,1,8,0:0:0:0:
224,128,27526,1,4,0:0:0:0:
192,128,27842,1,8,0:0:0:0:
160,160,28000,1,0,0:0:0:0:
192,160,28078,1,0,0:0:0:0:
160,160,28157,1,8,0:0:0:0:
192,192,28315,1,0,0:0:0:0:
192,192,28473,1,8,0:0:0:0:
192,192,28631,1,0,0:0:0:0:
192,64,28710,1,8,0:0:0:0:
192,192,28789,1,8,0:0:0:0:
192,96,28947,1,0,0:0:0:0:
192,96,29105,1,8,0:0:0:0:
160,128,29263,1,0,0:0:0:0:
192,96,29342,1,0,0:0:0:0:
160,128,29421,1,8,0:0:0:0:
128,32,29500,1,8,0:0:0:0:
160,128,29578,1,0,0:0:0:0:
160,128,29736,1,0,0:0:0:0:
160,128,29894,1,8,0:0:0:0:
192,96,30052,1,8,0:0:0:0:
192,96,30210,1,8,0:0:0:0:
192,96,30368,1,0,0:0:0:0:
192,96,30447,1,8,0:0:0:0:
192,96,30526,1,0,0:0:0:0:
192,96,30684,1,0,0:0:0:0:
192,96,30842,1,0,0:0:0:0:
192,96,31000,1,8,0:0:0:0:
192,96,31315,1,0,0:0:0:0:
192,96,31473,1,8,0:0:0:0:
192,96,31631,1,8,0:0:0:0:
192,96,31789,1,8,0:0:0:0:
192,96,31947,1,0,0:0:0:0:
160,96,32105,1,8,0:0:0:0:
160,128,32578,1,4,0:0:0:0:
224,128,32894,1,8,0:0:0:0:
224,128,33052,1,0,0:0:0:0:
192,128,33131,1,0,0:0:0:0:
192,128,33210,1,0,0:0:0:0:
192,192,33368,1,0,0:0:0:0:
192,192,33526,1,8,0:0:0:0:
192,192,33684,1,8,0:0:0:0:
192,128,33842,1,0,0:0:0:0:
192,128,34157,1,8,0:0:0:0:
192,128,34315,1,0,0:0:0:0:
160,96,34394,1,8,0:0:0:0:
192,128,34473,1,0,0:0:0:0:
192,128,34631,1,0,0:0:0:0:
192,128,34789,1,8,0:0:0:0:
192,128,34947,1,8,0:0:0:0:
192,160,35026,1,8,0:0:0:0:
192,128,35105,1,0,0:0:0:0:
160,192,35421,1,8,0:0:0:0:
160,224,35578,1,0,0:0:0:0:
224,96,35657,1,0,0:0:0:0:
160,224,35736,1,0,0:0:0:0:
192,96,35894,1,0,0:0:0:0:
192,128,36052,1,8,0:0:0:0:
214,154,36210,1,8,0:0:0:0:
214,154,36289,1,8,0:0:0:0:
192,128,36368,1,0,0:0:0:0:
159,110,36447,1,0,0:0:0:0:
160,96,36526,1,0,0:0:0:0:
224,96,36684,1,8,0:0:0:0:
160,96,36842,1,8,0:0:0:0:
160,96,36921,1,0,0:0:0:0:
160,96,37000,1,0,0:0:0:0:
160,96,37157,1,0,0:0:0:0:
160,128,37315,1,8,0:0:0:0:
160,128,37473,1,8,0:0:0:0:
220,92,37552,1,8,0:0:0:0:
160,96,37631,1,4,0:0:0:0:
160,128,37947,1,8,0:0:0:0:
160,128,38105,1,0,0:0:0:0:
160,128,38184,1,0,0:0:0:0:
160,128,38263,1,0,0:0:0:0:
160,128,38421,1,0,0:0:0:0:
160,128,38578,1,8,0:0:0:0:
192,64,38894,1,0,0:0:0:0:
192,96,39052,1,0,0:0:0:0:
192,96,39210,1,8,0:0:0:0:
192,96,39368,1,8,0:0:0:0:
224,64,39447,1,0,0:0:0:0:
192,96,39526,1,8,0:0:0:0:
224,96,39605,1,8,0:0:0:0:
192,64,39684,1,0,0:0:0:0:
192,64,39842,1,8,0:0:0:0:
224,96,40000,1,0,0:0:0:0:
224,96,40078,1,0,0:0:0:0:
224,96,40157,1,0,0:0:0:0:
192,128,40315,1,0,0:0:0:0:
192,128,40473,1,8,0:0:0:0:
192,128,40631,1,0,0:0:0:0:
192,128,40710,1,8,0:0:0:0:
192,128,40789,1,0,0:0:0:0:
160,160,40947,1,0,0:0:0:0:
160,160,41105,1,8,0:0:0:0:
192,192,41421,1,0,0:0:0:0:
192,192,41578,1,8,0:0:0:0:
192,192,41657,1,8,0:0:0:0:
192,192,41736,1,8,0:0:0:0:
160,192,41894,1,0,0:0:0:0:
160,192,41973,1,0,0:0:0:0:
160,192,42052,1,0,0:0:0:0:
160,224,42131,1,0,0:0:0:0:
160,224,42210,1,8,0:0:0:0:
160,128,42368,1,8,0:0:0:0:
160,128,42447,1,8,0:0:0:0:
160,128,42684,1,4,0:0:0:0:
224,96,43000,1,8,0:0:0:0:
224,96,43157,1,0,0:0:0:0:
224,96,43236,1,0,0:0:0:0:
224,96,43315,1,0,0:0:0:0:
224,128,43473,1,0,0:0:0:0:
224,128,43631,1,8,0:0:0:0:
192,64,43789,1,8,0:0:0:0:
192,64,43947,1,0,0:0:0:0:
192,128,44263,1,8,0:0:0:0:
192,128,44421,1,0,0:0:0:0:
256,96,44500,1,8,0:0:0:0:
256,96,44578,1,0,0:0:0:0:
192,96,44736,1,0,0:0:0:0:
192,96,44894,1,8,0:0:0:0:
192,96,45052,1,8,0:0:0:0:
192,64,45131,1,8,0:0:0:0:
192,64,45210,1,0,0:0:0:0:
160,128,45526,1,8,0:0:0:0:
160,128,45684,1,0,0:0:0:0:
160,128,45763,1,0,0:0:0:0:
160,128,45842,1,0,0:0:0:0:
160,128,46000,1,0,0:0:0:0:
160,128,46157,1,8,0:0:0:0:
224,64,46315,1,8,0:0:0:0:
224,64,46394,1,8,0:0:0:0:
160,128,46473,1,0,0:0:0:0:
222,87,46552,1,0,0:0:0:0:
192,96,46631,1,0,0:0:0:0:
192,96,46789,1,8,0:0:0:0:
224,64,46947,1,0,0:0:0:0:
224,64,47105,1,8,0:0:0:0:
256,64,47210,1,8,0:0:0:0:
256,64,47315,1,8,0:0:0:0:
256,64,47421,1,8,0:0:0:0:
256,64,47526,1,8,0:0:0:0:
256,64,47631,1,8,0:0:0:0:
256,64,47736,1,0,0:0:0:0:
192,96,47894,1,8,0:0:0:0:
192,96,48526,1,0,0:0:0:0:
192,96,48684,1,12,0:0:0:0:
192,96,49000,1,0,0:0:0:0:
192,96,49157,1,0,0:0:0:0:
192,96,49315,1,8,0:0:0:0:
192,96,49473,1,8,0:0:0:0:
192,64,49552,1,0,0:0:0:0:
192,96,49631,1,8,0:0:0:0:
192,96,49789,1,0,0:0:0:0:
192,96,49947,1,8,0:0:0:0:
192,96,50263,1,8,0:0:0:0:
192,64,50421,1,8,0:0:0:0:
192,64,50578,1,8,0:0:0:0:
192,96,50736,1,0,0:0:0:0:
224,64,50815,1,0,0:0:0:0:
224,64,50894,1,0,0:0:0:0:
192,96,51052,1,0,0:0:0:0:
192,96,51210,1,8,0:0:0:0:
224,64,51526,1,8,0:0:0:0:
192,96,51605,1,8,0:0:0:0:
192,96,51684,1,8,0:0:0:0:
192,96,51763,1,8,0:0:0:0:
192,96,51842,1,0,0:0:0:0:
224,96,52000,1,0,0:0:0:0:
192,128,52078,1,0,0:0:0:0:
192,96,52157,1,0,0:0:0:0:
192,160,52315,1,0,0:0:0:0:
192,160,52473,1,8,0:0:0:0:
160,160,52789,5,4,0:0:0:0:
192,160,53105,1,8,0:0:0:0:
192,160,53263,1,4,0:0:0:0:
192,128,53578,1,8,0:0:0:0:
192,128,53736,1,8,0:0:0:0:
160,128,53894,1,0,0:0:0:0:
160,160,53973,1,0,0:0:0:0:
224,96,54052,1,0,0:0:0:0:
192,64,54210,1,0,0:0:0:0:
192,64,54289,1,0,0:0:0:0:
192,64,54368,1,8,0:0:0:0:
160,160,54526,1,8,0:0:0:0:
160,128,54684,1,0,0:0:0:0:
160,160,54842,1,8,0:0:0:0:
160,128,55157,1,8,0:0:0:0:
160,128,55315,1,0,0:0:0:0:
160,160,55473,1,0,0:0:0:0:
160,160,55552,1,0,0:0:0:0:
160,160,55631,1,8,0:0:0:0:
192,96,55789,1,0,0:0:0:0:
192,96,55947,1,0,0:0:0:0:
192,96,56105,1,8,0:0:0:0:
192,64,56263,1,0,0:0:0:0:
192,96,56342,1,0,0:0:0:0:
192,96,56500,1,8,0:0:0:0:
192,96,56578,1,0,0:0:0:0:
160,96,56736,1,0,0:0:0:0:
160,96,56894,1,8,0:0:0:0:
224,64,57052,1,0,0:0:0:0:
160,96,57210,1,8,0:0:0:0:
160,96,57368,1,0,0:0:0:0:
233,109,57526,1,0,0:0:0:0:
160,96,57684,1,8,0:0:0:0:
160,96,57842,1,4,0:0:0:0:
192,160,58157,1,8,0:0:0:0:
160,160,58315,1,0,0:0:0:0:
192,96,58473,1,0,0:0:0:0:
160,128,58631,1,8,0:0:0:0:
160,128,58789,1,0,0:0:0:0:
192,32,58868,1,0,0:0:0:0:
160,128,58947,1,8,0:0:0:0:
160,128,59105,1,0,0:0:0:0:
192,96,59263,1,8,0:0:0:0:
192,96,59342,1,0,0:0:0:0:
192,96,59421,1,8,0:0:0:0:
192,96,59578,1,0,0:0:0:0:
192,96,59736,1,0,0:0:0:0:
192,96,59815,1,0,0:0:0:0:
192,96,59894,1,8,0:0:0:0:
192,96,60210,1,8,0:0:0:0:
160,96,60368,1,0,0:0:0:0:
192,96,60526,1,0,0:0:0:0:
192,96,60605,1,0,0:0:0:0:
192,128,60684,1,8,0:0:0:0:
192,96,60842,1,0,0:0:0:0:
192,96,61000,1,0,0:0:0:0:
192,96,61157,1,8,0:0:0:0:
192,128,61473,1,8,0:0:0:0:
192,128,61631,1,0,0:0:0:0:
192,128,61789,1,0,0:0:0:0:
192,64,61868,1,0,0:0:0:0:
192,64,61947,1,8,0:0:0:0:
160,96,62105,1,0,0:0:0:0:
160,96,62263,1,8,0:0:0:0:
160,192,62421,1,0,0:0:0:0:
160,160,62578,1,0,0:0:0:0:
160,160,62736,1,8,0:0:0:0:
160,160,62894,1,4,0:0:0:0:
160,160,63210,1,8,0:0:0:0:
160,160,63368,1,4,0:0:0:0:
192,96,64789,1,0,0:0:0:0:
192,96,64947,1,8,0:0:0:0:
192,96,65105,1,0,0:0:0:0:
192,96,65263,1,8,0:0:0:0:
192,96,65421,1,4,0:0:0:0:
160,128,65736,1,8,0:0:0:0:
160,128,65894,1,4,0:0:0:0:
192,96,66842,1,8,0:0:0:0:
192,96,67000,1,0,0:0:0:0:
192,64,67078,1,0,0:0:0:0:
192,64,67157,1,0,0:0:0:0:
192,64,67236,1,0,0:0:0:0:
192,64,67315,1,8,0:0:0:0:
160,64,67473,1,0,0:0:0:0:
160,96,67631,1,0,0:0:0:0:
160,128,67789,1,8,0:0:0:0:
160,128,67947,1,4,0:0:0:0:
160,128,68263,1,8,0:0:0:0:
160,128,68421,1,4,0:0:0:0:
224,96,68736,1,8,0:0:0:0:
224,96,68894,1,8,0:0:0:0:
192,96,68973,1,8,0:0:0:0:
192,96,69131,1,8,0:0:0:0:
192,96,69210,1,8,0:0:0:0:
200,64,69315,1,0,0:0:0:0:
224,64,69421,1,8,0:0:0:0:
192,96,69526,1,0,0:0:0:0:
192,96,69684,1,8,0:0:0:0:
192,96,69842,1,0,0:0:0:0:
192,64,70000,1,0,0:0:0:0:
160,96,70157,1,8,0:0:0:0:
192,64,70473,1,4,0:0:0:0:
160,128,70789,1,8,0:0:0:0:
160,128,70947,1,4,0:0:0:0:
192,128,71263,1,8,0:0:0:0:
192,128,71421,1,8,0:0:0:0:
192,128,71500,1,8,0:0:0:0:
192,128,71657,1,8,0:0:0:0:
192,160,71736,1,8,0:0:0:0:
192,160,71894,1,0,0:0:0:0:
192,160,71973,1,8,0:0:0:0:
192,160,72052,1,0,0:0:0:0:
160,96,72210,1,0,0:0:0:0:
160,96,72368,1,8,0:0:0:0:
192,96,72684,1,0,0:0:0:0:
192,96,73000,1,12,0:0:0:0:
192,96,73210,5,12,0:0:0:0:
192,96,73421,1,12,0:0:0:0:
192,96,73631,1,12,0:0:0:0:
243,128,74263,5,4,0:0:0:0:
170,139,74578,1,8,0:0:0:0:
170,139,74736,1,8,0:0:0:0:
176,78,74894,1,0,0:0:0:0:
170,77,75052,1,0,0:0:0:0:
170,77,75210,1,8,0:0:0:0:
176,78,75526,1,0,0:0:0:0:
176,78,75684,1,8,0:0:0:0:
170,77,75842,1,8,0:0:0:0:
198,84,76000,1,0,0:0:0:0:
123,109,76157,1,8,0:0:0:0:
123,109,76315,1,0,0:0:0:0:
123,109,76473,1,0,0:0:0:0:
123,109,76631,1,8,0:0:0:0:
123,109,76789,1,0,0:0:0:0:
122,118,77105,1,8,0:0:0:0:
122,118,77263,1,8,0:0:0:0:
122,118,77421,1,0,0:0:0:0:
122,119,77578,1,0,0:0:0:0:
189,202,77736,1,8,0:0:0:0:
170,219,78052,1,8,0:0:0:0:
181,145,78210,1,0,0:0:0:0:
181,145,78289,1,8,0:0:0:0:
170,219,78368,1,0,0:0:0:0:
147,93,78447,1,8,0:0:0:0:
144,88,78526,1,0,0:0:0:0:
148,103,78684,1,8,0:0:0:0:
150,105,78842,1,8,0:0:0:0:
150,105,79000,1,0,0:0:0:0:
147,108,79157,1,8,0:0:0:0:
147,108,79315,1,0,0:0:0:0:
132,122,79631,1,8,0:0:0:0:
132,122,79789,1,8,0:0:0:0:
135,128,79947,1,0,0:0:0:0:
135,130,80105,1,0,0:0:0:0:
138,150,80263,1,8,0:0:0:0:
150,107,80578,1,0,0:0:0:0:
150,110,80736,1,8,0:0:0:0:
150,111,80894,1,8,0:0:0:0:
159,102,81052,1,0,0:0:0:0:
158,105,81210,1,8,0:0:0:0:
154,112,81368,1,0,0:0:0:0:
153,119,81526,1,0,0:0:0:0:
155,125,81684,1,8,0:0:0:0:
154,131,81842,1,0,0:0:0:0:
134,194,82157,1,8,0:0:0:0:
134,122,82315,1,8,0:0:0:0:
204,153,82631,1,0,0:0:0:0:
204,153,82789,1,0,0:0:0:0:
197,184,83105,1,12,0:0:0:0:
238,208,83421,1,8,0:0:0:0:
269,202,83578,1,0,0:0:0:0:
176,114,83736,1,8,0:0:0:0:
176,114,83815,1,8,0:0:0:0:
123,86,83894,1,8,0:0:0:0:
123,86,84052,1,0,0:0:0:0:
214,150,84368,5,4,0:0:0:0:
228,120,84526,1,8,0:0:0:0:
205,96,84605,1,0,0:0:0:0:
164,94,84684,1,8,0:0:0:0:
164,94,84842,1,8,0:0:0:0:
164,94,85000,1,0,0:0:0:0:
164,94,85157,1,0,0:0:0:0:
213,76,85236,1,0,0:0:0:0:
158,98,85315,1,8,0:0:0:0:
197,83,85473,1,8,0:0:0:0:
194,88,85552,1,8,0:0:0:0:
194,89,85631,1,0,0:0:0:0:
164,173,85789,1,8,0:0:0:0:
124,185,86105,1,8,0:0:0:0:
124,185,86263,1,8,0:0:0:0:
173,39,86342,1,0,0:0:0:0:
124,185,86421,1,0,0:0:0:0:
124,185,86578,1,0,0:0:0:0:
122,191,86736,1,8,0:0:0:0:
109,209,86894,1,0,0:0:0:0:
230,93,87052,1,8,0:0:0:0:
188,62,87131,1,8,0:0:0:0:
203,99,87210,1,8,0:0:0:0:
203,99,87368,1,8,0:0:0:0:
203,99,87526,1,0,0:0:0:0:
203,99,87684,1,8,0:0:0:0:
227,59,87763,1,0,0:0:0:0:
203,99,87842,1,8,0:0:0:0:
224,90,88000,1,0,0:0:0:0:
224,90,88078,1,8,0:0:0:0:
166,83,88157,1,0,0:0:0:0:
163,110,88315,1,8,0:0:0:0:
142,126,88631,1,8,0:0:0:0:
142,126,88789,1,8,0:0:0:0:
138,136,88868,1,0,0:0:0:0:
139,134,88947,1,8,0:0:0:0:
139,139,89105,1,0,0:0:0:0:
141,144,89263,1,8,0:0:0:0:
141,149,89421,1,0,0:0:0:0:
213,64,89578,1,8,0:0:0:0:
220,63,89657,1,0,0:0:0:0:
181,105,89736,1,8,0:0:0:0:
181,105,89894,1,8,0:0:0:0:
181,105,90052,1,0,0:0:0:0:
181,105,90210,1,0,0:0:0:0:
221,104,90289,1,0,0:0:0:0:
179,113,90368,1,8,0:0:0:0:
179,121,90526,1,8,0:0:0:0:
179,122,90605,1,8,0:0:0:0:
179,122,90684,1,0,0:0:0:0:
130,95,90842,1,8,0:0:0:0:
113,110,91157,1,0,0:0:0:0:
113,110,91315,1,8,0:0:0:0:
198,105,91394,1,0,0:0:0:0:
113,111,91473,1,0,0:0:0:0:
113,111,91631,1,0,0:0:0:0:
113,110,91789,1,8,0:0:0:0:
113,110,91947,1,0,0:0:0:0:
210,82,92105,1,8,0:0:0:0:
221,32,92184,1,8,0:0:0:0:
157,139,92263,1,8,0:0:0:0:
157,139,92421,1,8,0:0:0:0:
174,135,92578,1,0,0:0:0:0:
177,147,92736,1,8,0:0:0:0:
193,91,92815,1,0,0:0:0:0:
177,147,92894,1,0,0:0:0:0:
175,87,93052,1,0,0:0:0:0:
175,87,93131,1,0,0:0:0:0:
175,87,93210,1,0,0:0:0:0:
175,87,93368,1,8,0:0:0:0:
181,114,93684,1,8,0:0:0:0:
146,122,93763,1,8,0:0:0:0:
181,114,93842,1,8,0:0:0:0:
181,114,94000,1,0,0:0:0:0:
183,121,94157,1,8,0:0:0:0:
183,122,94315,1,8,0:0:0:0:
214,150,94473,5,4,0:0:0:0:
202,99,94631,1,8,0:0:0:0:
195,53,94710,1,0,0:0:0:0:
164,94,94789,1,8,0:0:0:0:
164,94,94947,1,8,0:0:0:0:
164,94,95105,1,0,0:0:0:0:
164,94,95263,1,0,0:0:0:0:
197,91,95342,1,0,0:0:0:0:
158,98,95421,1,8,0:0:0:0:
197,83,95578,1,8,0:0:0:0:
194,88,95657,1,8,0:0:0:0:
194,89,95736,1,0,0:0:0:0:
164,173,95894,1,8,0:0:0:0:
124,185,96210,1,8,0:0:0:0:
124,185,96368,1,8,0:0:0:0:
173,39,96447,1,0,0:0:0:0:
124,185,96526,1,0,0:0:0:0:
124,185,96684,1,0,0:0:0:0:
122,191,96842,1,8,0:0:0:0:
109,209,97000,1,0,0:0:0:0:
190,116,97157,1,8,0:0:0:0:
187,99,97236,1,8,0:0:0:0:
203,99,97315,1,8,0:0:0:0:
203,99,97473,1,8,0:0:0:0:
203,99,97631,1,0,0:0:0:0:
203,99,97789,1,8,0:0:0:0:
176,89,97868,1,0,0:0:0:0:
203,99,97947,1,8,0:0:0:0:
224,90,98105,1,0,0:0:0:0:
224,90,98184,1,8,0:0:0:0:
166,83,98263,1,0,0:0:0:0:
163,110,98421,1,8,0:0:0:0:
142,126,98736,1,8,0:0:0:0:
142,126,98894,1,8,0:0:0:0:
138,136,98973,1,0,0:0:0:0:
139,134,99052,1,8,0:0:0:0:
139,139,99210,1,0,0:0:0:0:
141,144,99368,1,8,0:0:0:0:
141,149,99526,1,0,0:0:0:0:
181,126,99684,1,8,0:0:0:0:
171,91,99763,1,0,0:0:0:0:
181,105,99842,1,8,0:0:0:0:
181,105,100000,1,8,0:0:0:0:
181,105,100157,1,0,0:0:0:0:
181,105,100315,1,0,0:0:0:0:
190,69,100394,1,0,0:0:0:0:
179,113,100473,1,8,0:0:0:0:
179,121,100631,1,8,0:0:0:0:
179,122,100710,1,8,0:0:0:0:
179,122,100789,1,0,0:0:0:0:
130,95,100947,1,8,0:0:0:0:
113,110,101263,1,0,0:0:0:0:
113,110,101421,1,8,0:0:0:0:
198,105,101500,1,0,0:0:0:0:
113,111,101578,1,0,0:0:0:0:
113,111,101736,1,0,0:0:0:0:
113,110,101894,1,8,0:0:0:0:
113,110,102052,1,0,0:0:0:0:
185,122,102210,1,8,0:0:0:0:
197,78,102289,1,8,0:0:0:0:
157,139,102368,1,8,0:0:0:0:
157,139,102526,1,8,0:0:0:0:
174,135,102684,1,0,0:0:0:0:
177,147,102842,1,8,0:0:0:0:
170,91,102921,1,0,0:0:0:0:
177,147,103000,1,8,0:0:0:0:
175,87,103157,1,0,0:0:0:0:
175,87,103236,1,0,0:0:0:0:
175,87,103315,1,0,0:0:0:0:
175,87,103473,1,8,0:0:0:0:
215,69,103631,1,0,0:0:0:0:
181,114,103789,1,0,0:0:0:0:
181,114,103947,1,8,0:0:0:0:
181,114,104105,1,0,0:0:0:0:
183,121,104263,1,8,0:0:0:0:
183,122,104421,1,8,0:0:0:0:
142,151,104578,1,0,0:0:0:0:
192,64,104815,1,0,0:0:0:0:
160,160,104894,1,0,0:0:0:0:
160,192,105052,1,8,0:0:0:0:
160,192,105210,1,0,0:0:0:0:
160,192,105526,1,0,0:0:0:0:
160,160,105842,1,0,0:0:0:0:
160,160,106000,1,8,0:0:0:0:
160,160,106157,1,0,0:0:0:0:
160,160,106315,1,8,0:0:0:0:
128,160,106473,1,0,0:0:0:0:
128,160,106789,1,8,0:0:0:0:
192,64,107105,1,8,0:0:0:0:
192,64,107342,1,0,0:0:0:0:
128,160,107421,1,0,0:0:0:0:
128,160,107578,1,8,0:0:0:0:
128,192,107736,1,0,0:0:0:0:
128,192,108052,1,0,0:0:0:0:
160,128,108368,1,0,0:0:0:0:
160,128,108526,1,8,0:0:0:0:
160,128,108684,1,0,0:0:0:0:
160,160,108842,1,8,0:0:0:0:
160,160,109000,1,0,0:0:0:0:
192,128,109236,1,0,0:0:0:0:
160,160,109315,1,0,0:0:0:0:
160,128,109473,1,8,0:0:0:0:
160,160,109631,1,0,0:0:0:0:
160,128,109868,1,8,0:0:0:0:
160,128,109947,1,0,0:0:0:0:
128,160,110105,1,8,0:0:0:0:
128,160,110263,1,0,0:0:0:0:
128,192,110578,1,0,0:0:0:0:
160,192,110894,1,0,0:0:0:0:
128,192,111052,1,8,0:0:0:0:
128,192,111210,1,0,0:0:0:0:
128,192,111368,1,8,0:0:0:0:
128,192,111526,1,0,0:0:0:0:
128,128,111842,1,8,0:0:0:0:
128,128,112157,1,8,0:0:0:0:
192,64,112473,1,0,0:0:0:0:
160,160,112631,1,8,0:0:0:0:
211,93,112710,1,0,0:0:0:0:
160,160,112789,1,0,0:0:0:0:
192,96,112868,1,8,0:0:0:0:
160,96,113026,1,8,0:0:0:0:
160,96,113105,1,0,0:0:0:0:
160,96,113263,1,8,0:0:0:0:
160,96,113421,1,0,0:0:0:0:
192,128,113578,1,0,0:0:0:0:
192,128,113657,1,0,0:0:0:0:
160,96,113736,1,8,0:0:0:0:
160,96,113894,1,8,0:0:0:0:
228,49,113973,1,0,0:0:0:0:
160,96,114052,1,0,0:0:0:0:
160,96,114131,1,8,0:0:0:0:
128,64,114289,1,0,0:0:0:0:
128,64,114368,1,0,0:0:0:0:
128,64,114526,1,8,0:0:0:0:
