osu file format v14

[General]
AudioFilename: audio.mp3
AudioLeadIn: 0
PreviewTime: 84368
Countdown: 0
SampleSet: Normal
StackLeniency: 0.7
Mode: 1
LetterboxInBreaks: 0
WidescreenStoryboard: 1

[Editor]
Bookmarks: 1000,12368,22473,32578,52789,74263,84368,104578,114684
DistanceSpacing: 0.1
BeatDivisor: 6
GridSize: 32
TimelineZoom: 2.750001

[Metadata]
Title:squall
TitleUnicode:squall
Artist:Nekomata Master+
ArtistUnicode:猫叉Master+
Creator:Ulqui
Version:Muzukashii
Source:jubeat saucer
Tags:electronic instrumental video game Naoyuki Sato bemani konami fulfill prop qubell clan festo plus jukebeat music pack 24
BeatmapID:3095619
BeatmapSetID:948847

[Difficulty]
HPDrainRate:6
CircleSize:5
OverallDifficulty:5
ApproachRate:6
SliderMultiplier:1.4
SliderTickRate:1

[Events]
//Background and Video events
0,0,"aaaaaa.jpg",0,-15
//Break Periods
//Storyboard Layer 0 (Background)
//Storyboard Layer 1 (Fail)
//Storyboard Layer 2 (Pass)
//Storyboard Layer 3 (Foreground)
//Storyboard Layer 4 (Overlay)
//Storyboard Sound Samples

[TimingPoints]
1000,315.789473684211,4,1,0,60,1,0
1000,-100,4,1,0,60,0,0
12368,-111.111111111111,4,1,0,60,0,0
17381,-111.111111111111,4,1,0,70,0,0
21157,-100,4,1,0,70,0,0
21368,-102.040816326531,4,1,0,70,0,0
21578,-104.166666666667,4,1,0,70,0,0
21789,-106.382978723404,4,1,0,70,0,0
22105,-111.111111111111,4,1,0,70,0,0
22434,-100,4,1,0,80,0,0
31421,-100,4,1,0,80,0,0
31579,-98.0392156862745,4,1,0,80,0,0
31736,-96.1538461538461,4,1,0,80,0,0
31894,-94.3396226415094,4,1,0,80,0,0
32052,-92.5925925925926,4,1,0,80,0,0
32210,-90.9090909090909,4,1,0,80,0,0
32526,-100,4,1,0,80,0,0
47052,-100,4,1,0,80,0,0
47157,-102.040816326531,4,1,0,80,0,0
47263,-104.166666666667,4,1,0,80,0,0
47368,-106.382978723404,4,1,0,80,0,0
47684,-108.695652173913,4,1,0,80,0,0
47842,-111.111111111111,4,1,0,80,0,0
48631,-100,4,1,0,80,0,0
48947,-100,4,1,0,80,0,0
84328,-100,4,1,0,100,0,0
84368,-100,4,1,0,100,0,1
104578,-100,4,1,0,100,0,0
104697,-100,4,1,0,60,0,0
104736,-100,4,1,0,60,0,0

[HitObjects]
224,192,1000,5,0,0:0:0:0:
224,224,1315,1,0,0:0:0:0:
192,224,1631,1,0,0:0:0:0:
192,224,1947,1,0,0:0:0:0:
192,224,2263,1,0,0:0:0:0:
192,224,2578,1,0,0:0:0:0:
192,224,2894,1,0,0:0:0:0:
206,78,3210,1,8,0:0:0:0:
160,160,3842,1,0,0:0:0:0:
160,160,4157,1,0,0:0:0:0:
160,160,4473,1,0,0:0:0:0:
160,160,4789,1,0,0:0:0:0:
160,160,5105,1,0,0:0:0:0:
160,160,5421,1,0,0:0:0:0:
160,160,5736,1,0,0:0:0:0:
160,192,5894,1,8,0:0:0:0:
160,192,6052,1,0,0:0:0:0:
160,192,6368,1,8,0:0:0:0:
160,192,6684,1,0,0:0:0:0:
160,192,7000,1,8,0:0:0:0:
160,192,7315,1,0,0:0:0:0:
160,192,7631,1,8,0:0:0:0:
160,192,7947,1,0,0:0:0:0:
161,70,8263,1,8,0:0:0:0:
160,192,8894,1,8,0:0:0:0:
160,160,9210,1,0,0:0:0:0:
160,160,9526,1,8,0:0:0:0:
160,160,9842,1,0,0:0:0:0:
160,160,10157,1,8,0:0:0:0:
160,160,10473,1,0,0:0:0:0:
160,160,10789,1,0,0:0:0:0:
160,160,11105,1,12,0:0:0:0:
192,256,12368,1,4,0:0:0:0:
192,160,12684,1,8,0:0:0:0:
192,160,12842,1,8,0:0:0:0:
192,128,13157,1,0,0:0:0:0:
160,160,13315,1,8,0:0:0:0:
128,192,13789,1,8,0:0:0:0:
160,160,14263,1,8,0:0:0:0:
160,160,14421,1,0,0:0:0:0:
160,160,14578,1,0,0:0:0:0:
160,160,14736,1,8,0:0:0:0:
160,160,14894,1,0,0:0:0:0:
160,192,15210,1,8,0:0:0:0:
160,192,15368,1,8,0:0:0:0:
160,192,15684,1,0,0:0:0:0:
160,192,15842,1,8,0:0:0:0:
160,192,16315,1,8,0:0:0:0:
160,192,16789,1,8,0:0:0:0:
160,192,16947,1,8,0:0:0:0:
160,192,17105,1,0,0:0:0:0:
160,192,17263,1,8,0:0:0:0:
160,192,17421,1,4,0:0:0:0:
160,192,17736,1,8,0:0:0:0:
160,192,17894,1,8,0:0:0:0:
160,192,18210,1,0,0:0:0:0:
160,192,18368,1,8,0:0:0:0:
160,192,18842,1,8,0:0:0:0:
160,192,19315,1,8,0:0:0:0:
160,224,19473,1,0,0:0:0:0:
160,224,19631,1,0,0:0:0:0:
160,224,19789,1,8,0:0:0:0:
160,224,19947,1,0,0:0:0:0:
160,224,20263,1,8,0:0:0:0:
160,224,20421,1,8,0:0:0:0:
160,192,20736,1,0,0:0:0:0:
160,192,20894,1,0,0:0:0:0:
160,192,21210,1,8,0:0:0:0:
158,187,21421,1,0,0:0:0:0:
158,187,21631,1,0,0:0:0:0:
158,187,21842,1,0,0:0:0:0:
160,96,22157,1,8,0:0:0:0:
160,96,22473,1,4,0:0:0:0:
192,96,22789,1,8,0:0:0:0:
224,64,22947,1,0,0:0:0:0:
192,96,23105,1,8,0:0:0:0:
224,64,23263,1,0,0:0:0:0:
192,96,23421,1,8,0:0:0:0:
192,128,23736,1,8,0:0:0:0:
192,128,24052,1,0,0:0:0:0:
192,128,24368,1,8,0:0:0:0:
192,128,24526,1,8,0:0:0:0:
192,128,24684,1,8,0:0:0:0:
192,128,24842,1,0,0:0:0:0:
192,160,25315,1,8,0:0:0:0:
192,160,25473,1,0,0:0:0:0:
192,160,25631,1,0,0:0:0:0:
192,160,25789,1,0,0:0:0:0:
192,160,25947,1,8,0:0:0:0:
128,96,26263,1,0,0:0:0:0:
128,96,26578,1,8,0:0:0:0:
128,96,26736,1,0,0:0:0:0:
128,128,26894,1,8,0:0:0:0:
128,128,27052,1,8,0:0:0:0:
128,128,27210,1,0,0:0:0:0:
160,160,27526,1,4,0:0:0:0:
160,128,27842,1,8,0:0:0:0:
192,64,28000,1,0,0:0:0:0:
160,128,28157,1,8,0:0:0:0:
160,128,28315,1,0,0:0:0:0:
160,128,28473,1,8,0:0:0:0:
160,128,28789,1,8,0:0:0:0:
160,96,29105,1,0,0:0:0:0:
160,96,29421,1,8,0:0:0:0:
160,96,29578,1,0,0:0:0:0:
160,96,29736,1,0,0:0:0:0:
160,96,29894,1,8,0:0:0:0:
160,128,30052,1,8,0:0:0:0:
192,96,30210,1,0,0:0:0:0:
192,96,30368,1,8,0:0:0:0:
160,32,30447,1,8,0:0:0:0:
160,64,30526,1,8,0:0:0:0:
160,64,30684,1,0,0:0:0:0:
192,96,30842,1,0,0:0:0:0:
160,128,31473,1,8,0:0:0:0:
160,128,31631,1,8,0:0:0:0:
160,128,31789,1,8,0:0:0:0:
160,128,31947,1,0,0:0:0:0:
160,128,32105,1,0,0:0:0:0:
160,128,32263,1,8,0:0:0:0:
160,128,32578,1,4,0:0:0:0:
224,64,32894,1,8,0:0:0:0:
192,128,33052,1,8,0:0:0:0:
192,128,33210,1,0,0:0:0:0:
192,160,33368,1,0,0:0:0:0:
192,160,33526,1,8,0:0:0:0:
160,128,33842,1,0,0:0:0:0:
224,64,34157,1,8,0:0:0:0:
192,128,34315,1,0,0:0:0:0:
192,128,34473,1,0,0:0:0:0:
192,128,34631,1,0,0:0:0:0:
192,128,34789,1,8,0:0:0:0:
192,128,34947,1,0,0:0:0:0:
192,128,35026,1,0,0:0:0:0:
192,96,35105,1,0,0:0:0:0:
192,96,35421,1,8,0:0:0:0:
192,96,35736,1,0,0:0:0:0:
192,128,35894,1,0,0:0:0:0:
192,96,36052,1,8,0:0:0:0:
192,128,36684,1,8,0:0:0:0:
192,96,37000,1,0,0:0:0:0:
192,128,37157,1,0,0:0:0:0:
160,96,37315,1,8,0:0:0:0:
224,64,37473,1,8,0:0:0:0:
160,128,37631,1,4,0:0:0:0:
192,64,37947,1,8,0:0:0:0:
160,128,38263,1,0,0:0:0:0:
160,128,38421,1,0,0:0:0:0:
160,128,38578,1,8,0:0:0:0:
192,128,38894,1,0,0:0:0:0:
192,128,39210,1,8,0:0:0:0:
192,64,39368,1,8,0:0:0:0:
192,128,39526,1,8,0:0:0:0:
192,64,39842,1,8,0:0:0:0:
160,96,40000,1,0,0:0:0:0:
192,64,40078,1,0,0:0:0:0:
160,96,40157,1,0,0:0:0:0:
192,64,40473,1,8,0:0:0:0:
192,160,40631,1,0,0:0:0:0:
192,128,40789,1,0,0:0:0:0:
192,128,40947,1,0,0:0:0:0:
192,128,41105,1,8,0:0:0:0:
160,96,41421,1,0,0:0:0:0:
160,96,41578,1,8,0:0:0:0:
160,96,41657,1,8,0:0:0:0:
160,96,41736,1,8,0:0:0:0:
192,96,42052,1,0,0:0:0:0:
192,96,42210,1,8,0:0:0:0:
192,64,42684,1,4,0:0:0:0:
160,96,43000,1,8,0:0:0:0:
160,96,43157,1,8,0:0:0:0:
160,96,43315,1,0,0:0:0:0:
160,128,43473,1,0,0:0:0:0:
160,128,43631,1,8,0:0:0:0:
160,160,43947,1,0,0:0:0:0:
160,160,44263,1,8,0:0:0:0:
160,160,44421,1,0,0:0:0:0:
160,192,44578,1,0,0:0:0:0:
160,192,44736,1,0,0:0:0:0:
160,192,44894,1,8,0:0:0:0:
160,192,45052,1,0,0:0:0:0:
192,160,45131,1,0,0:0:0:0:
160,192,45210,1,0,0:0:0:0:
160,160,45526,1,8,0:0:0:0:
160,160,45842,1,0,0:0:0:0:
160,160,46000,1,0,0:0:0:0:
160,160,46157,1,8,0:0:0:0:
180,152,46473,1,0,0:0:0:0:
192,128,46789,1,8,0:0:0:0:
192,128,47105,1,0,0:0:0:0:
224,96,47210,1,0,0:0:0:0:
224,96,47315,1,0,0:0:0:0:
192,128,47421,1,0,0:0:0:0:
192,128,47736,1,0,0:0:0:0:
256,128,47894,1,8,0:0:0:0:
192,96,48684,1,12,0:0:0:0:
224,96,49000,1,0,0:0:0:0:
160,128,49315,1,8,0:0:0:0:
160,128,49473,1,0,0:0:0:0:
160,128,49631,1,8,0:0:0:0:
224,96,49789,1,0,0:0:0:0:
160,128,49947,1,8,0:0:0:0:
160,128,50263,1,8,0:0:0:0:
160,128,50421,1,8,0:0:0:0:
160,128,50578,1,8,0:0:0:0:
256,192,51526,12,0,52473,0:0:0:0:
192,160,52789,5,4,0:0:0:0:
224,160,53105,1,8,0:0:0:0:
192,160,53263,1,4,0:0:0:0:
192,160,53578,1,8,0:0:0:0:
192,160,53736,1,8,0:0:0:0:
160,32,53894,1,0,0:0:0:0:
160,96,53973,1,0,0:0:0:0:
224,128,54052,1,0,0:0:0:0:
192,128,54210,1,0,0:0:0:0:
192,128,54368,1,8,0:0:0:0:
192,128,54684,1,0,0:0:0:0:
160,128,55315,1,0,0:0:0:0:
160,128,55631,1,8,0:0:0:0:
160,128,55789,1,0,0:0:0:0:
160,160,56105,1,8,0:0:0:0:
160,160,56263,1,8,0:0:0:0:
160,96,56578,1,8,0:0:0:0:
160,96,56736,1,0,0:0:0:0:
160,96,56894,1,8,0:0:0:0:
160,160,57210,1,8,0:0:0:0:
160,160,57368,1,0,0:0:0:0:
160,160,57526,1,0,0:0:0:0:
160,160,57684,1,8,0:0:0:0:
160,160,57842,1,4,0:0:0:0:
192,128,58157,1,8,0:0:0:0:
192,128,58315,1,0,0:0:0:0:
96,128,58473,1,0,0:0:0:0:
160,96,58631,1,8,0:0:0:0:
160,96,58789,1,8,0:0:0:0:
160,96,58947,1,0,0:0:0:0:
192,64,59026,1,0,0:0:0:0:
160,96,59105,1,0,0:0:0:0:
160,96,59263,1,0,0:0:0:0:
160,96,59421,1,8,0:0:0:0:
160,96,59736,1,0,0:0:0:0:
192,64,60368,1,0,0:0:0:0:
192,96,60684,1,8,0:0:0:0:
192,96,60842,1,0,0:0:0:0:
192,64,61157,1,8,0:0:0:0:
192,64,61315,1,8,0:0:0:0:
224,128,61631,1,8,0:0:0:0:
224,128,61789,1,0,0:0:0:0:
192,160,61947,1,8,0:0:0:0:
160,96,62263,1,8,0:0:0:0:
160,128,62421,1,0,0:0:0:0:
160,128,62578,1,0,0:0:0:0:
192,160,62736,1,8,0:0:0:0:
192,160,62894,1,4,0:0:0:0:
192,96,63210,1,8,0:0:0:0:
192,96,63368,1,4,0:0:0:0:
256,96,64789,1,0,0:0:0:0:
256,96,64947,1,8,0:0:0:0:
256,96,65105,1,8,0:0:0:0:
192,96,65421,1,4,0:0:0:0:
256,128,65736,1,8,0:0:0:0:
256,128,65894,1,4,0:0:0:0:
224,128,66842,1,8,0:0:0:0:
224,128,67000,1,0,0:0:0:0:
224,128,67078,1,0,0:0:0:0:
224,128,67157,1,0,0:0:0:0:
224,128,67315,1,8,0:0:0:0:
224,128,67473,1,0,0:0:0:0:
224,128,67631,1,0,0:0:0:0:
224,96,67789,1,8,0:0:0:0:
224,128,67947,1,4,0:0:0:0:
224,128,68263,1,8,0:0:0:0:
224,128,68421,1,4,0:0:0:0:
160,64,68736,1,8,0:0:0:0:
160,64,68894,1,8,0:0:0:0:
160,64,68973,1,8,0:0:0:0:
160,64,69131,1,8,0:0:0:0:
160,64,69210,1,8,0:0:0:0:
160,64,69526,1,0,0:0:0:0:
160,64,69684,1,0,0:0:0:0:
192,64,69842,1,8,0:0:0:0:
192,64,70157,1,8,0:0:0:0:
192,64,70473,1,4,0:0:0:0:
256,96,70789,1,8,0:0:0:0:
224,96,70947,1,4,0:0:0:0:
256,64,71263,1,0,0:0:0:0:
224,128,71421,1,8,0:0:0:0:
224,128,71578,1,8,0:0:0:0:
224,96,71657,1,8,0:0:0:0:
224,128,71736,1,8,0:0:0:0:
224,96,72052,1,0,0:0:0:0:
224,96,72368,1,8,0:0:0:0:
224,96,72684,1,0,0:0:0:0:
224,96,73000,1,12,0:0:0:0:
197,120,74263,5,4,0:0:0:0:
197,120,74578,1,8,0:0:0:0:
197,120,74736,1,8,0:0:0:0:
197,120,75052,1,0,0:0:0:0:
197,120,75210,1,8,0:0:0:0:
178,92,75842,5,8,0:0:0:0:
143,129,76157,1,8,0:0:0:0:
143,129,76315,1,0,0:0:0:0:
143,129,76473,1,0,0:0:0:0:
143,129,76631,1,8,0:0:0:0:
143,129,76789,1,0,0:0:0:0:
171,130,77105,1,8,0:0:0:0:
171,130,77263,1,8,0:0:0:0:
172,134,77578,1,0,0:0:0:0:
172,134,77736,1,8,0:0:0:0:
172,134,78368,1,8,0:0:0:0:
160,98,78684,1,8,0:0:0:0:
160,98,78842,1,8,0:0:0:0:
160,98,79000,1,0,0:0:0:0:
160,98,79157,1,8,0:0:0:0:
182,122,79315,1,0,0:0:0:0:
136,141,79631,1,8,0:0:0:0:
136,141,79789,1,8,0:0:0:0:
144,148,80105,1,0,0:0:0:0:
144,148,80263,1,8,0:0:0:0:
210,94,80894,1,8,0:0:0:0:
210,94,81210,1,8,0:0:0:0:
210,94,81368,1,0,0:0:0:0:
210,94,81526,1,0,0:0:0:0:
210,94,81684,1,8,0:0:0:0:
210,94,81842,1,0,0:0:0:0:
180,119,82157,1,8,0:0:0:0:
191,113,82315,1,8,0:0:0:0:
180,119,82631,1,0,0:0:0:0:
191,113,82789,1,0,0:0:0:0:
191,113,83105,1,12,0:0:0:0:
148,109,83736,5,0,0:0:0:0:
166,117,83894,1,0,0:0:0:0:
148,109,84052,1,8,0:0:0:0:
186,158,84368,5,4,0:0:0:0:
244,137,84684,1,8,0:0:0:0:
244,137,84842,1,8,0:0:0:0:
244,137,85000,1,0,0:0:0:0:
242,142,85157,1,0,0:0:0:0:
242,143,85315,1,8,0:0:0:0:
183,79,85473,1,0,0:0:0:0:
183,79,85552,1,0,0:0:0:0:
162,145,85631,1,0,0:0:0:0:
158,150,85789,1,8,0:0:0:0:
167,222,86105,1,8,0:0:0:0:
167,222,86263,1,8,0:0:0:0:
167,222,86421,1,0,0:0:0:0:
167,222,86578,1,0,0:0:0:0:
167,222,86736,1,8,0:0:0:0:
167,222,86894,1,0,0:0:0:0:
130,115,87210,1,8,0:0:0:0:
130,115,87368,1,8,0:0:0:0:
130,115,87526,1,0,0:0:0:0:
195,34,87684,1,8,0:0:0:0:
130,115,87842,1,8,0:0:0:0:
130,115,88000,1,0,0:0:0:0:
193,106,88078,1,0,0:0:0:0:
130,115,88157,1,0,0:0:0:0:
130,115,88315,1,8,0:0:0:0:
128,138,88631,1,8,0:0:0:0:
128,138,88789,1,8,0:0:0:0:
128,138,88947,1,8,0:0:0:0:
128,138,89105,1,0,0:0:0:0:
173,144,89263,1,8,0:0:0:0:
186,93,89421,1,0,0:0:0:0:
180,93,89736,1,8,0:0:0:0:
180,93,89894,1,8,0:0:0:0:
179,93,90210,1,0,0:0:0:0:
180,93,90368,1,8,0:0:0:0:
174,74,90526,1,0,0:0:0:0:
171,76,90605,1,0,0:0:0:0:
172,76,90684,1,0,0:0:0:0:
171,76,90842,1,8,0:0:0:0:
139,87,91157,1,0,0:0:0:0:
139,87,91315,1,8,0:0:0:0:
164,155,91473,1,0,0:0:0:0:
164,155,91631,1,0,0:0:0:0:
164,155,91789,1,8,0:0:0:0:
164,155,91947,1,0,0:0:0:0:
153,138,92263,1,8,0:0:0:0:
153,138,92421,1,8,0:0:0:0:
161,145,92736,1,8,0:0:0:0:
161,145,92894,1,0,0:0:0:0:
223,149,93684,1,8,0:0:0:0:
223,149,93842,1,8,0:0:0:0:
169,195,94000,1,0,0:0:0:0:
162,225,94157,1,8,0:0:0:0:
155,257,94315,1,8,0:0:0:0:
186,158,94473,5,4,0:0:0:0:
244,137,94789,1,8,0:0:0:0:
244,137,94947,1,8,0:0:0:0:
244,137,95105,1,0,0:0:0:0:
242,142,95263,1,0,0:0:0:0:
242,143,95421,1,8,0:0:0:0:
183,79,95578,1,0,0:0:0:0:
183,79,95657,1,0,0:0:0:0:
162,145,95736,1,0,0:0:0:0:
158,150,95894,1,8,0:0:0:0:
167,222,96210,1,8,0:0:0:0:
167,222,96368,1,8,0:0:0:0:
167,222,96526,1,0,0:0:0:0:
167,222,96684,1,0,0:0:0:0:
167,222,96842,1,8,0:0:0:0:
167,222,97000,1,0,0:0:0:0:
130,115,97315,1,8,0:0:0:0:
130,115,97473,1,8,0:0:0:0:
130,115,97631,1,0,0:0:0:0:
195,34,97789,1,8,0:0:0:0:
130,115,97947,1,8,0:0:0:0:
130,115,98105,1,0,0:0:0:0:
193,106,98184,1,0,0:0:0:0:
130,115,98263,1,0,0:0:0:0:
130,115,98421,1,8,0:0:0:0:
128,138,98736,1,8,0:0:0:0:
128,138,98894,1,8,0:0:0:0:
128,138,99052,1,8,0:0:0:0:
128,138,99210,1,0,0:0:0:0:
173,144,99368,1,8,0:0:0:0:
186,93,99526,1,0,0:0:0:0:
180,93,99842,1,8,0:0:0:0:
180,93,100000,1,8,0:0:0:0:
179,93,100315,1,0,0:0:0:0:
180,93,100473,1,8,0:0:0:0:
174,74,100631,1,0,0:0:0:0:
171,76,100710,1,0,0:0:0:0:
172,76,100789,1,0,0:0:0:0:
171,76,100947,1,8,0:0:0:0:
139,87,101263,1,0,0:0:0:0:
139,87,101421,1,8,0:0:0:0:
164,155,101578,1,0,0:0:0:0:
164,155,101736,1,0,0:0:0:0:
164,155,101894,1,8,0:0:0:0:
164,155,102052,1,0,0:0:0:0:
153,138,102368,1,8,0:0:0:0:
153,138,102526,1,8,0:0:0:0:
162,143,102684,1,0,0:0:0:0:
161,145,102842,1,8,0:0:0:0:
161,145,103000,1,8,0:0:0:0:
183,123,103315,1,0,0:0:0:0:
193,86,103473,1,8,0:0:0:0:
223,149,103631,1,0,0:0:0:0:
223,149,103947,1,8,0:0:0:0:
169,195,104105,1,0,0:0:0:0:
162,225,104263,1,8,0:0:0:0:
155,257,104421,1,8,0:0:0:0:
228,90,104578,1,0,0:0:0:0:
128,128,104894,1,0,0:0:0:0:
128,128,105210,1,0,0:0:0:0:
128,160,105526,1,0,0:0:0:0:
128,160,105842,1,0,0:0:0:0:
192,160,106157,1,0,0:0:0:0:
192,160,106473,1,0,0:0:0:0:
192,160,106789,1,8,0:0:0:0:
160,128,107421,1,0,0:0:0:0:
160,128,107736,1,0,0:0:0:0:
160,128,108052,1,0,0:0:0:0:
160,128,108368,1,0,0:0:0:0:
160,128,108684,1,0,0:0:0:0:
160,160,109000,1,0,0:0:0:0:
224,128,109315,1,0,0:0:0:0:
224,128,109473,1,8,0:0:0:0:
160,160,109631,1,0,0:0:0:0:
192,160,109789,1,0,0:0:0:0:
192,160,109947,1,8,0:0:0:0:
160,160,110263,1,0,0:0:0:0:
160,160,110578,1,8,0:0:0:0:
160,160,110894,1,0,0:0:0:0:
160,160,111210,1,8,0:0:0:0:
160,96,111526,1,0,0:0:0:0:
160,160,111842,1,8,0:0:0:0:
128,128,112473,1,8,0:0:0:0:
192,96,112631,1,8,0:0:0:0:
160,96,112789,1,0,0:0:0:0:
192,96,112947,1,0,0:0:0:0:
160,128,113105,1,8,0:0:0:0:
160,128,113421,1,0,0:0:0:0:
160,128,113736,1,8,0:0:0:0:
160,128,114052,1,0,0:0:0:0:
160,128,114368,1,8,0:0:0:0:
160,128,114526,1,8,0:0:0:0:
