osu file format v14

[General]
AudioFilename: audio.mp3
AudioLeadIn: 0
PreviewTime: 84368
Countdown: 0
SampleSet: Normal
StackLeniency: 0.7
Mode: 1
LetterboxInBreaks: 0
WidescreenStoryboard: 1

[Editor]
Bookmarks: 1000,12368,22473,32578,52789,74263,84368,104578,114684
DistanceSpacing: 0.1
BeatDivisor: 2
GridSize: 32
TimelineZoom: 2.150001

[Metadata]
Title:squall
TitleUnicode:squall
Artist:Nekomata Master+
ArtistUnicode:猫叉Master+
Creator:Ulqui
Version:Futsuu
Source:jubeat saucer
Tags:electronic instrumental video game Naoyuki Sato bemani konami fulfill prop qubell clan festo plus jukebeat music pack 24
BeatmapID:3095617
BeatmapSetID:948847

[Difficulty]
HPDrainRate:7
CircleSize:5
OverallDifficulty:4
ApproachRate:6
SliderMultiplier:1.4
SliderTickRate:1

[Events]
//Background and Video events
0,0,"aaaaaa.jpg",0,-15
//Break Periods
//Storyboard Layer 0 (Background)
//Storyboard Layer 1 (Fail)
//Storyboard Layer 2 (Pass)
//Storyboard Layer 3 (Foreground)
//Storyboard Layer 4 (Overlay)
//Storyboard Sound Samples

[TimingPoints]
1000,315.789473684211,4,1,0,60,1,0
1000,-111.111111111111,4,1,0,60,0,0
17381,-111.111111111111,4,1,0,70,0,0
22434,-111.111111111111,4,1,0,80,0,0
74263,-111.111111111111,4,1,0,80,0,0
84328,-111.111111111111,4,1,0,100,0,0
84368,-100,4,1,0,100,0,1
104578,-111.111111111111,4,1,0,100,0,0
104697,-111.111111111111,4,1,0,60,0,0
104736,-111.111111111111,4,1,0,60,0,0

[HitObjects]
224,128,1000,5,0,0:0:0:0:
224,128,1315,1,0,0:0:0:0:
192,128,1631,1,0,0:0:0:0:
192,128,1947,1,0,0:0:0:0:
192,128,2263,1,0,0:0:0:0:
192,128,2578,1,0,0:0:0:0:
192,128,2894,1,0,0:0:0:0:
192,128,3210,1,8,0:0:0:0:
192,128,3842,1,0,0:0:0:0:
192,128,4157,1,0,0:0:0:0:
192,128,4473,1,0,0:0:0:0:
192,128,4789,1,0,0:0:0:0:
192,128,5105,1,0,0:0:0:0:
192,128,5421,1,0,0:0:0:0:
192,128,5736,1,0,0:0:0:0:
192,128,6052,1,8,0:0:0:0:
192,128,6368,1,8,0:0:0:0:
192,128,6684,1,8,0:0:0:0:
192,128,7000,1,8,0:0:0:0:
192,160,7315,1,8,0:0:0:0:
192,160,7631,1,8,0:0:0:0:
192,160,7947,1,8,0:0:0:0:
192,64,8263,1,8,0:0:0:0:
192,160,8894,1,8,0:0:0:0:
192,128,9210,1,8,0:0:0:0:
192,128,9526,1,8,0:0:0:0:
192,128,9842,1,8,0:0:0:0:
160,128,10157,1,8,0:0:0:0:
160,128,10473,1,8,0:0:0:0:
160,128,11105,1,12,0:0:0:0:
192,128,12368,1,4,0:0:0:0:
160,192,12842,1,8,0:0:0:0:
160,192,13315,1,8,0:0:0:0:
192,128,14263,1,8,0:0:0:0:
192,128,14421,1,0,0:0:0:0:
192,128,14578,1,0,0:0:0:0:
192,128,14894,1,0,0:0:0:0:
160,224,15368,1,8,0:0:0:0:
160,224,15842,1,8,0:0:0:0:
192,192,16789,1,8,0:0:0:0:
192,192,16947,1,8,0:0:0:0:
192,192,17105,1,0,0:0:0:0:
192,192,17421,1,4,0:0:0:0:
192,192,17894,1,8,0:0:0:0:
192,192,18368,1,8,0:0:0:0:
192,160,19315,1,8,0:0:0:0:
192,160,19473,1,0,0:0:0:0:
192,160,19631,1,8,0:0:0:0:
192,160,19947,1,0,0:0:0:0:
192,160,20421,1,8,0:0:0:0:
192,160,20894,1,0,0:0:0:0:
192,160,21210,1,8,0:0:0:0:
192,128,22473,1,4,0:0:0:0:
224,192,22789,1,8,0:0:0:0:
192,192,23105,1,8,0:0:0:0:
192,192,23421,1,0,0:0:0:0:
192,192,23736,1,8,0:0:0:0:
192,96,24052,1,0,0:0:0:0:
192,160,24368,1,8,0:0:0:0:
224,96,24526,1,8,0:0:0:0:
192,96,24684,1,8,0:0:0:0:
224,96,24842,1,0,0:0:0:0:
192,160,25315,1,8,0:0:0:0:
192,160,25631,1,0,0:0:0:0:
192,160,25947,1,8,0:0:0:0:
192,160,26263,1,8,0:0:0:0:
160,128,26578,1,0,0:0:0:0:
160,128,26894,1,8,0:0:0:0:
160,128,27052,1,8,0:0:0:0:
160,128,27210,1,8,0:0:0:0:
224,128,27842,1,8,0:0:0:0:
160,160,28157,1,8,0:0:0:0:
160,160,28473,1,0,0:0:0:0:
160,160,28789,1,8,0:0:0:0:
160,160,29105,1,0,0:0:0:0:
192,96,29421,1,0,0:0:0:0:
192,96,29736,1,8,0:0:0:0:
192,96,30052,1,8,0:0:0:0:
192,96,30210,1,8,0:0:0:0:
160,96,30368,1,8,0:0:0:0:
160,96,30684,1,0,0:0:0:0:
160,96,30842,1,0,0:0:0:0:
128,128,31631,1,8,0:0:0:0:
160,128,31789,1,8,0:0:0:0:
224,96,31947,1,8,0:0:0:0:
416,320,32105,1,8,0:0:0:0:
192,224,32578,1,4,0:0:0:0:
192,64,32894,1,8,0:0:0:0:
192,64,33210,1,0,0:0:0:0:
160,116,33368,1,0,0:0:0:0:
128,128,33526,1,8,0:0:0:0:
128,160,33842,1,0,0:0:0:0:
224,96,34157,1,8,0:0:0:0:
224,32,34473,1,0,0:0:0:0:
206,73,34631,1,0,0:0:0:0:
192,64,34789,1,8,0:0:0:0:
128,160,35105,1,0,0:0:0:0:
224,96,35578,1,0,0:0:0:0:
128,96,35736,1,0,0:0:0:0:
192,64,36052,1,8,0:0:0:0:
192,64,36684,1,8,0:0:0:0:
192,96,37000,1,0,0:0:0:0:
160,96,37315,1,8,0:0:0:0:
160,96,37631,1,4,0:0:0:0:
192,128,38105,1,0,0:0:0:0:
192,96,38263,1,0,0:0:0:0:
192,128,38578,1,8,0:0:0:0:
192,160,39210,1,8,0:0:0:0:
192,128,39526,1,0,0:0:0:0:
192,64,39842,1,8,0:0:0:0:
224,128,40000,1,0,0:0:0:0:
192,64,40157,1,0,0:0:0:0:
192,96,40631,1,8,0:0:0:0:
192,64,40789,1,0,0:0:0:0:
192,128,41105,1,8,0:0:0:0:
192,128,41736,1,8,0:0:0:0:
224,64,42052,1,0,0:0:0:0:
192,64,42368,1,8,0:0:0:0:
192,64,42684,1,4,0:0:0:0:
224,64,43000,1,8,0:0:0:0:
224,192,43315,1,0,0:0:0:0:
244,109,43473,1,0,0:0:0:0:
224,192,43631,1,8,0:0:0:0:
224,192,43947,1,0,0:0:0:0:
192,64,44263,1,8,0:0:0:0:
192,224,44578,1,0,0:0:0:0:
199,94,44736,1,0,0:0:0:0:
192,224,44894,1,8,0:0:0:0:
192,224,45210,1,0,0:0:0:0:
224,64,45684,1,0,0:0:0:0:
192,64,45842,1,0,0:0:0:0:
160,224,46157,1,8,0:0:0:0:
160,160,46789,1,8,0:0:0:0:
192,96,47105,1,0,0:0:0:0:
192,224,47421,1,8,0:0:0:0:
192,224,47736,1,0,0:0:0:0:
160,224,47894,1,8,0:0:0:0:
160,224,48684,1,12,0:0:0:0:
192,64,49000,1,0,0:0:0:0:
192,96,49473,1,0,0:0:0:0:
192,128,49631,1,0,0:0:0:0:
192,128,49947,1,8,0:0:0:0:
192,128,50263,1,8,0:0:0:0:
192,128,50421,1,8,0:0:0:0:
192,128,50578,1,8,0:0:0:0:
256,192,51526,12,0,52473,0:0:0:0:
192,96,52789,5,4,0:0:0:0:
160,96,53105,1,8,0:0:0:0:
160,96,53263,1,4,0:0:0:0:
192,128,54052,1,8,0:0:0:0:
192,128,54210,1,0,0:0:0:0:
192,128,54368,1,8,0:0:0:0:
192,128,54684,1,0,0:0:0:0:
224,128,55315,1,0,0:0:0:0:
224,128,55631,1,8,0:0:0:0:
224,128,55789,1,0,0:0:0:0:
224,128,56578,1,8,0:0:0:0:
224,128,56736,1,0,0:0:0:0:
224,128,56894,1,8,0:0:0:0:
192,96,57210,1,8,0:0:0:0:
224,96,57368,1,8,0:0:0:0:
192,96,57526,1,8,0:0:0:0:
192,64,57842,1,4,0:0:0:0:
192,96,58157,1,8,0:0:0:0:
192,96,58315,1,0,0:0:0:0:
64,160,58631,1,8,0:0:0:0:
192,96,59105,1,8,0:0:0:0:
192,96,59263,1,0,0:0:0:0:
192,96,59421,1,8,0:0:0:0:
192,96,59736,1,0,0:0:0:0:
192,96,60368,1,0,0:0:0:0:
192,96,60684,1,8,0:0:0:0:
192,96,60842,1,0,0:0:0:0:
192,96,61631,1,8,0:0:0:0:
192,96,61789,1,0,0:0:0:0:
192,96,61947,1,8,0:0:0:0:
192,96,62263,1,8,0:0:0:0:
224,96,62421,1,8,0:0:0:0:
192,96,62578,1,8,0:0:0:0:
192,96,62894,1,4,0:0:0:0:
192,128,63210,1,8,0:0:0:0:
192,96,63368,1,4,0:0:0:0:
192,128,65105,1,8,0:0:0:0:
192,128,65421,1,4,0:0:0:0:
192,128,65736,1,8,0:0:0:0:
192,128,65894,1,4,0:0:0:0:
224,64,67315,1,8,0:0:0:0:
224,64,67631,1,8,0:0:0:0:
192,128,67947,1,4,0:0:0:0:
192,128,68263,1,8,0:0:0:0:
192,128,68421,1,4,0:0:0:0:
192,160,69842,1,8,0:0:0:0:
192,64,70157,1,8,0:0:0:0:
192,96,70473,1,4,0:0:0:0:
192,128,70789,1,8,0:0:0:0:
192,96,70947,1,4,0:0:0:0:
192,64,72052,1,0,0:0:0:0:
192,96,72368,1,8,0:0:0:0:
192,96,72684,1,0,0:0:0:0:
192,96,73000,1,12,0:0:0:0:
155,159,74263,5,4,0:0:0:0:
155,159,74736,1,8,0:0:0:0:
185,122,75210,1,8,0:0:0:0:
171,123,76157,1,8,0:0:0:0:
252,93,76315,1,0,0:0:0:0:
164,140,76473,1,0,0:0:0:0:
161,144,76789,1,0,0:0:0:0:
161,145,77263,1,8,0:0:0:0:
187,68,77736,1,8,0:0:0:0:
181,81,78684,1,8,0:0:0:0:
215,52,78842,1,8,0:0:0:0:
181,81,79000,1,0,0:0:0:0:
181,81,79315,1,0,0:0:0:0:
181,81,79789,1,8,0:0:0:0:
181,81,80263,1,8,0:0:0:0:
150,85,81210,5,8,0:0:0:0:
222,74,81368,1,0,0:0:0:0:
150,85,81526,1,8,0:0:0:0:
202,178,81842,5,0,0:0:0:0:
202,178,82315,1,8,0:0:0:0:
202,178,82789,1,0,0:0:0:0:
206,93,83105,1,12,0:0:0:0:
157,159,84368,1,4,0:0:0:0:
155,131,84684,1,8,0:0:0:0:
155,131,84842,1,8,0:0:0:0:
155,131,85157,1,0,0:0:0:0:
155,131,85315,1,8,0:0:0:0:
142,124,86105,1,8,0:0:0:0:
142,124,86263,1,8,0:0:0:0:
142,124,86578,1,0,0:0:0:0:
157,139,86736,1,8,0:0:0:0:
157,139,86894,1,0,0:0:0:0:
192,88,87210,1,8,0:0:0:0:
192,88,87368,1,8,0:0:0:0:
188,101,87684,1,0,0:0:0:0:
188,104,87842,1,8,0:0:0:0:
170,99,88631,1,8,0:0:0:0:
170,99,88789,1,0,0:0:0:0:
170,99,89105,1,8,0:0:0:0:
169,112,89263,1,8,0:0:0:0:
164,116,89421,1,0,0:0:0:0:
143,131,89736,1,8,0:0:0:0:
143,131,89894,1,8,0:0:0:0:
143,131,90210,1,0,0:0:0:0:
143,131,90368,1,8,0:0:0:0:
158,156,91157,1,0,0:0:0:0:
158,156,91315,1,8,0:0:0:0:
158,156,91631,1,0,0:0:0:0:
157,163,91789,1,8,0:0:0:0:
158,163,91947,1,0,0:0:0:0:
149,173,92263,1,8,0:0:0:0:
148,173,92421,1,8,0:0:0:0:
148,173,92736,1,8,0:0:0:0:
144,179,92894,1,0,0:0:0:0:
148,162,93684,1,8,0:0:0:0:
148,162,93842,1,8,0:0:0:0:
148,162,94157,1,8,0:0:0:0:
148,162,94315,1,8,0:0:0:0:
148,162,94473,1,4,0:0:0:0:
154,70,94789,1,8,0:0:0:0:
154,70,94947,1,8,0:0:0:0:
164,81,95263,1,0,0:0:0:0:
164,81,95421,1,8,0:0:0:0:
198,78,96210,1,8,0:0:0:0:
193,85,96368,1,8,0:0:0:0:
187,101,96684,1,0,0:0:0:0:
184,104,96842,1,8,0:0:0:0:
181,108,97000,1,0,0:0:0:0:
178,114,97315,1,8,0:0:0:0:
176,117,97473,1,8,0:0:0:0:
176,117,97789,1,0,0:0:0:0:
176,121,97947,1,8,0:0:0:0:
198,119,98736,1,8,0:0:0:0:
189,132,98894,1,0,0:0:0:0:
185,138,99210,1,8,0:0:0:0:
153,114,99368,1,8,0:0:0:0:
153,114,99526,1,0,0:0:0:0:
157,131,99842,1,8,0:0:0:0:
157,133,100000,1,8,0:0:0:0:
157,133,100315,1,0,0:0:0:0:
157,133,100473,1,8,0:0:0:0:
199,144,101263,1,0,0:0:0:0:
199,144,101421,1,8,0:0:0:0:
193,156,101736,1,0,0:0:0:0:
193,159,101894,1,8,0:0:0:0:
193,162,102052,1,0,0:0:0:0:
193,162,102368,1,8,0:0:0:0:
191,168,102526,1,8,0:0:0:0:
190,169,102842,1,0,0:0:0:0:
190,169,103000,1,8,0:0:0:0:
150,124,103947,1,8,0:0:0:0:
152,130,104105,1,0,0:0:0:0:
155,148,104263,1,8,0:0:0:0:
155,162,104578,1,0,0:0:0:0:
192,128,104894,1,0,0:0:0:0:
192,128,105210,1,0,0:0:0:0:
192,160,105526,1,0,0:0:0:0:
192,160,105842,1,0,0:0:0:0:
192,160,106157,1,0,0:0:0:0:
192,160,106473,1,0,0:0:0:0:
192,160,106789,1,8,0:0:0:0:
192,160,107421,1,0,0:0:0:0:
192,160,107736,1,0,0:0:0:0:
192,160,108052,1,0,0:0:0:0:
192,160,108368,1,0,0:0:0:0:
192,160,108684,1,0,0:0:0:0:
192,160,109000,1,0,0:0:0:0:
160,64,109315,1,0,0:0:0:0:
192,160,109631,1,8,0:0:0:0:
160,128,109947,1,8,0:0:0:0:
192,128,110263,1,8,0:0:0:0:
192,128,110578,1,8,0:0:0:0:
192,128,110894,1,8,0:0:0:0:
192,160,111210,1,8,0:0:0:0:
192,160,111526,1,8,0:0:0:0:
192,160,111842,1,8,0:0:0:0:
192,160,112473,1,8,0:0:0:0:
192,160,112789,1,8,0:0:0:0:
192,160,113105,1,8,0:0:0:0:
192,160,113421,1,8,0:0:0:0:
192,160,113736,1,8,0:0:0:0:
192,160,114052,1,8,0:0:0:0:
192,160,114368,1,8,0:0:0:0:
192,160,114526,1,8,0:0:0:0:
