osu file format v14

[General]
AudioFilename: Nekomata Master+ - squall.mp3
AudioLeadIn: 1500
PreviewTime: 83693
Countdown: 0
SampleSet: Soft
StackLeniency: 0.7
Mode: 0
LetterboxInBreaks: 1
WidescreenStoryboard: 0

[Editor]
DistanceSpacing: 1.1
BeatDivisor: 4
GridSize: 4
TimelineZoom: 2.4

[Metadata]
Title:squall
TitleUnicode:squall
Artist:Nekomata Master+
ArtistUnicode:猫叉Master+
Creator:Reisen Udongein
Version:Extra
Source:jubeat saucer
Tags:Drum n Bass DnB Niva Nivalis Muya W_h_i_t_e
BeatmapID:323907
BeatmapSetID:127772

[Difficulty]
HPDrainRate:7
CircleSize:5
OverallDifficulty:9
ApproachRate:9
SliderMultiplier:1.6
SliderTickRate:2

[Events]
//Background and Video events
0,0,"bg.jpg",0,0
//Break Periods
//Storyboard Layer 0 (Background)
//Storyboard Layer 1 (Fail)
//Storyboard Layer 2 (Pass)
//Storyboard Layer 3 (Foreground)
//Storyboard Sound Samples

[TimingPoints]
641,315.789473684211,4,2,0,40,1,0
2851,-100,4,2,0,20,0,0
3127,-100,4,2,0,40,0,0
7904,-100,4,2,0,20,0,0
8180,-100,4,2,0,40,0,0
12009,-100,4,2,0,60,0,0
16627,-100,4,2,0,30,0,0
16706,-100,4,2,0,60,0,0
21798,-100,4,2,0,30,0,0
22075,-100,4,2,0,60,0,0
47535,-50,4,1,0,35,0,0
48009,-100,4,2,0,60,0,0
52430,-76.9230769230769,4,2,0,60,0,0
52746,-100,4,2,0,60,0,0
54641,-76.9230769230769,4,2,0,60,0,0
54956,-100,4,2,0,60,0,0
57483,-76.9230769230769,4,2,0,60,0,0
57798,-100,4,2,0,60,0,0
61904,-100,4,2,0,30,0,0
62062,-100,4,2,0,40,0,0
62219,-100,4,2,0,45,0,0
62377,-100,4,2,0,50,0,0
62535,-100,4,2,0,60,0,0
66641,-100,4,1,0,35,0,0
67509,-100,4,2,0,60,0,0
70114,-76.9230769230769,4,2,0,60,0,0
70430,-100,4,2,0,60,0,0
72167,-100,4,1,0,40,0,0
72641,-100,4,2,0,60,0,0
73904,-133.333333333333,4,2,0,45,0,0
78956,-100,4,2,0,60,0,0
82746,-50,4,1,0,70,0,0
82904,-50,4,2,0,10,0,0
83062,-50,4,1,0,70,0,0
83219,-50,4,2,0,10,0,0
83377,-100,4,1,0,70,0,0
84009,-76.9230769230769,4,2,0,70,0,1
93325,-76.9230769230769,4,2,0,70,0,0
93641,-76.9230769230769,4,2,0,40,0,0
93798,-76.9230769230769,4,2,0,50,0,0
93956,-76.9230769230769,4,2,0,60,0,0
94114,-76.9230769230769,4,2,0,70,0,1
104219,-100,4,2,0,60,0,0
104325,-100,4,2,0,35,0,0
106641,-100,4,2,0,40,0,0
106851,-100,4,2,0,35,0,0
109272,-100,4,2,0,40,0,0
111483,-133.333333333333,4,2,0,20,0,0
111798,-100,4,2,0,40,0,0
113812,-100,4,2,0,10,0,0
113891,-100,4,2,0,40,0,0
114048,-100,4,2,0,10,0,0
114127,-100,4,2,0,40,0,0

[Colours]
Combo1 : 124,117,255
Combo2 : 36,146,255
Combo3 : 251,237,115
Combo4 : 235,58,85

[HitObjects]
120,108,641,6,0,L|40:116,1,80,0|0,1:0|0:0,0:0:0:0:
228,204,956,2,0,L|308:196,1,80,0|0,1:0|0:0,0:0:0:0:
128,116,1272,6,0,L|48:124,1,80,0|0,1:0|0:0,0:0:0:0:
220,196,1588,2,0,L|300:188,1,80,0|0,1:0|0:0,0:0:0:0:
136,124,1904,6,0,L|56:132,1,80,0|2,1:0|2:0,0:0:0:0:
212,188,2220,1,0,1:0:0:0:
296,160,2378,1,0,0:0:0:0:
364,216,2535,2,0,L|356:295,1,80,0|2,1:0|2:0,0:0:0:0:
380,136,2851,2,0,L|396:120,6,20
364,216,3167,5,2,0:0:0:0:
323,355,3483,6,0,L|244:348,1,80,0|0,1:0|0:0,0:0:0:0:
156,148,3799,2,0,L|236:156,1,80,0|0,1:0|0:0,0:0:0:0:
312,344,4114,6,0,L|232:336,1,80,0|0,1:0|0:0,0:0:0:0:
168,160,4430,2,0,L|247:167,1,80,0|2,1:0|2:0,0:0:0:0:
300,332,4746,6,0,L|220:324,1,80,0|0,1:0|0:0,0:0:0:0:
104,172,5062,2,0,L|184:180,1,80,0|2,1:0|2:0,0:0:0:0:
256,160,5298,1,0,1:0:0:0:
256,160,5377,2,0,L|335:167,1,80,0|0,1:0|1:0,0:0:0:0:
476,180,5693,5,2,0:0:0:0:
476,180,6009,6,0,L|488:260,1,80,0|0,1:0|0:0,0:0:0:0:
340,120,6325,2,0,L|328:40,1,80,0|0,1:0|0:0,0:0:0:0:
464,172,6640,6,0,L|476:252,1,80,0|0,1:0|0:0,0:0:0:0:
328,112,6956,2,0,L|316:32,1,80,0|2,1:0|2:0,0:0:0:0:
452,164,7272,6,0,L|464:244,1,80,0|0,1:0|0:0,0:0:0:0:
316,104,7588,1,0,1:0:0:0:
240,132,7746,1,2,2:0:0:0:
176,84,7904,2,0,L|168:56,6,20
156,160,8220,5,2,0:0:0:0:
20,336,8535,6,0,L|100:331,1,80,0|0,1:0|0:0,0:0:0:0:
260,244,8851,2,0,L|179:248,1,80,0|0,1:0|0:0,0:0:0:0:
15,343,9167,6,0,L|95:338,1,80,0|0,1:0|0:0,0:0:0:0:
265,237,9483,2,0,L|184:241,1,80,0|2,1:0|2:0,0:0:0:0:
10,351,9799,6,0,L|90:346,1,80,0|0,1:0|0:0,0:0:0:0:
270,229,10114,2,0,L|189:233,1,80,0|2,1:0|2:0,0:0:0:0:
4,360,10351,1,0,0:0:0:0:
4,360,10430,6,0,L|72:356,1,53.3333333333333,0|0,1:0|0:0,0:0:0:0:
124,364,10641,2,0,L|192:360,1,53.3333333333333,0|2,1:0|3:0,0:0:0:0:
64,80,12009,6,0,B|92:152|92:152|76:236,1,160,6|0,0:0|0:0,0:0:0:0:
140,316,12483,2,0,L|160:236,1,80,2|0,0:0|0:0,0:0:0:0:
244,212,12799,1,0,0:0:0:0:
244,212,12956,2,0,P|320:236|388:200,1,160,2|0,0:0|0:0,0:0:0:0:
408,56,13430,1,2,3:0:0:0:
320,64,13588,1,0,0:0:0:0:
256,124,13746,1,0,0:0:0:0:
244,212,13904,5,2,3:0:0:0:
420,284,14062,1,0,0:0:0:0:
212,284,14220,5,2,3:0:0:0:
447,208,14378,1,0,0:0:0:0:
180,356,14535,6,0,B|128:372|64:352|56:272,1,160,0|0,1:0|0:0,0:0:0:0:
113,140,15009,2,0,P|116:179|100:216,1,80,2|0,0:0|0:0,0:0:0:0:
36,164,15325,1,0,0:0:0:0:
128,60,15483,2,0,P|196:20|272:44,1,160,2|0,0:0|0:0,0:0:0:0:
380,84,15956,2,0,L|459:76,1,80,2|0,3:0|0:0,0:0:0:0:
372,156,16272,1,0,0:0:0:0:
364,228,16430,6,0,L|284:235,1,80,2|0,3:0|0:0,0:0:0:0:
272,252,16641,1,2,0:0:0:0:
260,268,16693,1,2,0:0:0:0:
248,284,16746,2,0,L|168:291,1,80,2|0,3:0|0:0,0:0:0:0:
48,352,17062,6,0,P|12:284|28:204,1,160,4|0,0:0|0:0,0:0:0:0:
59,1,17535,2,0,P|95:71|80:148,1,160,2|0,0:0|0:0,0:0:0:0:
104,224,18009,2,0,P|144:232|188:224,1,80,2|0,0:0|0:0,0:0:0:0:
264,172,18325,1,0,0:0:0:0:
368,35,18483,2,0,P|336:58|324:96,1,80,2|0,3:0|0:0,0:0:0:0:
356,184,18799,1,0,0:0:0:0:
216,88,18956,5,2,3:0:0:0:
144,52,19114,1,2,0:0:0:0:
68,72,19272,1,2,3:0:0:0:
36,144,19430,1,2,0:0:0:0:
52,224,19588,6,0,B|120:236|120:236|150:229|150:229|209:239,1,160,4|0,0:0|0:0,0:0:0:0:
329,327,20062,2,0,B|260:315|260:315|231:322|231:322|172:312,1,160,4|0,0:0|0:0,0:0:0:0:
350,256,20535,2,0,P|408:306|388:380,1,160,4|8,0:0|0:0,0:0:0:0:
284,348,21062,5,0,1:0:0:0:
180,376,21272,1,0,1:0:0:0:
76,348,21483,1,0,1:0:0:0:
56,80,21798,6,2,L|48:44,6,20
56,80,22114,6,0,L|140:88,1,80,4|0,0:0|0:0,0:0:0:0:
275,43,22430,2,0,L|196:36,1,80,8|0,0:0|0:0,0:0:0:0:
352,20,22746,1,0,0:0:0:0:
428,52,22904,1,0,1:0:0:0:
440,132,23062,2,0,L|432:240,1,80,8|0,0:0|0:0,0:0:0:0:
228,276,23377,6,0,P|301:300|368:260,1,160,0|8,1:0|0:0,0:0:0:0:
434,211,23851,1,0,0:0:0:0:
434,211,23930,1,0,0:0:0:0:
434,211,24009,2,0,L|440:132,1,80,0|0,0:0|1:0,0:0:0:0:
492,268,24325,2,0,L|486:347,1,80,8|0,0:0|0:0,0:0:0:0:
26,347,24641,6,0,L|20:268,1,80,0|0,1:0|0:0,0:0:0:0:
154,201,24956,2,0,L|160:280,1,80,8|0,0:0|0:0,0:0:0:0:
80,172,25272,2,0,P|144:128|216:152,1,160,0|8,0:0|0:0,0:0:0:0:
292,180,25746,1,0,0:0:0:0:
292,180,25825,1,0,0:0:0:0:
292,180,25904,2,0,P|336:184|376:168,1,80,0|0,1:0|0:0,0:0:0:0:
469,40,26220,2,0,P|429:35|392:48,1,80,8|0,0:0|0:0,0:0:0:0:
436,112,26535,6,0,L|440:192,1,80,0|0,0:0|1:0,0:0:0:0:
452,208,26746,1,0,0:0:0:0:
464,224,26799,1,0,0:0:0:0:
476,236,26851,2,0,L|480:316,1,80,8|0,0:0|0:0,0:0:0:0:
304,344,27167,5,4,0:0:0:0:
244,288,27325,1,0,0:0:0:0:
172,320,27483,2,0,P|146:349|140:388,1,80,8|0,0:0|0:0,0:0:0:0:
248,204,27799,6,0,P|286:211|322:197,1,80,0|0,0:0|1:0,0:0:0:0:
112,192,28114,6,0,P|99:155|69:130,1,80,8|0,0:0|0:0,0:0:0:0:
64,48,28430,6,0,B|144:60|144:60|220:32,1,160,0|8,1:0|0:0,0:0:0:0:
300,20,28904,1,0,0:0:0:0:
300,20,28983,1,0,0:0:0:0:
300,20,29062,5,0,0:0:0:0:
436,16,29220,1,0,1:0:0:0:
444,152,29378,1,8,0:0:0:0:
308,168,29535,1,0,0:0:0:0:
180,184,29693,6,0,L|100:192,1,80,0|0,1:0|0:0,0:0:0:0:
72,184,29930,1,0,0:0:0:0:
44,192,30009,2,0,L|28:224,3,26.6666666666667,8|0|0|0,0:0|0:0|0:0|0:0,0:0:0:0:
96,356,30325,1,0,0:0:0:0:
216,340,30483,1,0,1:0:0:0:
336,324,30641,6,0,P|384:248|368:184,1,160,8|0,0:0|1:0,0:0:0:0:
176,40,31114,1,0,0:0:0:0:
240,84,31272,1,8,0:0:0:0:
320,92,31430,1,8,0:0:0:0:
396,64,31588,5,0,1:0:0:0:
360,48,31667,1,0,0:0:0:0:
320,44,31746,1,8,0:0:0:0:
280,56,31825,1,0,0:0:0:0:
256,88,31904,1,8,3:0:0:0:
224,112,31983,1,0,0:0:0:0:
184,116,32062,1,8,0:0:0:0:
148,100,32141,1,0,0:0:0:0:
124,68,32219,6,0,B|192:52|192:52|144:52|112:16,1,160,4|8,0:0|0:0,0:0:0:0:
403,124,32693,1,2,0:0:0:0:
392,176,32851,6,0,B|324:160|324:160|372:160|404:124,1,160,0|8,0:0|0:0,0:0:0:0:
64,228,33325,1,2,0:0:0:0:
76,280,33483,6,0,B|144:264|144:264|96:264|64:228,1,160,0|8,1:0|0:0,0:0:0:0:
447,288,33956,1,2,0:0:0:0:
436,340,34114,6,0,B|368:324|368:324|416:324|448:288,1,160,0|8,0:0|0:0,0:0:0:0:
460,208,34588,5,2,0:0:0:0:
460,208,34667,1,0,0:0:0:0:
460,208,34746,2,0,L|464:128,1,80,0|0,1:0|0:0,0:0:0:0:
412,68,35062,1,8,0:0:0:0:
228,84,35220,2,0,L|266:73,1,40
192,152,35378,2,0,P|116:160|56:108,1,160,0|8,0:0|0:0,0:0:0:0:
108,28,35851,5,0,0:0:0:0:
136,48,35930,1,0,0:0:0:0:
172,56,36009,1,0,1:0:0:0:
208,48,36088,1,0,0:0:0:0:
232,24,36167,1,0,0:0:0:0:
268,16,36246,1,0,0:0:0:0:
296,20,36325,2,0,L|304:64,1,40,8|0,0:0|0:0,0:0:0:0:
360,100,36483,2,0,L|368:144,1,40
412,192,36641,5,0,0:0:0:0:
400,216,36719,1,0,0:0:0:0:
376,232,36798,1,0,1:0:0:0:
348,240,36877,1,0,0:0:0:0:
320,232,36956,1,8,0:0:0:0:
296,220,37035,1,0,0:0:0:0:
268,216,37114,1,0,0:0:0:0:
240,224,37193,1,0,0:0:0:0:
220,244,37272,6,0,L|60:256,1,160,4|8,0:0|0:0,0:0:0:0:
16,368,37746,1,0,0:0:0:0:
136,360,37904,2,0,L|216:354,1,80,0|0,0:0|1:0,0:0:0:0:
336,360,38220,2,0,P|356:324|352:284,1,80,8|0,0:0|0:0,0:0:0:0:
456,48,38535,1,0,1:0:0:0:
480,124,38693,1,0,0:0:0:0:
428,188,38851,2,0,P|388:192|344:176,1,80,8|0,0:0|0:0,0:0:0:0:
108,111,39167,2,0,P|174:71|248:96,1,160,0|8,0:0|0:0,0:0:0:0:
352,180,39641,1,0,0:0:0:0:
352,180,39719,1,0,0:0:0:0:
352,180,39799,6,0,L|360:264,1,80,0|0,1:0|0:0,0:0:0:0:
256,348,40114,1,8,0:0:0:0:
152,259,40272,1,0,0:0:0:0:
152,259,40351,1,0,0:0:0:0:
152,259,40430,2,0,L|160:180,1,80,0|0,0:0|1:0,0:0:0:0:
112,80,40746,1,8,0:0:0:0:
256,48,40904,1,0,0:0:0:0:
400,80,41062,6,0,P|440:76|480:92,1,80,0|2,1:0|0:0,0:0:0:0:
488,108,41299,2,0,L|480:152,1,40,2|10,0:0|0:0,0:0:0:0:
400,308,41535,1,0,0:0:0:0:
404,288,41614,1,0,0:0:0:0:
408,268,41693,1,2,0:0:0:0:
412,248,41772,1,2,0:0:0:0:
416,228,41851,1,0,1:0:0:0:
268,188,42009,2,0,L|276:236,1,40,8|0,0:0|0:0,0:0:0:0:
160,328,42167,2,0,L|176:284,1,40
96,236,42325,6,0,B|8:248|8:248|40:280,1,120,4|0,0:0|0:0,0:0:0:0:
48,284,42641,1,8,0:0:0:0:
196,100,42799,1,2,0:0:0:0:
244,148,42956,6,0,B|156:136|156:136|188:104,1,120
196,100,43272,1,8,0:0:0:0:
284,384,43430,1,2,0:0:0:0:
336,336,43588,6,0,B|248:348|248:348|280:380,1,120,0|0,1:0|0:0,0:0:0:0:
284,384,43904,1,8,0:0:0:0:
420,8,44062,1,2,0:0:0:0:
468,60,44220,6,0,B|380:48|380:48|412:16,1,120
420,8,44536,1,8,0:0:0:0:
436,140,44693,1,2,0:0:0:0:
436,140,44772,1,0,0:0:0:0:
436,140,44851,2,0,L|428:220,1,80,0|0,1:0|0:0,0:0:0:0:
212,360,45167,2,0,L|220:280,1,80,8|0,0:0|0:0,0:0:0:0:
248,276,45404,1,0,0:0:0:0:
276,272,45483,1,0,0:0:0:0:
80,264,45641,1,0,1:0:0:0:
80,264,45799,2,0,L|0:260,1,80,8|0,0:0|0:0,0:0:0:0:
24,240,46035,5,0,0:0:0:0:
40,212,46114,1,0,1:0:0:0:
52,180,46193,1,0,0:0:0:0:
48,148,46272,1,0,0:0:0:0:
32,120,46351,1,0,0:0:0:0:
8,96,46430,6,0,L|52:100,1,40,8|0,0:0|0:0,0:0:0:0:
159,51,46588,2,0,L|120:48,1,40,0|0,0:0|0:0,0:0:0:0:
248,136,46746,6,0,L|244:192,1,53.3333333333333,0|0,0:0|1:0,0:0:0:0:
236,264,46956,1,0,1:0:0:0:
428,312,47062,1,8,0:0:0:0:
428,312,47168,2,0,L|431:258,1,53.3333333333333,8|8,0:0|0:0,0:0:0:0:
436,188,47377,1,0,1:0:0:0:
108,352,47535,6,0,L|81:382,3,40,0|0|0|0,1:0|1:0|1:0|0:0,0:0:0:0:
164,268,47693,6,0,L|147:215,5,53.3333333333333,0|0|0|0|0|0,1:0|1:0|1:0|0:0|0:0|0:0,0:0:0:0:
208,356,48009,6,0,L|248:364,2,40,0|0|0,1:0|1:0|1:0,0:0:0:0:
212,328,48246,1,0,0:0:0:0:
216,300,48325,6,0,B|228:256|216:220|216:220|204:184|216:140,1,160,12|0,0:0|1:0,0:0:0:0:
304,16,48799,2,0,P|316:52|304:92,1,80,0|8,0:0|0:0,0:0:0:0:
456,320,49114,2,0,L|500:328,2,40
436,300,49351,1,0,0:0:0:0:
420,280,49430,1,0,1:0:0:0:
308,204,49588,2,0,B|264:208|264:208|236:224|236:224|192:228,1,120,8|0,0:0|0:0,0:0:0:0:
184,244,49904,6,0,L|168:160,1,80,0|0,1:0|0:0,0:0:0:0:
460,48,50220,2,0,L|472:128,1,80,8|0,0:0|0:0,0:0:0:0:
40,128,50535,6,0,L|52:48,1,80,0|0,0:0|1:0,0:0:0:0:
342,165,50851,2,0,L|328:244,1,80,8|0,0:0|0:0,0:0:0:0:
260,336,51167,5,0,1:0:0:0:
232,340,51246,1,0,0:0:0:0:
204,344,51325,1,0,0:0:0:0:
176,348,51404,1,0,0:0:0:0:
144,324,51483,5,8,0:0:0:0:
116,328,51562,1,0,0:0:0:0:
88,332,51641,1,0,0:0:0:0:
60,336,51720,1,0,0:0:0:0:
36,324,51799,5,0,0:0:0:0:
12,292,51878,1,0,0:0:0:0:
8,252,51956,1,0,1:0:0:0:
20,216,52035,1,0,0:0:0:0:
52,192,52114,6,0,L|96:196,1,40,10|2,1:0|1:0,1:0:0:0:
243,51,52272,2,0,L|204:48,1,40,8|0,0:0|0:0,0:0:0:0:
460,168,52430,6,0,B|448:176|448:176|440:164|440:164|432:180|432:180|424:160|424:160|416:172|416:172|376:184|336:168,1,155.999992858887,4|0,0:0|0:0,0:0:0:0:
320,148,52746,1,8,0:0:0:0:
88,60,52904,2,0,B|112:44|112:44|172:44,1,80,4|0,0:0|0:0,0:0:0:0:
340,52,53220,2,0,B|316:68|316:68|256:68,1,80,8|0,0:0|1:0,0:0:0:0:
88,60,53535,1,8,0:0:0:0:
132,188,53693,6,0,L|136:228,1,40,0|0,1:0|0:0,0:0:0:0:
88,204,53851,1,0,0:0:0:0:
44,200,53930,1,0,0:0:0:0:
8,172,54009,1,8,0:0:0:0:
176,352,54167,1,0,1:0:0:0:
212,332,54246,1,0,0:0:0:0:
252,328,54325,1,0,0:0:0:0:
292,340,54404,1,0,0:0:0:0:
320,368,54483,1,8,0:0:0:0:
452,304,54641,2,0,L|440:360,1,51.999997619629
433,210,54799,2,0,L|444:160,1,51.999997619629,8|0,0:0|0:0,0:0:0:0:
419,75,54956,6,0,P|344:52|280:92,1,160,0|8,1:0|0:0,0:0:0:0:
144,356,55430,2,0,P|136:316|144:277,1,80,0|0,1:0|0:0,0:0:0:0:
32,40,55746,2,0,P|40:79|32:119,1,80,8|0,0:0|1:0,0:0:0:0:
92,224,56062,5,8,0:0:0:0:
120,244,56141,1,0,0:0:0:0:
156,248,56220,1,0,1:0:0:0:
192,240,56299,1,0,0:0:0:0:
220,216,56378,1,0,0:0:0:0:
236,184,56456,1,0,0:0:0:0:
240,148,56535,1,8,0:0:0:0:
260,116,56614,1,0,0:0:0:0:
296,108,56693,1,0,1:0:0:0:
324,128,56772,1,0,0:0:0:0:
332,164,56851,1,0,0:0:0:0:
352,192,56930,1,0,0:0:0:0:
388,208,57009,1,8,0:0:0:0:
428,204,57088,1,0,0:0:0:0:
452,168,57167,5,8,0:0:0:0:
444,216,57246,1,0,0:0:0:0:
436,264,57325,1,8,0:0:0:0:
428,312,57404,1,0,0:0:0:0:
420,360,57483,6,0,B|412:368|412:368|404:360|404:360|396:376|396:376|384:360|384:360|376:380|376:380|368:372|368:372|336:388|304:376,1,155.999992858887,4|0,0:0|0:0,0:0:0:0:
276,360,57799,1,8,0:0:0:0:
24,248,57956,1,4,0:0:0:0:
48,272,58035,2,0,L|132:260,1,80
140,232,58272,1,8,0:0:0:0:
416,128,58430,1,0,1:0:0:0:
384,120,58509,1,0,0:0:0:0:
352,112,58588,1,8,0:0:0:0:
88,76,58746,6,0,B|129:60|129:60|157:67|157:67|202:51,1,120,0|0,1:0|0:0,0:0:0:0:
220,32,59062,1,8,0:0:0:0:
132,136,59220,6,0,B|90:151|90:151|62:144|62:144|17:160,1,120,0|0,1:0|0:0,0:0:0:0:
0,180,59536,1,8,0:0:0:0:
72,276,59693,1,0,0:0:0:0:
84,292,59772,1,0,0:0:0:0:
96,308,59851,1,8,0:0:0:0:
108,324,59930,1,0,0:0:0:0:
120,340,60009,6,0,L|240:340,1,120,0|0,1:0|0:0,0:0:0:0:
256,324,60325,1,8,0:0:0:0:
452,136,60483,2,0,P|412:128|376:144,1,80,0|0,1:0|0:0,0:0:0:0:
392,280,60799,2,0,P|432:288|468:272,1,80,8|0,0:0|0:0,0:0:0:0:
424,208,61114,1,8,0:0:0:0:
128,164,61272,5,0,1:0:0:0:
24,184,61430,1,0,0:0:0:0:
184,64,61588,5,8,0:0:0:0:
288,44,61746,1,0,1:0:0:0:
468,192,61904,5,0,0:0:0:0:
480,234,61983,1,0,0:0:0:0:
465,275,62062,1,8,0:0:0:0:
428,300,62141,1,0,0:0:0:0:
384,298,62220,1,8,0:0:0:0:
349,271,62299,1,0,0:0:0:0:
337,229,62378,1,8,0:0:0:0:
352,187,62456,1,0,0:0:0:0:
389,163,62535,1,4,0:0:0:0:
408,232,63009,5,4,0:0:0:0:
104,152,64430,5,0,1:0:0:0:
95,77,64588,2,0,P|88:115|103:151,1,80,8|0,0:0|0:0,0:0:0:0:
168,282,64904,2,0,P|175:244|160:208,1,80,8|4,0:0|0:0,0:0:0:0:
160,208,65535,5,4,0:0:0:0:
320,80,66641,5,0,1:0:0:0:
340,84,66693,1,0,1:0:0:0:
360,88,66746,1,0,1:0:0:0:
380,92,66799,1,0,1:0:0:0:
400,96,66851,1,0,1:0:0:0:
420,100,66904,1,0,1:0:0:0:
440,104,66956,6,0,L|436:64,3,40
488,168,67272,2,0,L|493:223,2,53.3333333333333,0|0|0,0:0|0:0|0:0,0:0:0:0:
376,216,67588,6,0,L|368:296,1,80,4|0,0:0|0:0,0:0:0:0:
380,312,67825,1,0,0:0:0:0:
392,328,67904,1,0,0:0:0:0:
232,320,68062,1,4,0:0:0:0:
212,300,68141,2,0,B|172:296|172:296|132:308,1,80
112,328,68378,1,0,0:0:0:0:
40,196,68535,1,0,0:0:0:0:
64,180,68614,2,0,L|76:100,1,80
64,84,68851,6,0,L|0:88,1,53.3333333333333
136,40,69062,2,0,L|200:44,1,53.3333333333333
204,32,69246,1,0,0:0:0:0:
220,20,69325,1,0,0:0:0:0:
352,24,69483,2,0,L|360:76,1,53.3333333333333
404,132,69693,2,0,L|412:184,1,53.3333333333333
452,240,69904,2,0,L|460:292,1,53.3333333333333
400,328,70114,6,0,B|360:344|360:344|312:304|252:324,1,155.999992858887,4|0,0:0|0:0,0:0:0:0:
228,336,70430,1,0,0:0:0:0:
0,208,70588,2,0,P|78:220|156:204,1,160,4|0,0:0|0:0,0:0:0:0:
248,140,71062,1,0,0:0:0:0:
268,120,71141,2,0,L|264:80,1,40
280,56,71298,2,0,L|276:16,1,40
244,216,71535,6,0,L|292:228,1,40
328,276,71693,1,2,0:0:0:0:
104,212,71851,6,0,L|56:200,1,40
20,152,72009,1,2,0:0:0:0:
60,32,72167,5,0,0:0:0:0:
60,32,72246,1,0,0:0:0:0:
60,32,72325,1,0,0:0:0:0:
60,32,72404,1,0,0:0:0:0:
60,32,72483,1,0,0:0:0:0:
60,32,72562,1,0,0:0:0:0:
60,32,72641,5,8,0:0:0:0:
299,128,72851,1,0,1:0:0:0:
95,287,73062,1,0,1:0:0:0:
207,10,73272,5,0,1:0:0:0:
242,266,73483,1,0,0:0:0:0:
3,170,73693,1,0,0:0:0:0:
152,148,73904,6,0,L|128:208,1,60.0000022888184,6|0,0:0|0:0,0:0:0:0:
160,276,74220,1,8,0:0:0:0:
368,300,74377,1,2,0:0:0:0:
344,332,74456,1,0,0:0:0:0:
308,348,74535,1,0,0:0:0:0:
268,344,74614,1,0,0:0:0:0:
232,324,74693,1,8,0:0:0:0:
328,164,74851,2,0,L|388:168,1,60.0000022888184,2|0,0:0|0:0,0:0:0:0:
408,180,75088,1,0,0:0:0:0:
428,192,75167,6,0,L|488:196,1,60.0000022888184,0|0,1:0|0:0,0:0:0:0:
296,64,75483,2,0,L|236:68,1,60.0000022888184,8|0,0:0|1:0,0:0:0:0:
208,56,75719,1,0,0:0:0:0:
176,56,75798,1,2,0:0:0:0:
148,68,75877,1,0,0:0:0:0:
132,92,75956,1,10,0:0:0:0:
64,204,76114,2,0,L|56:176,1,30.0000011444092,2|0,0:0|0:0,0:0:0:0:
40,280,76272,2,0,L|48:308,1,30.0000011444092,10|0,0:0|0:0,0:0:0:0:
120,356,76430,6,0,L|184:352,1,60.0000022888184,2|0,0:0|0:0,0:0:0:0:
192,336,76667,1,0,0:0:0:0:
204,320,76746,1,8,0:0:0:0:
312,204,76904,1,2,0:0:0:0:
320,224,76983,1,0,0:0:0:0:
328,244,77062,2,0,L|392:252,1,60.0000022888184,0|8,0:0|0:0,0:0:0:0:
408,240,77298,1,0,0:0:0:0:
428,232,77377,2,0,L|492:240,1,60.0000022888184,2|0,0:0|0:0,0:0:0:0:
420,20,77693,5,0,1:0:0:0:
404,52,77772,2,0,P|376:68|348:68,1,60.0000022888184
316,56,78009,1,0,0:0:0:0:
284,40,78088,1,0,0:0:0:0:
248,36,78167,1,0,1:0:0:0:
212,44,78246,1,0,0:0:0:0:
184,68,78325,1,2,0:0:0:0:
172,108,78404,1,0,0:0:0:0:
176,152,78483,1,2,0:0:0:0:
204,188,78562,1,0,0:0:0:0:
248,204,78641,1,2,0:0:0:0:
292,192,78719,1,0,0:0:0:0:
324,160,78798,1,2,0:0:0:0:
332,116,78877,1,0,0:0:0:0:
324,72,78956,6,0,L|312:-8,1,80,6|0,0:0|0:0,0:0:0:0:
384,128,79272,1,8,0:0:0:0:
240,120,79430,6,0,L|228:40,1,80,2|0,0:0|0:0,0:0:0:0:
300,176,79746,1,8,0:0:0:0:
156,168,79904,6,0,L|144:88,1,80,2|0,0:0|0:0,0:0:0:0:
216,224,80219,6,0,L|228:304,1,80,0|0,1:0|0:0,0:0:0:0:
208,324,80456,1,0,0:0:0:0:
188,344,80535,1,8,0:0:0:0:
336,304,80693,1,0,1:0:0:0:
360,280,80772,1,0,0:0:0:0:
392,260,80851,1,2,0:0:0:0:
428,256,80930,1,0,0:0:0:0:
464,264,81009,1,2,0:0:0:0:
496,284,81088,1,0,0:0:0:0:
484,236,81167,5,2,0:0:0:0:
500,192,81246,1,0,0:0:0:0:
480,148,81325,1,2,0:0:0:0:
500,104,81404,1,0,0:0:0:0:
484,60,81483,6,0,L|400:68,1,80,2|0,0:0|0:0,0:0:0:0:
348,8,81798,1,8,0:0:0:0:
104,192,81956,6,0,L|188:200,1,80,2|0,0:0|0:0,0:0:0:0:
240,140,82271,1,8,0:0:0:0:
380,352,82430,6,0,L|296:360,1,80,2|0,0:0|0:0,0:0:0:0:
460,304,82746,6,0,B|448:288|448:288|468:280|468:280|456:268|456:268|472:260|472:260|464:252|464:252|484:220|460:184,1,160,4|0,0:0|0:0,0:0:0:0:
52,80,83062,6,0,B|64:96|64:96|44:104|44:104|56:116|56:116|40:124|40:124|48:132|48:132|28:164|52:200,1,160,4|0,0:0|0:0,0:0:0:0:
20,316,83377,5,0,0:0:0:0:
64,328,83456,1,0,0:0:0:0:
108,324,83535,1,0,0:0:0:0:
148,304,83614,1,0,0:0:0:0:
176,268,83693,1,0,0:0:0:0:
204,236,83772,1,0,0:0:0:0:
244,216,83851,1,0,0:0:0:0:
288,212,83930,1,0,0:0:0:0:
332,224,84009,6,0,L|324:328,1,103.999995239258,4|0,0:0|1:0,0:0:0:0:
412,368,84325,1,8,0:0:0:0:
80,116,84483,6,0,L|88:220,1,103.999995239258,4|0,0:0|0:0,0:0:0:0:
0,260,84799,1,8,0:0:0:0:
444,12,84956,6,0,L|436:116,1,103.999995239258,4|0,0:0|1:0,0:0:0:0:
460,136,85193,1,0,0:0:0:0:
484,156,85272,1,0,1:0:0:0:
320,88,85430,1,0,0:0:0:0:
284,80,85509,1,0,0:0:0:0:
248,88,85588,1,8,0:0:0:0:
216,108,85667,1,0,0:0:0:0:
204,144,85746,1,0,1:0:0:0:
156,356,85904,6,0,L|148:304,1,51.999997619629
80,208,86062,2,0,L|88:260,1,51.999997619629,8|0,0:0|0:0,0:0:0:0:
140,168,86219,1,8,0:0:0:0:
108,140,86298,1,0,0:0:0:0:
68,136,86377,1,0,1:0:0:0:
32,152,86456,1,0,0:0:0:0:
12,188,86535,6,0,P|-4:240|12:288,1,103.999995239258,0|0,1:0|0:0,0:0:0:0:
156,356,86851,1,8,0:0:0:0:
220,104,87009,6,0,P|236:52|220:4,1,103.999995239258,0|0,1:0|0:0,0:0:0:0:
32,48,87325,1,8,0:0:0:0:
300,184,87483,6,0,L|356:176,1,51.999997619629,0|0,1:0|0:0,0:0:0:0:
439,240,87641,2,0,L|388:248,1,51.999997619629,0|0,0:0|0:0,0:0:0:0:
484,156,87798,1,0,1:0:0:0:
360,356,87956,5,0,0:0:0:0:
320,364,88035,1,0,0:0:0:0:
280,364,88114,1,8,0:0:0:0:
240,348,88193,1,0,0:0:0:0:
216,316,88272,1,0,1:0:0:0:
200,272,88351,1,0,0:0:0:0:
164,244,88430,1,0,0:0:0:0:
116,248,88509,1,0,0:0:0:0:
84,284,88588,1,8,0:0:0:0:
92,332,88667,1,0,0:0:0:0:
132,360,88746,6,0,L|144:308,1,51.999997619629,8|0,0:0|0:0,0:0:0:0:
232,196,88904,2,0,L|244:144,1,51.999997619629,0|0,1:0|0:0,0:0:0:0:
304,44,89062,6,0,P|412:36|512:44,1,207.999990478516,4|10,0:0|1:0,0:0:0:0:
216,72,89535,2,0,P|112:80|8:72,1,207.999990478516,4|10,0:0|1:0,0:0:0:0:
8,168,90009,5,4,0:0:0:0:
12,192,90088,1,0,0:0:0:0:
16,216,90167,1,0,1:0:0:0:
20,240,90246,1,0,0:0:0:0:
24,264,90325,1,0,1:0:0:0:
108,312,90483,2,0,L|164:316,1,51.999997619629
180,332,90641,1,8,0:0:0:0:
356,272,90798,2,0,L|300:268,1,51.999997619629,0|0,1:0|0:0,0:0:0:0:
284,252,90956,5,0,0:0:0:0:
320,188,91114,1,8,0:0:0:0:
384,156,91272,1,8,0:0:0:0:
456,168,91430,1,0,0:0:0:0:
512,216,91588,6,0,B|536:272|512:324|512:324|464:312|416:332,1,207.999990478516,0|8,1:0|0:0,0:0:0:0:
348,360,92062,2,0,P|248:384|148:356,1,207.999990478516,0|8,1:0|0:0,0:0:0:0:
112,292,92535,1,0,0:0:0:0:
156,176,92693,1,0,0:0:0:0:
104,64,92851,6,0,P|52:60|4:76,1,103.999995239258,0|0,1:0|0:0,0:0:0:0:
184,88,93167,2,0,P|236:92|284:76,1,103.999995239258,8|0,0:0|1:0,0:0:0:0:
396,16,93483,1,0,0:0:0:0:
496,88,93641,1,8,0:0:0:0:
492,112,93719,1,0,0:0:0:0:
488,136,93798,1,8,0:0:0:0:
484,160,93877,1,0,0:0:0:0:
480,184,93956,1,8,0:0:0:0:
476,208,94035,1,0,0:0:0:0:
472,232,94114,6,0,P|424:252|376:240,1,103.999995239258,4|0,0:0|0:0,0:0:0:0:
420,168,94430,1,8,0:0:0:0:
113,359,94588,6,0,P|120:307|154:271,1,103.999995239258,4|0,0:0|0:0,0:0:0:0:
196,344,94904,1,8,0:0:0:0:
184,4,95062,6,0,P|225:35|240:84,1,103.999995239258,4|0,0:0|0:0,0:0:0:0:
200,140,95298,1,0,0:0:0:0:
200,140,95377,1,0,1:0:0:0:
0,224,95535,1,0,0:0:0:0:
32,216,95614,1,0,0:0:0:0:
64,208,95693,1,8,0:0:0:0:
96,200,95772,1,0,0:0:0:0:
128,192,95851,1,0,1:0:0:0:
228,236,96009,6,0,L|216:292,1,51.999997619629
316,356,96167,2,0,L|304:304,1,51.999997619629,8|0,0:0|0:0,0:0:0:0:
340,240,96325,1,8,0:0:0:0:
368,204,96404,1,0,0:0:0:0:
412,184,96483,1,0,0:0:0:0:
460,188,96562,1,0,0:0:0:0:
500,208,96641,6,0,L|524:312,1,103.999995239258,0|0,1:0|0:0,0:0:0:0:
512,184,96956,1,8,0:0:0:0:
68,136,97114,6,0,L|44:240,1,103.999995239258,0|0,1:0|0:0,0:0:0:0:
52,112,97429,1,8,0:0:0:0:
468,0,97588,6,0,P|492:44|484:96,1,103.999995239258,0|0,1:0|0:0,0:0:0:0:
416,92,97825,2,0,L|360:100,1,51.999997619629,0|0,0:0|1:0,0:0:0:0:
76,40,98062,5,0,0:0:0:0:
108,12,98141,1,0,0:0:0:0:
148,4,98219,1,8,0:0:0:0:
188,12,98298,1,0,0:0:0:0:
220,40,98377,1,0,1:0:0:0:
236,80,98456,1,0,0:0:0:0:
232,120,98535,1,0,0:0:0:0:
212,156,98614,1,0,0:0:0:0:
176,176,98693,1,8,0:0:0:0:
136,180,98772,1,0,0:0:0:0:
96,168,98851,6,0,L|36:180,1,51.999997619629,8|0,0:0|0:0,0:0:0:0:
264,304,99009,2,0,L|324:316,1,51.999997619629,0|0,1:0|0:0,0:0:0:0:
396,336,99167,6,0,B|456:276|424:196|424:196|376:228,1,207.999990478516,4|8,0:0|0:0,0:0:0:0:
380,28,99641,2,0,B|320:88|352:168|352:168|398:137,1,207.999990478516,4|8,0:0|0:0,0:0:0:0:
272,76,100114,5,4,0:0:0:0:
240,60,100193,1,0,0:0:0:0:
204,60,100272,1,0,0:0:0:0:
172,72,100351,1,0,0:0:0:0:
148,100,100430,1,0,1:0:0:0:
12,204,100588,6,0,L|16:256,1,51.999997619629
36,272,100746,1,8,0:0:0:0:
208,364,100904,2,0,L|204:312,1,51.999997619629,0|0,1:0|0:0,0:0:0:0:
184,296,101062,5,0,0:0:0:0:
252,272,101219,1,8,0:0:0:0:
320,296,101377,1,8,0:0:0:0:
388,272,101535,1,0,0:0:0:0:
456,296,101693,6,0,B|504:252|480:184|480:184|392:176,1,207.999990478516,0|8,1:0|0:0,0:0:0:0:
320,172,102167,2,0,B|264:184|216:160|216:160|244:112|300:104,1,207.999990478516,0|8,1:0|0:0,0:0:0:0:
368,88,102641,1,0,0:0:0:0:
124,48,102798,5,0,1:0:0:0:
108,68,102877,1,0,0:0:0:0:
92,88,102956,2,0,P|40:80|-12:84,1,103.999995239258,0|0,1:0|0:0,0:0:0:0:
64,252,103272,2,0,P|116:260|168:256,1,103.999995239258,8|0,0:0|1:0,0:0:0:0:
224,208,103588,5,0,0:0:0:0:
296,192,103746,1,8,0:0:0:0:
368,212,103904,1,8,0:0:0:0:
412,268,104062,1,8,0:0:0:0:
416,344,104219,5,4,0:0:0:0:
338,289,104430,1,0,0:0:0:0:
345,195,104641,1,0,0:0:0:0:
431,156,104851,1,0,0:0:0:0:
508,210,105062,1,0,0:0:0:0:
499,303,105272,1,0,0:0:0:0:
424,248,105483,5,0,0:0:0:0:
431,156,105693,1,0,0:0:0:0:
508,210,105904,1,0,0:0:0:0:
500,304,106114,5,0,0:0:0:0:
345,195,106325,1,0,0:0:0:0:
512,116,106535,1,0,0:0:0:0:
328,376,106746,5,2,0:0:0:0:
112,24,106956,5,0,0:0:0:0:
34,79,107167,1,0,0:0:0:0:
41,173,107378,1,0,0:0:0:0:
127,212,107588,1,0,0:0:0:0:
204,158,107799,1,0,0:0:0:0:
120,120,108009,5,0,0:0:0:0:
127,212,108219,1,0,0:0:0:0:
204,158,108430,1,0,0:0:0:0:
196,64,108640,5,0,0:0:0:0:
41,173,108851,1,0,0:0:0:0:
208,252,109062,1,0,0:0:0:0:
456,36,109272,6,0,L|372:40,1,80,0|0,1:0|0:0,0:0:0:0:
204,119,109588,2,0,L|284:116,1,80,0|0,1:0|0:0,0:0:0:0:
460,44,109904,6,0,L|380:47,1,80,0|0,1:0|0:0,0:0:0:0:
200,128,110219,2,0,L|279:124,1,80,0|0,1:0|0:0,0:0:0:0:
464,52,110535,6,0,L|384:55,1,80,0|2,1:0|0:0,0:0:0:0:
304,144,110851,2,0,P|296:184|308:220,1,80,0|0,1:0|0:0,0:0:0:0:
164,344,111167,2,0,P|172:304|160:268,1,80,0|2,1:0|0:0,0:0:0:0:
16,164,111483,2,0,L|-12:168,6,15.0000005722046
96,148,111798,5,2,0:0:0:0:
232,36,112114,6,0,L|240:116,1,80,0|0,1:0|0:0,0:0:0:0:
312,296,112430,2,0,L|304:216,1,80,0|0,1:0|0:0,0:0:0:0:
244,28,112746,6,0,L|252:108,1,80,0|0,1:0|0:0,0:0:0:0:
324,304,113062,2,0,L|316:224,1,80,0|2,1:0|0:0,0:0:0:0:
256,20,113377,6,0,L|264:100,1,80,0|0,1:0|0:0,0:0:0:0:
268,260,113693,2,0,B|291:223|336:221,1,80,0|2,1:0|0:0,0:0:0:0:
402,219,113930,2,0,B|444:224|474:257,1,80,0|0,1:0|0:0,0:0:0:0:
506,316,114167,1,2,1:3:0:0:
