osu file format v14

[General]
AudioFilename: nightbird lost wing.mp3
AudioLeadIn: 0
PreviewTime: 75002
Countdown: 0
SampleSet: Soft
StackLeniency: 0.7
Mode: 0
LetterboxInBreaks: 1
WidescreenStoryboard: 1

[Editor]
DistanceSpacing: 1
BeatDivisor: 4
GridSize: 4
TimelineZoom: 2.599999

[Metadata]
Title:nightbird lost wing
TitleUnicode:nightbird lost wing
Artist:Nekomata Master+
ArtistUnicode:猫叉Master+
Creator:captin1
Version:Normal
Source:DanceDanceRevolution
Tags:apaffy trust hootowlstar reflec beat colette dance dance revolution -Autumn- plus naoyuki sato
BeatmapID:628031
BeatmapSetID:241892

[Difficulty]
HPDrainRate:3
CircleSize:3
OverallDifficulty:3
ApproachRate:4
SliderMultiplier:0.999999999999999
SliderTickRate:1

[Events]
//Background and Video events
0,0,"bg.png",0,0
//Break Periods
//Storyboard Layer 0 (Background)
//Storyboard Layer 1 (Fail)
//Storyboard Layer 2 (Pass)
//Storyboard Layer 3 (Foreground)
//Storyboard Sound Samples

[TimingPoints]
555,315.789473684211,4,2,2,60,1,0
3081,315.789473684211,4,2,2,60,1,0
13186,-100,4,2,3,70,0,0
19502,-100,4,2,3,80,0,0
20765,-100,4,2,3,90,0,0
21397,-100,4,2,3,100,0,0
22976,-100,4,2,3,60,0,0
23291,-100,4,2,3,70,0,0
33318,-100,4,2,3,50,0,0
33397,-100,4,2,3,70,0,0
43502,-100,4,2,3,80,0,0
54555,-100,4,2,3,60,0,0
56133,-100,4,2,3,80,0,0
57081,-100,4,2,3,60,0,0
58028,-100,4,1,1,40,0,0
58344,-100,4,1,1,60,0,0
58660,-100,4,2,3,80,0,0
59607,-100,4,2,3,60,0,0
61186,-100,4,2,3,80,0,0
64976,-100,4,2,3,70,0,0
72555,-100,4,2,3,80,0,0
73818,-100,4,2,3,50,0,0
75081,-100,4,2,4,80,0,1
95291,-100,4,2,3,70,0,0

[Colours]
Combo1 : 154,53,255
Combo2 : 250,155,69
Combo3 : 36,135,255
Combo4 : 255,94,94

[HitObjects]
68,175,3081,6,0,P|137:224|206:206,1,150,4|0,1:2|1:0,0:0:0:0:
256,131,3870,1,8,0:0:0:0:
495,99,4976,1,2,0:0:0:0:
444,292,5607,6,0,P|375:341|306:323,1,150,0|0,1:0|1:0,0:0:0:0:
256,248,6397,2,0,P|203:233|116:284,1,150,8|2,0:0|0:0,0:0:0:0:
29,96,7502,2,0,L|35:204,1,99.9999999999999,8|8,0:3|0:3,0:0:0:0:
68,290,8133,6,0,P|137:339|206:321,1,150,0|0,1:0|1:0,0:0:0:0:
256,246,8923,1,8,0:0:0:0:
444,94,10660,6,0,P|375:45|306:63,1,150,0|0,1:0|1:0,0:0:0:0:
256,138,11449,1,8,0:0:0:0:
336,264,11923,6,0,P|255:315|173:255,1,200,0|0,1:0|0:0,0:0:0:0:
160,165,12870,1,8,0:3:0:0:
256,138,13186,6,0,L|361:147,1,99.9999999999999,6|8,1:2|0:0,0:0:0:0:
455,136,13818,2,0,L|464:241,1,99.9999999999999,0|8,0:0|0:0,0:0:0:0:
403,315,14449,2,0,P|365:345|220:303,1,200,0|2,0:0|0:0,0:0:0:0:
185,224,15397,1,8,0:0:0:0:
88,249,15712,6,0,P|79:188|79:137,1,99.9999999999999,2|8,1:2|0:0,0:0:0:0:
107,53,16344,2,0,P|167:67|217:71,1,99.9999999999999,2|8,0:0|0:0,0:0:0:0:
306,71,16976,2,0,P|356:65|405:53,1,99.9999999999999,2|8,0:0|0:0,0:0:0:0:
433,149,17607,2,0,P|431:199|424:249,1,99.9999999999999,2|8,0:0|0:0,0:0:0:0:
380,273,18081,1,0,0:0:0:0:
380,273,18239,6,0,P|348:229|340:174,2,99.9999999999999,6|8|0,1:2|0:0|0:0,0:0:0:0:
464,327,19186,1,8,0:0:0:0:
505,236,19502,2,0,L|495:132,1,99.9999999999999,0|8,0:0|0:0,0:0:0:0:
432,57,20133,1,2,0:0:0:0:
334,79,20449,1,10,0:0:0:0:
309,176,20765,6,0,P|248:187|198:183,1,99.9999999999999,2|10,0:0|0:0,0:0:0:0:
123,135,21397,2,0,L|15:147,2,99.9999999999999,0|8|0,0:0|0:0|0:0,0:0:0:0:
355,324,22976,1,2,0:0:0:0:
439,269,23291,6,0,L|454:59,1,200,6|0,1:2|0:0,0:0:0:0:
361,29,24239,1,10,0:0:0:0:
299,107,24555,2,0,P|252:123|192:110,1,99.9999999999999,2|8,1:2|0:0,0:0:0:0:
147,31,25186,2,0,P|194:15|254:28,1,99.9999999999999,2|8,0:0|0:0,0:0:0:0:
299,107,25818,6,0,L|304:311,1,200,2|0,1:2|0:0,0:0:0:0:
400,335,26765,1,10,0:0:0:0:
464,259,27081,2,0,P|476:212|479:161,2,99.9999999999999,2|8|2,1:2|0:0|0:0,0:0:0:0:
372,218,28028,1,8,0:0:0:0:
305,293,28344,6,0,P|253:326|121:289,1,200,2|0,1:2|0:0,0:0:0:0:
91,200,29291,2,0,L|157:196,1,50,8|0,0:0|0:0,0:0:0:0:
167,153,29607,2,0,L|269:156,1,99.9999999999999,2|8,1:2|0:0,0:0:0:0:
261,55,30239,2,0,L|159:52,1,99.9999999999999,2|8,0:0|0:0,0:0:0:0:
115,49,30712,1,0,0:0:0:0:
115,49,30870,6,0,P|83:80|65:144,1,99.9999999999999,2|8,1:2|0:0,0:0:0:0:
65,232,31502,2,0,P|80:279|114:315,1,99.9999999999999,2|8,0:0|0:0,0:0:0:0:
159,294,31975,1,0,0:0:0:0:
159,294,32133,2,0,P|264:267|347:298,1,200,2|2,1:2|0:0,0:0:0:0:
442,328,33081,1,10,0:0:0:0:
506,251,33397,6,0,L|492:49,1,200,6|0,1:2|0:0,0:0:0:0:
397,85,34344,1,10,0:0:0:0:
307,40,34660,2,0,P|254:36|202:48,1,99.9999999999999,2|10,1:2|0:0,0:0:0:0:
130,108,35291,1,2,0:0:0:0:
135,207,35607,1,10,0:0:0:0:
140,306,35923,6,0,B|238:288|238:288|280:318|339:312,1,200,2|0,1:2|0:0,0:0:0:0:
429,283,36870,2,0,L|431:211,1,50,8|0,0:0|0:0,0:0:0:0:
468,200,37186,2,0,P|479:144|475:86,2,99.9999999999999,2|10|2,1:2|0:0|0:0,0:0:0:0:
370,179,38133,1,8,0:0:0:0:
300,107,38449,6,0,P|215:78|116:131,1,200,2|0,1:2|0:0,0:0:0:0:
78,215,39396,2,0,P|105:226|143:230,1,50,8|0,0:0|0:0,0:0:0:0:
162,263,39712,2,0,P|173:307|178:364,1,99.9999999999999,2|8,1:2|0:0,0:0:0:0:
272,325,40344,2,0,P|276:275|287:226,1,99.9999999999999,2|8,0:0|0:0,0:0:0:0:
330,201,40817,1,0,0:0:0:0:
330,201,40976,6,0,L|341:97,1,99.9999999999999,2|8,1:2|0:0,0:0:0:0:
440,91,41607,2,0,L|451:195,1,99.9999999999999,2|8,0:0|0:0,0:0:0:0:
428,287,42239,2,0,P|390:299|313:292,1,99.9999999999999,2|10,0:0|0:0,0:0:0:0:
256,228,42870,1,8,0:1:0:0:
165,269,43186,1,8,0:1:0:0:
100,193,43502,6,0,L|83:36,2,150,4|0|0,1:2|1:0|1:0,0:0:0:0:
193,310,44923,1,0,1:0:0:0:
193,310,45081,1,8,0:1:0:0:
287,278,45397,2,0,L|390:286,1,99.9999999999999,0|8,0:0|0:1,0:0:0:0:
477,243,46028,6,0,P|438:201|338:196,2,150,4|4|4,1:2|1:2|1:2,0:0:0:0:
334,290,47449,1,0,1:0:0:0:
334,290,47607,1,8,0:1:0:0:
242,248,47923,2,0,L|232:134,1,99.9999999999999,2|8,0:0|0:1,0:0:0:0:
153,86,48555,6,0,L|141:242,2,150,4|0|4,1:2|1:0|1:2,0:0:0:0:
348,44,50133,1,8,0:1:0:0:
411,121,50449,2,0,P|421:162|420:228,1,99.9999999999999,0|8,0:0|0:1,0:0:0:0:
403,318,51081,6,0,P|338:285|321:214,2,150,4|4|4,1:2|1:2|1:2,0:0:0:0:
464,127,52660,1,8,0:1:0:0:
367,100,52976,2,0,L|253:106,1,99.9999999999999,0|8,0:0|0:1,0:0:0:0:
185,164,53607,6,0,P|137:184|35:142,2,150,4|4|0,1:2|1:2|0:0,0:0:0:0:
461,46,55502,1,0,1:0:0:0:
478,144,55818,1,0,1:0:0:0:
417,223,56133,6,0,L|425:377,2,150,4|4|2,1:2|1:2|0:0,0:0:0:0:
131,130,58028,2,0,P|125:77|130:30,1,99.9999999999999
228,45,58660,6,0,P|285:57|382:58,2,150,4|0|2,1:2|1:0|0:0,0:0:0:0:
195,343,60555,1,0,1:0:0:0:
192,243,60870,1,0,1:0:0:0:
256,167,61186,6,0,P|192:200|108:187,2,150,4|4|4,1:2|1:2|1:2,0:0:0:0:
256,192,62291,12,0,63923,0:0:0:0:
196,248,64976,6,0,L|92:256,2,99.9999999999999,4|8|2,1:2|0:0|0:0,0:0:0:0:
256,328,65923,1,8,0:0:0:0:
316,248,66239,2,0,L|420:256,2,99.9999999999999,2|8|2,0:0|0:0|0:0,0:0:0:0:
256,166,67186,1,8,0:0:0:0:
169,115,67502,6,0,P|134:114|57:124,1,99.9999999999999,0|8,1:0|0:0,0:0:0:0:
24,210,68133,2,0,P|59:211|136:201,1,99.9999999999999,2|8,0:0|0:0,0:0:0:0:
206,260,68765,2,0,P|250:264|313:276,1,99.9999999999999,2|8,0:0|0:0,0:0:0:0:
374,202,69397,2,0,P|423:211|472:216,1,99.9999999999999,2|8,0:0|0:0,0:0:0:0:
485,167,69870,1,0,0:0:0:0:
498,118,70028,6,0,P|445:70|314:67,1,200,4|2,1:2|0:0,0:0:0:0:
235,114,70976,1,8,0:0:0:0:
278,204,71291,2,0,L|270:305,1,99.9999999999999,2|8,0:0|0:0,0:0:0:0:
176,339,71923,2,0,L|168:238,1,99.9999999999999,2|8,0:0|0:0,0:0:0:0:
73,206,72554,6,0,L|79:151,1,50,0|0,1:0|0:0,0:0:0:0:
53,112,72870,1,8,0:0:0:0:
141,67,73186,2,0,L|246:74,1,99.9999999999999,2|8,0:0|0:0,0:0:0:0:
319,135,73817,1,8,0:1:0:0:
319,135,73975,2,0,P|364:145|379:148,2,50,8|8|8,0:1|0:0|0:1,0:0:0:0:
279,166,74449,1,8,0:1:0:0:
184,197,74765,1,8,0:1:0:0:
260,264,75081,6,0,L|374:278,1,99.9999999999999,6|10,1:2|0:0,0:0:0:0:
450,233,75712,1,2,0:0:0:0:
439,332,76028,2,0,P|410:356|350:375,1,99.9999999999999,10|0,0:0|1:0,0:0:0:0:
252,357,76660,2,0,L|144:364,2,99.9999999999999,10|2|10,0:0|0:0|0:0,0:0:0:0:
319,282,77607,6,0,P|338:242|346:181,1,99.9999999999999,2|10,1:2|0:0,0:0:0:0:
322,142,78081,1,0,0:0:0:0:
322,142,78239,1,2,0:0:0:0:
222,156,78555,2,0,P|153:169|30:130,1,200,10|8,0:0|0:0,0:0:0:0:
72,39,79502,2,0,L|178:36,1,99.9999999999999,2|10,0:0|0:0,0:0:0:0:
216,58,79975,1,0,0:0:0:0:
216,58,80133,6,0,P|253:60|318:52,2,99.9999999999999,6|10|2,1:2|0:0|0:0,0:0:0:0:
190,155,81081,2,0,P|182:220|190:356,1,200,10|10,0:0|0:0,0:0:0:0:
289,352,82028,2,0,P|302:306|308:244,1,99.9999999999999,2|10,0:0|0:0,0:0:0:0:
400,215,82660,6,0,L|390:47,2,150,6|2|14,1:2|0:0|0:0,0:0:0:0:
216,272,84239,1,8,0:0:0:0:
136,211,84555,2,0,L|145:106,1,99.9999999999999,2|10,0:0|0:0,0:0:0:0:
232,62,85186,6,0,P|272:67|349:61,2,99.9999999999999,6|10|2,1:2|0:0|0:0,0:0:0:0:
145,11,86133,2,0,P|72:40|53:155,1,200,10|10,0:0|0:0,0:0:0:0:
114,228,87081,2,0,P|118:277|119:339,1,99.9999999999999,2|10,0:0|0:0,0:0:0:0:
213,292,87712,6,0,P|271:298|322:300,1,99.9999999999999,2|10,1:2|0:0,0:0:0:0:
356,275,88186,1,0,0:0:0:0:
356,275,88344,1,2,0:0:0:0:
438,331,88660,2,0,B|457:280|457:280|452:131,1,200,10|8,0:0|0:0,0:0:0:0:
410,44,89607,2,0,P|366:39|298:46,1,99.9999999999999,2|10,0:0|0:0,0:0:0:0:
265,65,90081,1,0,0:0:0:0:
265,65,90239,6,0,L|160:54,2,99.9999999999999,6|10|2,1:2|0:0|0:0,0:0:0:0:
295,160,91186,2,0,P|286:210|146:260,1,200,10|10,0:0|0:0,0:0:0:0:
66,235,92133,2,0,L|55:336,1,99.9999999999999,2|10,0:0|0:0,0:0:0:0:
154,348,92765,6,0,P|223:349|310:358,2,150,6|6|6,1:2|1:2|1:2,0:0:0:0:
190,154,94344,1,8,0:0:0:0:
282,191,94660,2,0,P|332:192|399:186,1,99.9999999999999,2|10,0:0|0:0,0:0:0:0:
466,134,95291,6,0,L|479:337,2,200,6|2|2,1:2|0:0|0:0,0:0:0:0:
279,60,97186,1,2,0:0:0:0:
154,216,97818,6,0,P|203:241|330:193,1,200,2|2,0:0|0:0,0:0:0:0:
185,54,99081,1,2,0:0:0:0:
26,176,99712,1,2,0:0:0:0:
125,349,100344,6,0,L|326:365,2,200,2|2|2,0:0|0:0|0:0,0:0:0:0:
61,159,102239,1,2,0:0:0:0:
223,42,102870,6,0,P|276:46|363:161,1,200,2|2,0:0|0:0,0:0:0:0:
289,342,104133,2,0,P|236:338|149:223,1,200,2|8,0:0|0:0,0:0:0:0:
185,137,105081,1,8,0:0:0:0:
