osu file format v14

[General]
AudioFilename: nightbird lost wing.mp3
AudioLeadIn: 0
PreviewTime: 75002
Countdown: 0
SampleSet: Soft
StackLeniency: 0.7
Mode: 0
LetterboxInBreaks: 1
WidescreenStoryboard: 1

[Editor]
DistanceSpacing: 1.2
BeatDivisor: 4
GridSize: 4
TimelineZoom: 2.599999

[Metadata]
Title:nightbird lost wing
TitleUnicode:nightbird lost wing
Artist:Nekomata Master+
ArtistUnicode:猫叉Master+
Creator:captin1
Version:Advanced
Source:DanceDanceRevolution
Tags:apaffy trust hootowlstar reflec beat colette dance dance revolution -Autumn- plus naoyuki sato
BeatmapID:629757
BeatmapSetID:241892

[Difficulty]
HPDrainRate:4.5
CircleSize:3.8
OverallDifficulty:5
ApproachRate:6
SliderMultiplier:1.3
SliderTickRate:1

[Events]
//Background and Video events
0,0,"bg.png",0,0
//Break Periods
//Storyboard Layer 0 (Background)
//Storyboard Layer 1 (Fail)
//Storyboard Layer 2 (Pass)
//Storyboard Layer 3 (Foreground)
//Storyboard Sound Samples

[TimingPoints]
555,315.789473684211,4,2,2,60,1,0
3081,315.789473684211,4,2,2,60,1,0
13186,-100,4,2,3,70,0,0
19502,-100,4,2,3,80,0,0
20765,-100,4,2,3,90,0,0
21397,-100,4,2,3,100,0,0
22976,-100,4,2,3,60,0,0
23291,-100,4,2,3,70,0,0
33318,-100,4,2,3,50,0,0
33397,-100,4,2,3,70,0,0
43502,-100,4,2,3,80,0,0
54555,-100,4,2,3,60,0,0
56133,-100,4,2,3,80,0,0
57081,-100,4,2,3,60,0,0
58028,-100,4,1,1,40,0,0
58344,-100,4,1,1,60,0,0
58660,-100,4,2,3,80,0,0
59607,-100,4,2,3,60,0,0
61186,-100,4,2,3,80,0,0
64976,-100,4,2,3,70,0,0
72555,-100,4,2,3,80,0,0
73818,-100,4,2,3,50,0,0
75081,-100,4,2,4,80,0,1
95291,-100,4,2,3,70,0,0

[Colours]
Combo1 : 154,53,255
Combo2 : 250,155,69
Combo3 : 36,135,255
Combo4 : 255,94,94

[HitObjects]
31,142,3080,6,0,P|102:152|162:151,1,130,4|8,1:2|0:0,0:0:0:0:
216,96,3554,2,0,P|287:86|347:87,1,130,0|8,1:0|0:0,0:0:0:0:
406,306,4975,1,2,0:0:0:0:
99,244,5607,6,0,L|89:98,1,130,0|8,1:0|0:0,0:0:0:0:
165,95,6080,2,0,L|175:241,1,130,0|8,1:0|0:0,0:0:0:0:
374,345,6870,2,0,P|414:313|328:240,1,195,2|8,0:0|0:0,0:0:0:0:
266,267,7501,2,0,P|226:271|190:276,2,65,8|4|4,0:3|0:3|0:3,0:0:0:0:
270,188,7975,1,8,0:1:0:0:
339,152,8133,6,0,P|354:115|371:22,1,130,0|8,1:0|0:0,0:0:0:0:
293,40,8607,2,0,P|228:43|163:34,1,130,0|8,1:0|0:0,0:0:0:0:
48,293,9870,1,0,0:0:0:0:
48,293,10028,2,0,P|86:294|114:299,1,65,2|0,0:0|0:0,0:0:0:0:
183,264,10344,2,0,P|226:281|262:288,1,65,0|8,0:0|0:1,0:0:0:0:
318,262,10659,6,0,P|340:219|359:116,1,130,0|8,1:0|0:0,0:0:0:0:
309,78,11133,2,0,P|260:74|158:97,1,130,0|8,1:0|0:0,0:0:0:0:
43,278,11923,2,0,L|53:367,2,86.6666666666667,0|8|8,1:0|0:1|0:1,0:0:0:0:
77,180,12554,2,0,P|121:195|210:194,1,130,8|8,0:1|0:3,0:0:0:0:
275,164,13028,1,4,0:3:0:0:
357,243,13186,6,0,L|366:380,1,130,6|8,1:2|0:0,0:0:0:0:
499,290,13817,1,0,0:0:0:0:
499,290,13975,2,0,L|508:153,1,130,0|0,0:0|0:0,0:0:0:0:
450,106,14449,2,0,P|410:112|315:104,1,130,0|8,0:0|0:0,0:0:0:0:
173,53,15080,2,0,P|133:47|38:55,1,130,2|8,0:0|0:0,0:0:0:0:
19,208,15712,6,0,L|165:216,1,130,2|8,1:2|0:0,0:0:0:0:
206,360,16344,1,2,0:0:0:0:
206,360,16501,2,0,L|352:352,1,130,0|0,0:0|0:0,0:0:0:0:
411,373,16975,2,0,P|441:338|455:252,1,130,2|8,0:0|0:0,0:0:0:0:
353,139,17607,2,0,L|363:278,1,130,2|8,0:0|0:0,0:0:0:0:
221,337,18238,5,6,1:2:0:0:
94,245,18554,1,8,0:0:0:0:
186,118,18870,1,0,0:0:0:0:
313,210,19186,1,8,0:0:0:0:
221,337,19501,2,0,P|181:350|80:343,1,130,0|8,0:0|0:0,0:0:0:0:
16,211,20133,2,0,P|56:198|157:205,1,130,2|10,0:0|0:0,0:0:0:0:
291,249,20765,5,2,0:0:0:0:
424,170,21081,1,8,0:0:0:0:
269,156,21397,1,2,0:0:0:0:
386,258,21712,1,8,0:0:0:0:
351,108,22028,1,2,0:0:0:0:
27,322,22975,5,2,0:0:0:0:
178,358,23291,2,0,L|185:212,1,130,6|8,1:2|0:0,0:0:0:0:
146,159,23765,2,0,P|199:151|276:132,1,130,0|0,0:0|1:0,0:0:0:0:
334,83,24238,1,10,0:0:0:0:
445,191,24554,2,0,L|450:340,1,130,2|8,1:2|0:0,0:0:0:0:
323,227,25186,2,0,L|318:376,1,130,2|8,0:0|0:0,0:0:0:0:
177,289,25817,6,0,P|123:293|36:271,1,130,2|8,1:2|0:0,0:0:0:0:
23,202,26291,2,0,L|17:66,1,130,0|0,0:0|1:0,0:0:0:0:
77,22,26765,1,10,0:0:0:0:
163,151,27080,2,0,P|226:164|295:161,2,130,2|8|2,1:2|0:0|0:0,0:0:0:0:
238,13,28028,1,8,0:0:0:0:
367,100,28344,6,0,B|373:166|373:166|356:250,1,130,2|8,1:2|0:0,0:0:0:0:
225,306,28975,2,0,B|212:243|212:243|218:177,1,130,0|8,0:0|0:0,0:0:0:0:
280,33,29607,2,0,P|335:53|413:51,1,130,2|8,1:2|0:0,0:0:0:0:
464,104,30080,1,2,0:0:0:0:
464,104,30238,2,0,L|468:236,1,130,2|8,0:0|0:0,0:0:0:0:
412,290,30712,2,0,P|409:324|410:360,1,65,2|2,0:0|1:2,0:0:0:0:
261,304,31186,6,0,L|188:314,1,65,8|2,0:0|0:0,0:0:0:0:
124,342,31501,2,0,P|110:282|117:190,1,130,2|8,0:0|0:0,0:0:0:0:
165,157,31975,1,2,0:0:0:0:
165,157,32133,2,0,L|161:20,1,130,2|8,1:2|0:0,0:0:0:0:
242,45,32607,1,8,0:0:0:0:
242,45,32765,1,2,0:0:0:0:
391,8,33080,1,10,0:0:0:0:
498,187,33396,6,0,P|498:237|486:326,1,130,6|8,1:2|0:0,0:0:0:0:
419,354,33870,2,0,L|288:334,1,130,0|0,0:0|1:0,0:0:0:0:
213,350,34344,1,10,0:0:0:0:
80,268,34659,2,0,P|66:207|70:124,1,130,2|10,1:2|0:0,0:0:0:0:
215,190,35291,2,0,P|229:129|225:46,1,130,2|10,0:0|0:0,0:0:0:0:
367,132,35923,6,0,L|377:276,1,130,2|8,1:2|0:0,0:0:0:0:
416,328,36396,2,0,P|380:346|266:345,1,130,0|0,0:0|1:0,0:0:0:0:
225,310,36870,1,8,0:0:0:0:
120,194,37186,2,0,P|59:177|-1:200,2,130,2|10|2,1:2|0:0|0:0,0:0:0:0:
138,349,38133,1,8,0:0:0:0:
228,221,38449,6,0,L|236:89,1,130,2|8,1:2|0:0,0:0:0:0:
301,48,38923,2,0,P|342:64|435:64,1,130,0|0,0:0|1:0,0:0:0:0:
502,44,39396,1,8,0:0:0:0:
459,194,39712,2,0,L|465:337,1,130,2|8,1:2|0:0,0:0:0:0:
385,327,40186,1,2,0:0:0:0:
385,327,40344,2,0,L|379:184,1,130,2|8,0:0|0:0,0:0:0:0:
312,157,40817,2,0,P|320:116|323:83,1,65,2|2,0:0|1:2,0:0:0:0:
175,146,41291,6,0,P|178:178|185:210,1,65,8|2,0:0|0:0,0:0:0:0:
229,275,41607,2,0,P|190:300|100:311,1,130,2|8,0:0|0:0,0:0:0:0:
62,248,42080,1,0,0:0:0:0:
62,248,42238,2,0,L|48:102,1,130,2|10,0:0|0:0,0:0:0:0:
134,94,42712,1,8,0:1:0:0:
134,94,42870,2,0,L|199:107,1,65,0|0,0:0|1:0,0:0:0:0:
242,42,43186,1,8,0:1:0:0:
425,140,43501,6,0,L|440:278,1,130,4|8,1:2|0:1,0:0:0:0:
362,253,43975,2,0,L|347:391,1,130,0|8,1:0|0:1,0:0:0:0:
272,359,44449,2,0,L|257:221,1,130,0|8,1:0|0:1,0:0:0:0:
185,204,44923,1,0,1:0:0:0:
185,204,45080,2,0,P|193:152|196:124,1,65,8|8,0:1|0:1,0:0:0:0:
209,63,45396,1,0,0:0:0:0:
53,59,45712,1,8,0:1:0:0:
61,269,46028,6,0,L|190:283,1,130,4|8,1:2|0:1,0:0:0:0:
173,359,46501,2,0,L|302:345,1,130,4|8,1:2|0:1,0:0:0:0:
310,266,46975,2,0,L|439:280,1,130,4|0,1:2|0:0,0:0:0:0:
493,223,47449,1,0,1:0:0:0:
493,223,47607,2,0,P|500:182|501:149,1,65,8|8,0:1|0:1,0:0:0:0:
450,98,47923,1,2,0:0:0:0:
314,16,48238,2,0,P|316:56|324:87,1,65,8|0,0:1|0:0,0:0:0:0:
368,194,48554,6,0,L|355:335,1,130,4|8,1:2|0:1,0:0:0:0:
284,356,49028,2,0,L|271:215,1,130,0|8,1:0|0:1,0:0:0:0:
206,184,49501,2,0,P|136:165|48:252,1,195,4|0,1:2|1:0,0:0:0:0:
86,309,50133,2,0,P|91:347|92:380,1,65,8|8,0:1|0:1,0:0:0:0:
206,359,50449,2,0,L|286:371,2,65,0|0|8,0:0|1:0|0:1,0:0:0:0:
181,262,50923,1,0,0:0:0:0:
181,262,51080,6,0,P|206:227|296:195,1,130,4|8,1:2|0:1,0:0:0:0:
359,171,51554,2,0,P|316:166|243:104,1,130,4|8,1:2|0:1,0:0:0:0:
192,62,52028,2,0,P|209:101|192:195,1,130,4|8,1:2|0:1,0:0:0:0:
122,202,52501,1,0,1:0:0:0:
122,202,52659,2,0,P|108:233|100:265,1,65,8|8,0:1|0:1,0:0:0:0:
137,332,52975,1,2,0:0:0:0:
290,360,53291,1,8,0:1:0:0:
453,230,53607,6,0,L|466:82,1,130,4|8,1:2|0:1,0:0:0:0:
391,70,54080,1,4,1:2:0:0:
165,133,54554,2,0,L|120:126,4,32.5,2|0|2|0|0,0:0|0:0|0:0|0:0|0:0,0:0:0:0:
240,111,55028,1,0,0:0:0:0:
300,160,55186,2,0,L|302:240,1,65,2|0,0:0|0:0,0:0:0:0:
338,293,55501,2,0,P|297:277|196:289,1,130,0|0,1:0|1:0,0:0:0:0:
150,330,55975,1,8,0:1:0:0:
150,330,56133,6,0,L|12:318,1,130,4|8,1:2|0:1,0:0:0:0:
1,242,56607,1,4,1:2:0:0:
148,60,57080,2,0,L|226:67,1,65,2|0,0:0|0:0,0:0:0:0:
268,121,57396,2,0,L|346:114,1,65,2|0,0:0|0:0,0:0:0:0:
388,59,57712,2,0,L|466:66,1,65,2|0,0:0|0:0,0:0:0:0:
493,132,58028,2,0,L|503:178,4,32.5
415,144,58501,1,0,0:0:0:0:
365,203,58659,6,0,L|376:354,1,130,4|8,1:2|0:1,0:0:0:0:
299,308,59133,2,0,P|239:282|156:287,1,130,0|0,1:0|0:0,0:0:0:0:
156,358,59607,2,0,P|112:331|207:207,1,260,2|2,0:0|0:0,0:0:0:0:
330,288,60554,2,0,L|362:295,3,21.6666666666667,0|0|0|0,1:0|1:0|1:0|1:0,0:0:0:0:
279,226,60870,1,0,1:0:0:0:
328,164,61028,1,0,1:0:0:0:
406,168,61186,6,0,L|396:37,1,130,4|8,1:2|0:1,0:0:0:0:
472,54,61659,2,0,L|481:184,1,130,4|8,1:2|0:1,0:0:0:0:
430,243,62133,1,4,1:2:0:0:
256,192,62291,12,0,63923,0:0:0:0:
115,222,64659,6,0,P|159:221|183:218,1,65,8|4,0:1|0:3,0:0:0:0:
233,161,64975,2,0,P|273:177|370:172,2,130,4|8|2,1:2|0:0|0:0,0:0:0:0:
190,94,65765,1,0,0:0:0:0:
190,94,65923,1,8,0:0:0:0:
60,180,66238,2,0,L|57:337,1,130,2|8,0:0|0:0,0:0:0:0:
209,348,66870,2,0,P|258:349|344:335,1,130,2|8,0:0|0:0,0:0:0:0:
415,350,67344,1,0,0:0:0:0:
415,350,67501,6,0,L|423:209,1,130,0|8,1:0|0:0,0:0:0:0:
265,220,68133,2,0,L|257:79,1,130,2|8,0:0|0:0,0:0:0:0:
396,18,68765,2,0,P|397:64|379:152,1,130,2|8,0:0|0:0,0:0:0:0:
225,157,69396,2,0,P|168:154|87:159,1,130,2|8,0:0|0:0,0:0:0:0:
36,209,69870,1,0,0:0:0:0:
36,209,70028,6,0,B|18:271|18:271|34:353,2,130,4|8|2,1:2|0:0|0:0,0:0:0:0:
173,282,70975,1,8,0:0:0:0:
308,360,71291,2,0,P|355:363|425:310,1,130,2|8,0:0|0:0,0:0:0:0:
482,173,71923,2,0,L|339:177,1,130,2|8,0:0|0:0,0:0:0:0:
303,115,72396,1,2,0:0:0:0:
303,115,72554,6,0,P|252:129|175:128,1,130,2|8,0:0|0:0,0:0:0:0:
32,63,73186,1,2,0:0:0:0:
26,218,73501,1,8,0:0:0:0:
173,268,73817,2,0,P|185:312|189:338,2,65,8|8|8,0:1|0:1|0:0,0:0:0:0:
112,204,74291,1,8,0:1:0:0:
54,136,74449,2,0,P|69:98|87:65,1,65,8|8,0:1|0:1,0:0:0:0:
156,97,74765,1,8,0:1:0:0:
373,61,75080,6,0,P|381:102|394:143,1,65,6|0,1:2|0:0,0:0:0:0:
454,165,75396,2,0,P|461:210|461:247,1,65,10|0,0:0|0:0,0:0:0:0:
422,297,75712,2,0,P|371:279|283:275,1,130,2|10,0:0|0:0,0:0:0:0:
143,309,76344,1,0,1:0:0:0:
38,193,76659,2,0,P|32:151|31:122,1,65,10|0,0:0|0:0,0:0:0:0:
102,95,76975,2,0,P|136:109|235:113,1,130,2|10,0:0|0:0,0:0:0:0:
372,53,77607,5,2,1:2:0:0:
469,175,77923,2,0,L|479:243,2,65,10|2|2,0:0|0:0|0:0,0:0:0:0:
396,146,78396,1,2,1:2:0:0:
331,189,78554,2,0,L|325:334,1,130,10|0,0:0|1:0,0:0:0:0:
173,356,79186,1,8,0:0:0:0:
99,322,79344,2,0,P|63:314|32:313,2,65,2|2|2,0:0|0:0|1:2,0:0:0:0:
178,253,79817,1,8,0:0:0:0:
141,156,79975,1,0,0:0:0:0:
180,60,80133,6,0,P|224:61|317:42,2,130,6|10|2,1:2|0:0|0:0,0:0:0:0:
103,79,80923,1,0,1:0:0:0:
45,28,81080,1,10,0:0:0:0:
6,180,81396,2,0,L|18:326,1,130,0|10,1:0|0:0,0:0:0:0:
166,262,82028,1,2,0:0:0:0:
166,262,82186,2,0,P|205:270|234:272,1,65,0|10,1:0|0:0,0:0:0:0:
362,355,82659,6,0,L|351:206,1,130,6|8,1:2|0:0,0:0:0:0:
430,233,83133,2,0,L|441:84,1,130,2|0,0:0|1:0,0:0:0:0:
404,33,83607,2,0,P|354:14|278:58,1,130,14|0,0:0|1:0,0:0:0:0:
285,200,84238,1,8,0:0:0:0:
135,156,84554,2,0,L|124:20,1,130,2|10,0:0|0:0,0:0:0:0:
216,153,85186,6,0,P|204:198|179:226,1,65,6|0,1:2|0:0,0:0:0:0:
142,271,85501,2,0,L|148:342,1,65,10|0,0:0|0:0,0:0:0:0:
219,367,85817,1,2,0:0:0:0:
333,260,86133,2,0,B|377:254|377:254|415:272|415:272|467:262,1,130,10|0,0:0|1:0,0:0:0:0:
489,110,86765,1,10,0:0:0:0:
350,38,87080,6,0,P|291:25|213:44,1,130,2|10,0:0|0:0,0:0:0:0:
89,118,87712,1,2,1:2:0:0:
226,192,88028,2,0,L|295:183,2,65,10|2|2,0:0|0:0|0:0,0:0:0:0:
166,242,88501,1,2,1:2:0:0:
166,242,88659,2,0,P|160:284|171:372,1,130,10|0,0:0|1:0,0:0:0:0:
323,338,89291,1,8,0:0:0:0:
401,341,89449,2,0,L|490:353,2,65,2|2|2,0:0|0:0|1:2,0:0:0:0:
355,247,89923,1,8,0:0:0:0:
345,144,90081,1,0,0:0:0:0:
432,88,90238,6,0,P|392:51|302:51,2,130,6|10|2,1:2|0:0|0:0,0:0:0:0:
475,237,91186,2,0,B|463:333|463:333|434:361,1,130,10|0,0:0|1:0,0:0:0:0:
298,287,91817,2,0,P|255:290|231:296,1,65,10|0,0:0|0:0,0:0:0:0:
163,331,92133,2,0,P|138:299|118:205,1,130,2|10,0:0|0:0,0:0:0:0:
36,79,92765,6,0,B|98:63|98:63|175:66,1,130,6|8,1:2|0:0,0:0:0:0:
197,175,93238,2,0,B|259:190|259:190|336:188,1,130,6|8,1:2|0:0,0:0:0:0:
392,96,93712,2,0,P|411:143|414:228,1,130,6|0,1:2|0:0,0:0:0:0:
356,275,94186,1,0,1:0:0:0:
356,275,94344,2,0,P|352:315|351:341,1,65,8|8,0:0|0:0,0:0:0:0:
278,310,94659,2,0,P|241:328|144:329,1,130,2|10,0:0|0:0,0:0:0:0:
61,188,95291,6,0,B|44:148|44:148|50:53,2,130,6|8|2,1:2|0:0|0:0,0:0:0:0:
122,139,96080,1,0,0:0:0:0:
122,139,96238,1,8,0:0:0:0:
242,39,96554,2,0,L|309:46,2,65,2|0|8,0:0|0:0|0:0,0:0:0:0:
317,176,97186,2,0,L|384:169,2,65,2|0|8,0:0|0:0|0:0,0:0:0:0:
169,227,97817,6,0,P|159:286|164:358,2,130,2|8|2,0:0|0:0|0:0,0:0:0:0:
206,157,98607,1,0,0:0:0:0:
206,157,98765,1,8,0:0:0:0:
345,87,99080,2,0,L|351:151,2,65,2|0|8,0:0|0:0|0:0,0:0:0:0:
482,161,99712,2,0,L|476:225,2,65,2|0|8,0:0|0:0|0:0,0:0:0:0:
378,278,100344,6,0,P|338:300|243:292,2,130,2|8|2,0:0|0:0|0:0,0:0:0:0:
404,204,101133,1,0,0:0:0:0:
404,204,101291,1,8,0:0:0:0:
274,116,101607,2,0,L|267:51,2,65,2|0|8,0:0|0:0|0:0,0:0:0:0:
119,136,102238,2,0,L|126:71,2,65,2|0|8,0:0|0:0|0:0,0:0:0:0:
21,258,102870,6,0,P|66:252|153:272,1,130,2|8,0:0|0:0,0:0:0:0:
276,181,103501,2,0,P|321:187|408:167,1,130,2|8,0:0|0:0,0:0:0:0:
482,304,104133,2,0,L|486:369,2,65,2|0|8,0:0|0:0|0:0,0:0:0:0:
329,340,104765,1,10,0:0:0:0:
217,231,105080,1,8,0:0:0:0:
