osu file format v14

[General]
AudioFilename: a.mp3
AudioLeadIn: 0
PreviewTime: 75002
Countdown: 0
SampleSet: Soft
StackLeniency: 0.3
Mode: 0
LetterboxInBreaks: 1
WidescreenStoryboard: 1

[Editor]
DistanceSpacing: 1.5
BeatDivisor: 12
GridSize: 4
TimelineZoom: 2.799998

[Metadata]
Title:nightbird lost wing
TitleUnicode:nightbird lost wing
Artist:Nekomata Master+
ArtistUnicode:猫叉Master+
Creator:Regou
Version:mahua's extra
Source:DanceDanceRevolution
Tags:reflec beat colette dance dance revolution -Autumn- xLolicore- plus shota on osu Leader deadcode acyl iedesu Cubbby [Mahua] qq944364487 cubby toybot Elsa Valentine instrumental video game
BeatmapID:2204493
BeatmapSetID:1053490

[Difficulty]
HPDrainRate:6
CircleSize:4.2
OverallDifficulty:8.6
ApproachRate:9.2
SliderMultiplier:1.75
SliderTickRate:1

[Events]
//Background and Video events
0,0,"bg.png",0,0
//Break Periods
//Storyboard Layer 0 (Background)
//Storyboard Layer 1 (Fail)
//Storyboard Layer 2 (Pass)
//Storyboard Layer 3 (Foreground)
//Storyboard Layer 4 (Overlay)
//Storyboard Sound Samples

[TimingPoints]
545,317.040951122853,4,2,1,30,1,0
1179,-100,4,2,1,75,0,0
3081,315.789473684211,4,2,1,45,1,0
3081,-100,4,2,1,45,0,0
11923,-100,4,2,1,50,0,0
12120,-100,4,2,0,40,0,0
12554,-100,4,2,0,55,0,0
13186,-100,4,2,1,65,0,0
18554,-100,4,2,1,75,0,0
22975,-66.6666666666667,4,2,1,75,0,0
23291,-111.111111111111,4,2,1,75,0,0
33396,-66.6666666666667,4,2,1,75,0,0
33712,-100,4,2,1,75,0,0
49502,-200,4,2,1,75,0,0
49817,-100,4,2,1,75,0,0
51554,-76.9230769230769,4,2,1,75,0,0
52028,-200,4,2,1,75,0,0
53607,-100,4,2,1,75,0,0
54870,-80,4,2,1,75,0,0
56133,-100,4,2,1,75,0,0
56607,-200,4,2,1,75,0,0
57081,-100,4,2,1,75,0,0
58028,-66.6666666666667,4,2,1,75,0,0
58502,-66.6666666666667,4,2,1,75,0,0
58659,-100,4,2,1,75,0,0
62133,-200,4,2,2,75,0,0
62212,-200,4,2,0,75,0,0
62923,-100,4,2,0,75,0,0
63356,-100,4,2,2,75,0,0
63594,-100,4,2,2,75,0,0
64344,-100,4,2,0,55,0,0
64659,-100,4,2,1,45,0,0
64975,-100,4,3,61,35,0,0
65133,-100,4,3,61,35,0,0
65291,-100,4,3,1,35,0,0
65449,-100,4,3,61,35,0,0
65923,-100,4,3,1,35,0,0
66081,-100,4,3,61,35,0,0
66554,-100,4,3,1,35,0,0
66712,-100,4,3,61,35,0,0
66870,-100,4,3,62,35,0,0
67028,-100,4,3,62,35,0,0
67186,-100,4,3,1,35,0,0
67344,-100,4,3,62,35,0,0
67502,-100,4,3,63,27,0,0
67659,-100,4,3,63,27,0,0
67817,-100,4,3,1,27,0,0
67975,-100,4,3,63,27,0,0
68133,-100,4,3,64,35,0,0
68291,-100,4,3,64,35,0,0
68449,-100,4,3,1,35,0,0
68607,-100,4,3,64,35,0,0
68765,-100,4,3,64,35,0,0
68923,-100,4,3,64,35,0,0
69081,-100,4,3,1,35,0,0
69238,-100,4,3,64,35,0,0
69396,-100,4,3,63,35,0,0
69554,-100,4,3,63,35,0,0
69712,-100,4,3,1,35,0,0
69870,-100,4,3,65,40,0,0
69949,-100,4,3,62,40,0,0
70028,-100,4,3,1,75,0,0
75081,-66.6666666666667,4,2,3,75,0,0
75396,-80,4,2,1,75,0,0
75553,-80,4,2,1,75,0,0
75712,-66.6666666666667,4,2,1,75,0,0
76028,-200,4,2,2,75,0,0
76501,-200,4,2,2,75,0,0
76581,-200,4,2,1,75,0,0
76659,-100,4,2,1,75,0,0
77607,-66.6666666666667,4,2,1,75,0,0
77923,-80,4,2,1,75,0,0
78554,-200,4,2,1,75,0,0
79344,-100,4,2,1,75,0,0
80133,-66.6666666666667,4,2,2,75,0,0
80449,-80,4,2,1,75,0,0
80606,-80,4,2,1,75,0,0
80765,-66.6666666666667,4,2,1,75,0,0
81081,-200,4,2,2,75,0,0
81712,-100,4,2,1,75,0,0
82659,-83.3333333333333,4,2,2,75,0,0
82895,-83.3333333333333,4,2,1,75,0,0
83133,-83.3333333333333,4,2,2,75,0,0
83449,-83.3333333333333,4,2,1,75,0,0
83607,-200,4,2,2,75,0,0
83923,-200,4,2,1,75,0,0
84159,-200,4,2,1,75,0,0
84238,-100,4,2,1,75,0,0
84870,-133.333333333333,4,2,1,75,0,0
85106,-133.333333333333,4,2,1,75,0,0
85186,-66.6666666666667,4,2,4,75,0,0
85502,-80,4,2,1,75,0,0
85659,-80,4,2,1,75,0,0
85817,-66.6666666666667,4,2,1,75,0,0
86133,-303.030303030303,4,2,2,75,0,0
86606,-303.030303030303,4,2,2,75,0,0
86686,-303.030303030303,4,2,2,75,0,0
86765,-83.3333333333333,4,2,1,75,0,0
86975,-83.3333333333333,4,2,1,75,0,0
87081,-83.3333333333333,4,2,1,75,0,0
87396,-100,4,2,1,75,0,0
87712,-66.6666666666667,4,2,1,75,0,0
87948,-66.6666666666667,4,2,1,75,0,0
88028,-80,4,2,1,75,0,0
88659,-200,4,2,1,75,0,0
89132,-200,4,2,1,75,0,0
89291,-200,4,2,1,75,0,0
89449,-66.6666666666667,4,2,1,75,0,0
90238,-66.6666666666667,4,2,2,75,0,0
90395,-66.6666666666667,4,2,2,75,0,0
90554,-66.6666666666667,4,2,1,75,0,0
90711,-66.6666666666667,4,2,1,75,0,0
90870,-66.6666666666667,4,2,1,75,0,0
91186,-303.030303030303,4,2,2,75,0,0
91502,-303.030303030303,4,2,1,75,0,0
91659,-303.030303030303,4,2,1,75,0,0
91738,-303.030303030303,4,2,2,75,0,0
91817,-100,4,2,1,75,0,0
92765,-83.3333333333333,4,2,2,75,0,0
93001,-83.3333333333333,4,2,1,75,0,0
93238,-83.3333333333333,4,2,2,75,0,0
93474,-83.3333333333333,4,2,1,75,0,0
93712,-200,4,2,2,75,0,0
93948,-200,4,2,1,75,0,0
94028,-200,4,2,1,75,0,0
94264,-200,4,2,1,75,0,0
94344,-100,4,2,1,75,0,0
95211,-100,4,2,1,75,0,0
95291,-100,4,2,1,75,0,0
95923,-100,4,2,1,65,0,0
97817,-100,4,2,1,65,0,0
100344,-100,4,2,1,75,0,0

[Colours]
Combo1 : 154,53,255
Combo2 : 213,255,234
Combo3 : 36,135,255
Combo4 : 255,94,94

[HitObjects]
255,362,545,5,2,2:3:0:0:
26,271,3081,6,0,L|41:379,1,87.5,0|0,1:0|0:0,0:0:0:0:
168,375,3396,1,2,0:1:0:0:
128,264,3554,1,0,1:0:0:0:
128,264,3633,1,0,0:0:0:0:
128,264,3712,1,0,0:0:0:0:
38,357,3870,1,2,0:1:0:0:
4,192,4975,1,2,3:2:0:0:
38,357,5607,6,0,L|26:271,1,87.5,0|0,1:0|0:0,0:0:0:0:
38,357,5922,1,2,0:1:0:0:
128,264,6080,1,0,1:0:0:0:
128,264,6159,1,0,0:0:0:0:
128,264,6238,1,0,0:1:0:0:
168,375,6396,1,2,0:1:0:0:
256,192,6870,1,2,0:3:0:0:
256,192,7344,6,0,L|264:240,1,43.75,0|0,1:0|0:0,0:0:0:0:
240,308,7502,1,0,1:0:0:0:
324,280,7659,1,0,1:0:0:0:
412,296,7817,1,0,1:1:0:0:
476,352,7976,2,0,L|520:356,1,43.75,2|0,1:2|1:0,0:0:0:0:
488,244,8133,6,0,P|440:256|392:232,1,87.5,0|0,1:0|0:1,0:0:0:0:
405,243,8370,1,0,0:0:0:0:
405,243,8449,1,2,0:1:0:0:
368,164,8607,1,0,1:0:0:0:
428,108,8765,2,0,P|476:96|524:120,1,87.5,0|2,0:1|0:1,0:0:0:0:
256,368,9870,5,0,1:2:0:0:
184,320,10028,5,0,1:2:0:0:
180,304,10186,1,0,1:2:0:0:
176,288,10344,1,2,1:2:0:0:
172,272,10502,6,0,L|216:288,1,43.75,0|0,1:0|1:0,0:0:0:0:
120,360,10660,6,0,P|84:384|28:368,1,87.5,0|0,1:0|0:1,0:0:0:0:
42,378,10897,1,0,0:0:0:0:
42,378,10976,1,2,0:1:0:0:
0,304,11133,1,0,1:0:0:0:
48,236,11291,2,0,P|84:212|140:228,1,87.5,0|2,0:1|0:1,0:0:0:0:
256,352,11923,6,0,B|228:360|228:360|200:348,1,58.3333333333333,0|0,1:0|0:0,0:0:0:0:
304,288,12133,2,0,B|332:280|332:280|360:292,1,58.3333333333333,2|0,3:3|0:0,0:0:0:0:
424,340,12344,1,2,3:3:0:0:
424,340,12449,1,0,3:0:0:0:
424,340,12554,6,0,L|436:384,2,43.75,2|2|2,0:0|0:0|0:0,0:0:0:0:
432,256,12791,1,2,0:0:0:0:
436,240,12870,1,2,0:0:0:0:
440,224,12949,1,2,0:0:0:0:
444,208,13028,1,2,0:0:0:0:
448,192,13107,1,2,0:0:0:0:
468,120,13186,5,4,1:2:0:0:
428,40,13344,1,0,0:0:0:0:
340,32,13502,1,8,3:2:0:0:
276,92,13659,1,0,0:0:0:0:
288,180,13817,1,2,3:2:0:0:
360,228,13976,2,0,L|380:164,1,43.75,0|0,3:0|3:0,0:0:0:0:
428,40,14133,1,8,3:2:0:0:
428,40,14291,1,0,3:0:0:0:
288,180,14449,5,0,3:1:0:0:
224,248,14607,1,0,0:0:0:0:
132,232,14765,1,8,3:2:0:0:
88,148,14923,1,0,0:0:0:0:
116,60,15081,1,2,3:1:0:0:
208,40,15239,2,0,L|212:92,1,43.75
224,248,15396,1,8,3:2:0:0:
208,40,15554,1,0,0:0:0:0:
184,156,15712,5,2,3:3:0:0:
88,148,15870,1,0,0:0:0:0:
88,148,15949,1,0,0:0:0:0:
88,148,16028,1,0,0:0:0:0:
24,220,16186,1,0,0:0:0:0:
40,316,16344,2,0,L|136:340,1,87.5,8|0,3:2|0:0,0:0:0:0:
184,156,16659,1,0,0:0:0:0:
204,248,16817,1,0,0:0:0:0:
228,360,16975,5,8,3:2:0:0:
296,288,17133,1,0,2:0:0:0:
388,264,17291,1,8,3:2:0:0:
484,276,17449,1,0,2:0:0:0:
296,288,17607,6,0,P|280:216|296:172,1,87.5,8|0,3:2|2:0,0:0:0:0:
295,180,17844,1,0,0:0:0:0:
315,164,17923,1,8,3:2:0:0:
484,276,18081,2,0,L|472:328,1,43.75,2|2,3:2|3:2,0:0:0:0:
452,336,18238,5,2,1:3:0:0:
468,348,18396,1,0,0:0:0:0:
264,356,18554,1,8,1:2:0:0:
280,368,18712,1,0,1:0:0:0:
468,348,18870,5,2,1:2:0:0:
452,336,19028,1,0,1:0:0:0:
280,368,19186,1,8,1:2:0:0:
264,356,19344,1,0,1:0:0:0:
360,332,19502,5,0,1:0:0:0:
292,264,19659,1,0,1:0:0:0:
196,280,19817,1,8,1:2:0:0:
144,360,19975,1,0,1:0:0:0:
0,204,20133,5,0,1:0:0:0:
100,152,20290,1,2,1:1:0:0:
212,172,20448,1,8,1:2:0:0:
292,252,20606,1,2,1:2:0:0:
424,192,20765,5,0,1:0:0:0:
468,88,20923,1,0,1:0:0:0:
328,12,21081,5,8,1:2:0:0:
344,124,21238,1,0,1:0:0:0:
200,240,21396,5,0,1:0:0:0:
224,100,21554,1,0,1:0:0:0:
36,48,21712,5,8,1:2:0:0:
84,208,21870,1,0,1:0:0:0:
12,368,22028,6,0,P|56:380|112:344,1,87.5,4|2,1:2|0:1,0:0:0:0:
144,304,22344,1,2,0:1:0:0:
160,224,22502,1,2,0:0:0:0:
171,220,22554,1,2,0:0:0:0:
179,212,22607,1,2,0:0:0:0:
186,202,22659,5,2,0:0:0:0:
86,122,22817,1,2,0:1:0:0:
144,304,22975,6,0,P|222:356|329:329,1,196.875007510186,4|0,0:0|0:0,0:0:0:0:
372,280,23291,6,0,P|414:269|486:297,1,118.124996395111,8|0,1:1|0:0,0:0:0:0:
494,309,23607,1,8,0:3:0:0:
319,337,23765,1,2,0:0:0:0:
198,191,23923,2,0,P|158:173|109:180,1,78.7499975967408
105,181,24159,1,0,0:0:0:0:
90,194,24238,1,8,0:3:0:0:
251,255,24396,1,0,0:0:0:0:
305,79,24554,5,2,1:1:0:0:
452,93,24712,1,0,0:0:0:0:
446,102,24765,1,0,0:0:0:0:
440,110,24817,1,0,3:0:0:0:
433,118,24870,2,2,P|394:138|346:129,1,78.7499975967408,8|0,0:3|0:0,0:1:0:0:
305,79,25186,1,2,0:1:0:0:
237,35,25344,2,0,L|203:13,3,26.2499991989136,0|0|0|8,0:0|0:0|3:0|0:3,0:0:0:0:
291,186,25659,1,0,0:0:0:0:
251,255,25818,6,0,P|307:224|381:234,1,118.124996395111,2|0,1:0|0:0,0:0:0:0:
419,270,26133,1,8,0:3:0:0:
510,209,26291,1,2,0:0:0:0:
245,348,26449,2,0,P|195:329|155:338,1,78.7499975967408
155,336,26686,1,0,0:0:0:0:
141,344,26765,1,8,0:3:0:0:
34,291,26923,1,0,0:0:0:0:
174,235,27081,6,0,L|264:258,1,78.7499975967408,2|0,1:1|0:0,0:0:0:0:
54,186,27397,2,0,L|144:163,1,78.7499975967408,8|0,0:3|0:0,0:0:0:0:
313,189,27712,1,2,0:1:0:0:
476,162,27870,2,0,L|414:173,1,39.3749987983704
250,155,28028,1,8,0:3:0:0:
238,146,28133,5,2,0:0:0:0:
228,136,28238,5,2,0:0:0:0:
218,125,28344,6,0,P|210:74|239:10,1,118.124996395111,2|0,1:3|0:0,0:0:0:0:
304,42,28660,2,0,L|394:20,1,78.7499975967408,8|2,0:3|0:2,0:0:0:0:
437,168,28975,1,0,0:0:0:0:
344,289,29133,2,0,L|293:300,1,39.3749987983704,2|0,0:0|0:0,0:0:0:0:
380,305,29291,1,8,0:3:0:0:
212,308,29449,5,2,0:0:0:0:
36,316,29607,2,0,P|80:316|155:358,1,118.124996395111,2|0,1:1|0:0,0:0:0:0:
161,364,29923,1,8,0:3:0:0:
283,162,30081,5,0,0:0:0:0:
459,170,30239,2,0,P|415:170|357:198,1,78.7499975967408,2|0,2:1|0:0,0:0:0:0:
355,196,30475,1,0,0:0:0:0:
334,218,30555,1,8,0:3:0:0:
235,14,30712,5,2,0:1:0:0:
59,22,30870,2,0,P|103:22|178:64,1,118.124996395111,0|0,1:1|0:0,0:0:0:0:
184,70,31186,1,8,0:3:0:0:
283,162,31344,5,2,0:1:0:0:
119,198,31502,2,0,P|169:226|222:231,1,78.7499975967408,2|0,0:2|0:0,0:0:0:0:
212,230,31738,1,0,0:0:0:0:
238,226,31818,1,8,0:3:0:0:
334,326,31975,5,2,0:0:0:0:
158,334,32133,2,0,P|202:334|268:373,1,118.124996395111,2|0,1:1|0:0,0:0:0:0:
283,382,32449,1,8,0:3:0:0:
414,332,32607,1,2,0:0:0:0:
475,198,32765,5,2,3:2:0:0:
440,190,32844,1,2,3:2:0:0:
404,190,32923,1,2,3:2:0:0:
370,202,33002,1,2,3:2:0:0:
327,234,33081,5,8,3:3:0:0:
292,242,33160,1,0,0:0:0:0:
256,242,33239,1,2,0:0:0:0:
222,230,33318,1,2,0:0:0:0:
183,187,33396,6,0,B|142:173|142:173|99:59|99:59|51:46,1,196.875007510186,4|0,1:2|0:0,0:0:0:0:
26,128,33712,6,0,P|25:166|70:210,1,87.5,8|2,0:3|0:0,0:0:0:0:
229,100,34028,2,0,P|256:67|257:24,1,87.5
188,14,34265,1,0,0:0:0:0:
188,14,34344,1,8,0:3:0:0:
183,187,34502,1,0,0:0:0:0:
245,330,34660,6,0,P|303:317|385:351,1,131.25,2|0,1:1|0:0,0:0:0:0:
434,380,34976,2,2,L|420:331,1,43.75,8|0,0:3|0:0,0:1:0:0:
461,201,35133,1,0,0:0:0:0:
374,125,35291,2,0,P|355:155|371:216,1,87.5,2|0,0:1|0:0,0:0:0:0:
383,242,35502,1,0,0:0:0:0:
389,229,35554,1,0,3:0:0:0:
386,214,35607,1,8,0:3:0:0:
215,222,35765,1,0,0:0:0:0:
209,235,35817,1,0,0:0:0:0:
212,250,35870,1,0,3:0:0:0:
218,263,35923,6,0,P|169:231|73:239,1,131.25,2|0,1:0|0:0,0:0:0:0:
34,271,36238,1,8,0:3:0:0:
6,95,36396,1,2,0:2:0:0:
34,271,36554,1,0,0:0:0:0:
81,64,36712,2,0,L|91:19,2,43.75,0|0|8,0:0|0:0|0:3,0:0:0:0:
34,271,37028,1,0,0:0:0:0:
208,362,37186,6,2,P|255:353|289:323,1,87.5,2|0,1:1|0:0,2:0:0:0:
374,125,37502,2,0,P|327:134|293:164,1,87.5,8|0,0:3|0:0,0:0:0:0:
234,229,37817,1,2,0:1:0:0:
433,254,37976,2,0,L|372:245,1,43.75
307,269,38133,1,8,0:3:0:0:
311,254,38238,5,2,0:0:0:0:
314,239,38344,5,2,0:0:0:0:
316,224,38449,6,0,P|282:162|221:147,1,131.25,2|0,1:3|0:0,0:0:0:0:
163,192,38765,2,0,L|58:179,1,87.5,8|2,0:3|0:2,0:0:0:0:
23,110,39081,1,0,0:0:0:0:
46,260,39239,2,0,L|54:308,1,43.75
23,110,39396,1,8,0:3:0:0:
128,282,39554,5,2,0:0:0:0:
176,344,39712,2,0,P|228:335|296:371,1,131.25,2|0,1:1|0:0,0:0:0:0:
310,383,40028,1,8,0:3:0:0:
163,192,40186,5,0,0:0:0:0:
234,229,40344,2,0,P|278:200|343:208,1,87.5,2|0,0:1|0:0,0:0:0:0:
344,202,40581,1,0,0:0:0:0:
372,212,40660,1,8,0:3:0:0:
175,106,40817,5,0,0:2:0:0:
252,114,40975,2,0,P|281:70|354:46,1,131.25,2|0,1:2|0:0,0:0:0:0:
374,45,41291,1,8,0:3:0:0:
480,212,41449,5,0,0:0:0:0:
464,196,41528,1,8,0:2:0:0:
444,185,41607,2,0,P|395:176|347:194,1,87.5,2|0,0:2|0:0,0:0:0:0:
344,202,41844,2,0,L|330:250,1,43.75,0|8,0:0|0:3,0:0:0:0:
241,317,42081,5,0,0:0:0:0:
225,333,42160,1,8,0:2:0:0:
205,344,42239,2,0,P|156:353|108:335,1,87.5,2|0,1:3|0:0,0:0:0:0:
41,104,42554,6,0,L|24:69,6,21.875,8|0|2|0|2|0|2,0:3|0:0|3:2|0:0|3:2|0:0|3:2,0:0:0:0:
54,125,42870,5,2,3:2:0:0:
139,160,43028,1,2,3:2:0:0:
139,160,43107,1,0,0:0:0:0:
139,160,43186,2,0,L|250:133,1,87.5,8|8,0:3|0:2,0:0:0:0:
324,32,43502,5,4,1:2:0:0:
276,192,43660,1,0,0:0:0:0:
448,148,43818,1,8,0:3:0:0:
376,120,43976,5,4,1:2:0:0:
372,284,44133,1,0,0:0:0:0:
232,208,44291,1,8,0:3:0:0:
320,176,44449,5,4,1:2:0:0:
284,360,44607,1,0,0:0:0:0:
476,288,44765,1,0,0:0:0:0:
372,284,44923,6,0,P|318:268|270:286,1,87.5,2|8,0:0|0:3,0:0:0:0:
268,296,45160,1,0,0:0:0:0:
268,296,45239,1,10,0:0:0:0:
20,344,45397,2,0,P|80:356|123:343,1,87.5,2|0,0:1|1:0,0:0:0:0:
122,335,45607,1,0,3:0:0:0:
133,317,45660,1,0,3:0:0:0:
136,299,45712,1,8,0:3:0:0:
213,134,45870,1,10,0:2:0:0:
48,40,46028,5,6,1:2:0:0:
164,52,46186,1,0,0:0:0:0:
280,68,46344,1,8,0:3:0:0:
444,172,46502,5,4,1:2:0:0:
292,192,46660,1,0,0:0:0:0:
136,200,46818,1,8,0:3:0:0:
20,324,46976,5,4,1:2:0:0:
264,356,47133,1,0,0:0:0:0:
504,376,47291,1,0,0:0:0:0:
381,384,47449,5,2,0:0:0:0:
251,268,47607,1,8,0:3:0:0:
420,219,47765,1,2,0:2:0:0:
348,295,47923,5,2,0:2:0:0:
160,358,48081,1,8,1:2:0:0:
37,207,48238,1,8,0:3:0:0:
127,46,48396,1,2,0:2:0:0:
131,53,48449,1,0,3:0:0:0:
135,60,48502,1,0,3:0:0:0:
138,67,48554,6,0,L|128:166,1,87.5,4|0,1:2|0:0,0:1:0:0:
37,207,48870,1,8,0:3:0:0:
127,259,49028,2,0,P|204:258|259:300,1,131.25,4|0,1:2|0:0,0:1:0:0:
289,352,49344,5,10,0:2:0:0:
384,379,49502,2,0,P|426:379|458:353,1,65.625,4|0,1:2|0:0,0:1:0:0:
465,343,49817,5,0,3:0:0:0:
474,309,49896,1,2,0:0:0:0:
471,274,49975,1,2,0:0:0:0:
449,246,50054,1,0,3:0:0:0:
412,229,50133,6,0,L|358:224,1,43.75,8|0,0:3|0:0,0:0:0:0:
245,104,50291,2,0,L|289:109,1,43.75,0|0,3:0|0:0,0:0:0:0:
149,24,50449,5,0,1:2:0:0:
36,173,50607,1,10,1:2:0:0:
210,200,50765,1,8,0:3:0:0:
132,126,50923,1,10,3:2:0:0:
232,288,51081,5,4,1:2:0:0:
324,125,51238,1,0,0:0:0:0:
324,125,51396,1,8,0:3:0:0:
288,353,51554,5,4,1:2:0:0:
352,52,51712,1,0,0:0:0:0:
352,52,51870,1,8,0:3:0:0:
367,370,52028,6,0,P|402:355|447:359,1,65.625,4|0,1:2|0:0,0:1:0:0:
463,366,52344,5,0,0:0:0:0:
391,251,52502,1,0,0:0:0:0:
391,251,52581,1,0,3:0:0:0:
391,251,52659,1,8,0:3:0:0:
436,121,52817,1,0,0:0:0:0:
256,276,52975,5,2,0:0:0:0:
219,345,53133,2,0,L|188:333,1,21.875,0|0,1:0|0:0,0:0:0:0:
130,370,53291,2,0,L|115:343,1,21.875,8|0,0:3|0:0,0:0:0:0:
48,332,53449,2,0,L|50:293,1,21.875,2|0,0:0|0:0,0:0:0:0:
3,242,53607,6,0,P|35:200|14:81,1,175,4|8,1:2|0:3,0:0:0:0:
18,85,54081,2,0,L|4:20,2,43.75,4|0|0,0:0|0:0|0:0,0:0:0:0:
70,146,54554,5,2,3:2:0:0:
70,146,54659,1,2,3:2:0:0:
70,146,54765,1,2,3:2:0:0:
70,146,54870,5,2,3:2:0:0:
131,197,55028,1,2,3:2:0:0:
146,119,55186,1,2,3:1:0:0:
70,146,55344,1,2,3:2:0:0:
160,299,55502,6,0,L|149:344,3,36.4583333333333,0|0|0|0,1:3|1:0|1:0|1:0,0:0:0:0:
213,180,55817,1,8,3:0:0:0:
236,374,55975,1,2,0:0:0:0:
131,197,56133,6,0,P|179:198|215:178,1,87.5,4|0,1:2|0:0,0:0:0:0:
256,122,56370,1,0,0:0:0:0:
256,122,56449,1,8,0:3:0:0:
275,250,56607,6,0,P|339:241|398:281,1,131.25,4|0,0:0|3:0,0:0:0:0:
432,340,57238,1,0,3:0:0:0:
432,340,57396,1,2,3:2:0:0:
496,313,57554,1,0,3:0:0:0:
476,243,57712,5,0,3:0:0:0:
493,138,57870,1,2,3:2:0:0:
404,59,58028,6,0,L|382:0,6,43.7500016689301,0|0|0|0|0|0|8,1:0|1:0|1:0|1:0|0:0|0:0|1:3,0:0:0:0:
400,90,58423,5,0,0:0:0:0:
390,119,58502,5,0,3:0:0:0:
385,126,58554,1,0,3:0:0:0:
380,133,58607,1,0,3:0:0:0:
376,137,58660,6,0,P|320:142|272:114,1,87.5,4|0,1:2|0:0,0:0:0:0:
277,116,58896,1,0,0:0:0:0:
260,80,58975,5,8,0:3:0:0:
117,22,59133,1,4,0:0:0:0:
44,57,59449,5,2,0:1:0:0:
44,57,59607,1,2,0:1:0:0:
44,57,60239,6,0,P|72:98|54:187,1,131.25,0|0,1:0|0:0,0:0:0:0:
19,236,60554,2,0,L|-25:220,3,29.1666666666667,0|0|0|0,1:0|1:0|1:0|1:0,0:0:0:0:
92,246,60870,5,0,1:0:0:0:
215,351,61028,1,0,1:0:0:0:
260,284,61186,6,0,P|183:343|81:307,1,175,4|8,1:2|0:3,0:0:0:0:
227,184,61660,6,0,P|304:125|406:161,1,175,4|8,0:2|0:3,0:0:0:0:
512,306,62133,6,2,P|435:365|333:329,1,175,4|0,0:0|0:0,0:1:0:0:
318,292,62962,5,0,0:0:0:0:
318,292,63120,1,0,0:0:0:0:
253,256,63344,1,0,0:0:0:0:
218,324,63594,1,0,3:0:0:0:
149,286,63923,1,0,3:0:0:0:
106,351,64344,5,4,0:3:0:0:
43,303,64502,2,0,L|25:256,2,43.75,8|8|8,0:3|0:3|3:2,0:0:0:0:
2,371,64817,5,0,3:0:0:0:
66,180,64975,5,14,3:3:0:0:
32,107,65133,1,0,0:0:0:0:
32,107,65212,1,0,0:0:0:0:
32,107,65291,1,8,0:0:0:0:
109,114,65449,1,0,0:0:0:0:
188,122,65607,5,0,0:0:0:0:
154,49,65765,1,0,0:0:0:0:
154,49,65844,1,0,0:0:0:0:
154,49,65923,1,8,0:0:0:0:
231,56,66081,1,0,0:0:0:0:
306,144,66238,5,0,0:0:0:0:
386,229,66396,1,0,0:0:0:0:
386,229,66475,1,0,0:0:0:0:
386,229,66554,1,8,0:0:0:0:
423,119,66712,1,0,0:0:0:0:
371,161,66870,5,10,3:3:0:0:
451,246,67028,1,0,0:0:0:0:
451,246,67107,1,0,0:0:0:0:
451,246,67186,1,8,0:0:0:0:
488,136,67344,1,0,0:0:0:0:
378,285,67502,5,14,3:3:0:0:
412,358,67660,1,0,0:0:0:0:
412,358,67739,1,0,0:0:0:0:
412,358,67818,1,8,0:0:0:0:
335,351,67976,1,0,0:0:0:0:
293,280,68134,5,6,3:3:0:0:
259,207,68292,1,0,0:0:0:0:
259,207,68371,1,0,0:0:0:0:
259,207,68450,1,8,0:0:0:0:
336,214,68608,1,0,0:0:0:0:
166,266,68765,5,12,3:3:0:0:
86,351,68923,1,0,0:0:0:0:
86,351,69002,1,0,0:0:0:0:
86,351,69081,1,8,0:0:0:0:
49,241,69239,1,0,0:0:0:0:
100,176,69397,5,12,3:3:0:0:
217,151,69554,1,0,0:0:0:0:
217,151,69632,1,0,0:0:0:0:
217,151,69712,1,8,0:0:0:0:
137,66,69870,1,2,3:3:0:0:
124,61,69949,1,8,3:3:0:0:
111,57,70028,5,6,2:3:0:0:
42,92,70186,1,0,2:0:0:0:
76,163,70344,2,0,B|64:191|64:191|81:260,1,87.5,8|0,2:2|2:0,0:0:0:0:
177,354,70659,5,0,2:0:0:0:
238,308,70817,1,0,2:2:0:0:
238,308,70896,1,0,0:0:0:0:
238,308,70975,1,8,2:2:0:0:
227,230,71133,1,0,2:0:0:0:
290,39,71291,5,6,2:2:0:0:
265,105,71449,1,0,2:0:0:0:
323,150,71607,1,8,2:2:0:0:
298,218,71765,1,2,2:2:0:0:
421,341,71923,5,2,2:1:0:0:
474,295,72081,1,2,2:0:0:0:
476,283,72133,1,2,2:0:0:0:
479,271,72186,1,2,2:0:0:0:
482,259,72238,1,8,2:2:0:0:
448,130,72396,5,2,2:2:0:0:
412,17,72554,5,4,2:2:0:0:
343,46,72712,1,2,2:2:0:0:
368,116,72870,1,8,2:2:0:0:
308,160,73028,1,2,2:2:0:0:
334,229,73186,5,4,2:2:0:0:
271,269,73344,1,2,2:2:0:0:
289,341,73502,1,8,2:2:0:0:
223,374,73659,1,2,2:2:0:0:
30,280,73817,5,4,3:3:0:0:
64,293,73896,1,2,3:2:0:0:
101,293,73975,1,2,3:2:0:0:
136,280,74054,1,2,3:2:0:0:
161,253,74133,6,0,P|170:227|167:190,1,43.75,10|2,3:2|3:2,0:0:0:0:
97,32,74291,2,0,P|88:58|91:95,1,43.75,2|2,3:2|3:2,0:0:0:0:
96,110,74449,5,2,3:2:0:0:
128,128,74528,1,2,3:2:0:0:
165,129,74607,1,2,3:2:0:0:
198,112,74686,1,2,3:2:0:0:
228,90,74765,6,0,P|265:70|319:69,1,87.5,8|0,0:2|0:0,0:0:0:0:
469,314,75081,6,0,P|426:350|307:288,1,196.875007510186,14|0,1:3|0:0,0:0:0:0:
294,216,75397,2,0,P|249:233|200:283,1,109.375,8|0,0:3|0:0,0:0:0:0:
153,374,75712,1,2,1:1:0:0:
10,222,75870,1,0,0:0:0:0:
10,222,75949,1,2,0:2:0:0:
10,222,76028,6,2,P|79:229|144:194,1,131.25,14|0,0:0|0:0,0:1:0:0:
152,190,76581,1,0,0:0:0:0:
167,174,76659,1,8,0:3:0:0:
334,125,76817,1,0,0:0:0:0:
334,125,76870,1,0,0:0:0:0:
334,125,76923,1,0,0:0:0:0:
334,125,76975,1,2,1:1:0:0:
490,164,77133,1,0,0:0:0:0:
490,164,77186,1,0,3:2:0:0:
490,164,77239,1,0,3:2:0:0:
490,164,77291,2,0,P|499:128|483:71,1,87.5,8|0,0:3|0:0,0:0:0:0:
348,11,77607,6,0,P|275:30|260:157,1,196.875007510186,2|0,1:1|0:0,0:0:0:0:
299,223,77923,2,0,P|326:188|327:104,1,109.375,8|2,0:3|0:0,0:0:0:0:
158,91,78238,1,2,1:1:0:0:
37,220,78396,1,2,1:0:0:0:
125,368,78554,6,2,P|179:385|261:355,1,131.25,8|0,0:3|0:0,0:1:0:0:
259,353,79107,1,0,0:0:0:0:
268,340,79186,1,8,0:3:0:0:
343,280,79344,5,0,0:0:0:0:
239,259,79502,1,2,1:1:0:0:
137,239,79659,1,2,1:0:0:0:
37,220,79817,1,8,0:3:0:0:
8,308,79975,1,2,0:2:0:0:
137,239,80133,6,0,P|165:169|96:72,1,196.875007510186,6|0,1:3|0:0,0:0:0:0:
37,220,80449,2,0,P|42:286|70:320,1,109.375,8|0,0:3|0:0,0:0:0:0:
205,375,80765,1,2,1:1:0:0:
347,247,80923,1,0,0:0:0:0:
488,353,81081,6,2,P|419:329|337:339,1,131.25000500679,14|0,0:2|0:0,0:1:0:0:
347,337,81633,1,0,0:0:0:0:
333,344,81712,6,0,P|293:315|193:305,1,131.25,8|0,0:3|0:0,0:0:0:0:
148,337,82028,1,2,1:2:0:0:
175,162,82186,1,2,1:2:0:0:
172,150,82238,1,2,3:2:0:0:
170,138,82291,1,2,3:2:0:0:
168,127,82344,1,8,0:3:0:0:
1,236,82502,1,2,0:2:0:0:
41,309,82660,6,0,P|109:318|183:260,1,157.499995193482,4|0,1:2|0:0,0:0:0:0:
430,218,82975,1,8,0:3:0:0:
430,218,83054,1,2,0:0:0:0:
430,218,83133,2,0,P|363:230|284:176,1,157.499995193482,4|0,1:2|0:0,0:0:0:0:
78,84,83449,1,8,0:3:0:0:
78,84,83528,1,2,0:0:0:0:
78,84,83607,6,0,P|145:96|218:44,1,153.125,4|0,1:2|0:0,0:0:0:0:
269,5,84238,1,8,0:3:0:0:
244,127,84396,1,0,3:2:0:0:
292,260,84554,1,2,1:2:0:0:
282,279,84633,1,0,2:2:0:0:
274,299,84712,1,0,1:2:0:0:
269,320,84791,1,0,3:2:0:0:
269,336,84870,6,0,P|259:277|229:232,1,98.4375037550928,8|0,0:3|0:0,0:0:0:0:
180,313,85186,6,0,P|257:342|358:261,1,196.875007510186,14|0,1:3|0:0,0:0:0:0:
406,202,85502,2,2,P|448:218|499:279,1,109.375,8|0,0:3|0:0,0:1:0:0:
400,371,85817,1,2,1:2:0:0:
279,179,85975,1,0,1:0:0:0:
468,19,86133,6,2,P|472:74|454:111,1,86.6249997356415,14|0,0:0|0:0,0:1:0:0:
451,111,86686,1,0,0:0:0:0:
441,118,86765,1,8,0:3:0:0:
232,113,86923,5,0,0:0:0:0:
250,92,86975,1,0,0:0:0:0:
275,80,87028,1,0,0:0:0:0:
303,77,87081,1,2,1:0:0:0:
286,280,87238,1,0,0:0:0:0:
268,301,87290,1,0,3:0:0:0:
243,313,87343,1,0,3:0:0:0:
215,316,87396,1,8,0:3:0:0:
55,237,87554,1,2,0:0:0:0:
8,61,87712,6,0,P|67:65|163:168,1,196.875007510186,2|0,1:1|0:0,0:0:0:0:
135,239,88028,2,0,P|188:235|238:194,1,109.375,8|2,0:3|0:0,0:0:0:0:
335,37,88344,1,2,1:2:0:0:
311,205,88502,1,0,1:0:0:0:
455,319,88659,6,2,P|385:323|331:354,1,131.25,8|0,0:3|0:0,0:1:0:0:
319,364,89212,1,0,0:0:0:0:
308,377,89291,1,8,0:3:0:0:
249,317,89449,5,2,0:0:0:0:
135,239,89607,1,2,1:1:0:0:
353,156,89765,1,2,1:2:0:0:
147,107,89923,1,8,0:3:0:0:
361,16,90081,1,2,0:1:0:0:
135,239,90239,6,0,P|86:271|10:261,1,131.25000500679,6|0,1:3|0:0,0:0:0:0:
353,156,90554,2,0,P|402:188|481:179,1,131.25000500679,8|0,0:3|0:0,0:0:0:0:
246,29,90870,1,2,1:1:0:0:
215,129,91028,1,0,0:0:0:0:
270,230,91186,6,2,P|277:279|271:320,1,86.6249997356415,14|0,0:2|0:0,0:1:0:0:
268,329,91738,1,0,0:0:0:0:
263,344,91817,1,8,0:3:0:0:
138,382,91975,1,0,0:0:0:0:
197,230,92133,5,2,1:2:0:0:
354,311,92291,1,2,1:2:0:0:
354,311,92344,1,0,3:0:0:0:
354,311,92396,1,0,3:0:0:0:
354,311,92449,2,0,P|412:326|465:316,1,87.5,8|2,0:3|0:2,0:0:0:0:
48,297,92765,6,0,P|103:283|198:335,1,157.499995193482,4|0,1:2|0:0,0:0:0:0:
451,178,93081,1,8,0:3:0:0:
451,178,93159,1,2,0:0:0:0:
451,178,93239,2,0,P|396:164|301:216,1,157.499995193482,4|0,1:2|0:0,0:0:0:0:
95,56,93554,1,8,0:3:0:0:
95,56,93633,1,2,0:0:0:0:
95,56,93712,6,0,P|150:42|240:91,1,153.125,4|0,1:2|0:0,0:0:0:0:
274,142,94344,5,8,0:3:0:0:
295,37,94502,1,0,3:2:0:0:
214,194,94659,1,2,1:2:0:0:
225,217,94738,1,0,3:2:0:0:
234,241,94817,1,0,1:2:0:0:
240,266,94896,1,0,3:2:0:0:
243,292,94975,2,0,P|287:260|371:258,1,131.25,8|0,0:3|0:0,0:0:0:0:
430,294,95291,5,6,0:3:0:0:
424,307,97817,1,0,2:0:0:0:
419,321,99081,1,0,2:0:0:0:
414,335,99712,1,0,2:0:0:0:
339,364,100344,5,2,2:3:0:0:
306,322,102870,5,0,2:0:0:0:
303,308,103502,1,0,2:0:0:0:
300,293,104133,1,0,2:0:0:0:
255,237,104765,5,2,2:2:0:0:
255,237,105081,5,8,2:2:0:0:
