osu file format v14

[General]
AudioFilename: nightbird lost wing.mp3
AudioLeadIn: 0
PreviewTime: 75081
Countdown: 0
SampleSet: None
StackLeniency: 0.4
Mode: 0
LetterboxInBreaks: 1
WidescreenStoryboard: 0

[Editor]
DistanceSpacing: 1.5
BeatDivisor: 4
GridSize: 4
TimelineZoom: 2.699999

[Metadata]
Title:nightbird lost wing
TitleUnicode:nightbird lost wing
Artist:Nekomata Master+
ArtistUnicode:猫叉Master+
Creator:[Mahua]
Version:Extra
Source:REFLEC BEAT colette
Tags:
BeatmapID:1758521
BeatmapSetID:840062

[Difficulty]
HPDrainRate:6.7
CircleSize:4.2
OverallDifficulty:8.3
ApproachRate:9
SliderMultiplier:1.82
SliderTickRate:2

[Events]
//Background and Video events
0,0,"bg.jpg",0,0
//Break Periods
//Storyboard Layer 0 (Background)
//Storyboard Layer 1 (Fail)
//Storyboard Layer 2 (Pass)
//Storyboard Layer 3 (Foreground)
//Storyboard Sound Samples

[TimingPoints]
555,315.789473684211,4,2,2,45,1,0
3081,-133.333333333333,4,2,2,45,0,0
8923,-200,4,2,2,45,0,0
10502,-133.333333333333,4,2,2,45,0,0
11923,-100,4,2,2,45,0,0
22028,-62.5,4,2,2,45,0,0
22502,-66.6666666666667,4,2,2,25,0,0
22660,-100,4,2,2,45,0,0
22976,-200,4,2,2,45,0,0
23291,-100,4,2,2,75,0,0
32133,-200,4,2,2,75,0,0
32449,-100,4,2,2,75,0,0
38449,-100,4,2,2,75,0,0
43186,-76.9230769230769,4,2,2,75,0,0
43502,-100,4,2,2,75,0,0
46976,-62.5,4,2,2,75,0,0
47607,-100,4,2,2,75,0,0
56607,-200,4,2,2,75,0,0
58028,-100,4,2,2,45,0,0
64976,-100,4,2,2,45,0,0
65133,-133.333333333333,4,2,2,45,0,0
70028,-133.333333333333,4,2,2,55,0,0
72555,-133.333333333333,4,2,2,65,0,0
73818,-133.333333333333,4,2,2,75,0,0
75081,-76.9230769230769,4,2,2,85,0,1
76028,-153.846153846154,4,2,2,85,0,1
76660,-76.9230769230769,4,2,2,85,0,1
78555,-153.846153846154,4,2,2,85,0,1
79186,-76.9230769230769,4,2,2,85,0,1
81081,-153.846153846154,4,2,2,85,0,1
81712,-76.9230769230769,4,2,2,85,0,1
83607,-153.846153846154,4,2,2,85,0,1
84239,-76.9230769230769,4,2,2,85,0,1
86133,-153.846153846154,4,2,2,85,0,1
86765,-76.9230769230769,4,2,2,85,0,1
88660,-153.846153846154,4,2,2,85,0,1
89291,-76.9230769230769,4,2,2,85,0,1
91186,-153.846153846154,4,2,2,85,0,1
91818,-76.9230769230769,4,2,2,85,0,1
93712,-200,4,2,2,85,0,1
94344,-76.9230769230769,4,2,2,85,0,1
94976,-100,4,2,2,85,0,1
95291,-133.333333333333,4,2,2,45,0,0

[Colours]
Combo1 : 248,7,170
Combo2 : 0,0,160
Combo3 : 149,18,199
Combo4 : 221,0,221

[HitObjects]
24,228,3081,6,0,L|32:304,1,68.250002603531,0|0,0:3|0:0,0:0:0:0:
88,352,3397,1,0,0:0:0:0:
184,160,3555,2,0,L|176:252,2,68.250002603531
0,96,4976,5,2,0:0:0:0:
0,96,5607,6,0,L|72:88,1,68.250002603531,0|0,0:3|0:0,0:0:0:0:
128,44,5923,1,0,0:0:0:0:
200,224,6081,2,0,L|116:216,2,68.250002603531,0|0|0,0:3|0:0|0:0,0:0:0:0:
364,136,6870,5,2,0:0:0:0:
388,52,7344,5,0,0:0:0:0:
448,112,7502,1,0,0:0:0:0:
432,192,7660,1,0,0:0:0:0:
352,220,7818,1,0,0:0:0:0:
300,284,7976,1,0,0:0:0:0:
304,292,8055,1,0,0:0:0:0:
312,300,8133,6,0,L|316:372,1,68.250002603531,0|0,0:3|0:0,0:0:0:0:
392,380,8449,1,0,0:0:0:0:
204,248,8607,2,0,L|208:168,1,68.250002603531,0|0,0:3|0:0,0:0:0:0:
120,28,8923,6,0,P|24:48|68:180,1,273,0|2,0:0|0:0,0:0:0:0:
124,228,10028,2,0,L|176:220,2,45.5
424,360,10502,5,0,0:0:0:0:
396,368,10581,1,0,0:0:0:0:
368,376,10660,2,0,L|284:360,1,68.250002603531,0|0,0:3|0:0,0:0:0:0:
252,296,10976,1,0,0:0:0:0:
472,172,11133,2,0,L|328:184,1,136.500005207062,0|2,0:3|0:0,0:0:0:0:
340,188,11923,6,0,P|348:164|364:92,1,60.6666666666667
360,292,12133,2,0,P|376:276|400:240,1,60.6666666666667
296,372,12344,2,0,L|376:368,1,60.6666666666667
368,360,12555,5,0,0:0:0:0:
376,368,12633,1,0,0:0:0:0:
312,340,12712,5,0,0:0:0:0:
244,324,12791,1,0,0:0:0:0:
176,332,12870,1,0,0:0:0:0:
116,360,12949,1,0,0:0:0:0:
48,344,13028,2,0,L|40:268,1,45.5
44,48,13186,5,4,0:3:0:0:
40,56,13344,1,0,0:0:0:0:
172,88,13502,1,0,0:0:0:0:
176,96,13660,1,0,0:0:0:0:
312,52,13818,1,0,0:0:0:0:
440,84,13976,1,0,0:0:0:0:
424,88,14055,2,0,L|412:132,1,45.5
488,196,14291,5,0,0:0:0:0:
480,200,14449,1,0,0:0:0:0:
408,220,14607,1,0,0:0:0:0:
400,224,14765,1,0,0:0:0:0:
328,240,14923,1,0,0:0:0:0:
320,244,15081,5,0,0:0:0:0:
472,288,15239,1,0,0:0:0:0:
472,288,15318,1,0,0:0:0:0:
472,288,15397,1,0,0:0:0:0:
240,256,15555,1,0,0:0:0:0:
476,188,15712,5,4,0:3:0:0:
480,196,15870,1,0,0:0:0:0:
348,228,16028,1,0,0:0:0:0:
344,236,16186,1,0,0:0:0:0:
208,192,16344,5,0,0:0:0:0:
72,224,16502,1,0,0:0:0:0:
88,228,16581,2,0,L|100:272,1,45.5
0,120,16818,5,0,0:0:0:0:
8,124,16976,2,0,L|16:156,2,22.75
88,136,17133,1,0,0:0:0:0:
96,140,17291,1,0,0:0:0:0:
172,152,17449,1,0,0:0:0:0:
180,156,17607,1,0,0:0:0:0:
256,168,17765,1,0,0:0:0:0:
264,172,17923,1,0,0:0:0:0:
428,208,18081,5,0,0:0:0:0:
468,194,18160,1,0,0:0:0:0:
496,169,18239,1,4,0:3:0:0:
508,92,18397,1,0,0:0:0:0:
465,31,18555,1,8,0:0:0:0:
387,13,18712,1,0,0:0:0:0:
319,52,18870,1,8,0:0:0:0:
305,132,19028,1,8,0:0:0:0:
349,199,19186,1,8,0:0:0:0:
364,280,19344,1,8,0:0:0:0:
328,348,19502,6,0,L|236:352,1,91,8|8,0:0|0:0,0:0:0:0:
280,272,19818,2,0,L|188:276,1,91,8|8,0:0|0:0,0:0:0:0:
160,356,20133,2,0,L|68:360,1,91,8|8,0:0|0:0,0:0:0:0:
112,280,20449,2,0,L|20:284,1,91,8|8,0:0|0:0,0:0:0:0:
16,280,20765,5,4,0:3:0:0:
0,192,20923,1,8,0:0:0:0:
172,224,21081,1,8,0:0:0:0:
152,336,21239,1,8,0:0:0:0:
320,292,21397,1,8,0:0:0:0:
308,140,21555,1,8,0:0:0:0:
472,176,21712,1,8,0:0:0:0:
440,368,21870,1,8,0:0:0:0:
372,328,21949,1,0,0:0:0:0:
440,288,22028,6,0,B|480:304|480:344|440:368|440:368|372:328|372:328|336:344,1,218.4,8|0,0:0|0:0,0:0:0:0:
332,348,22344,1,0,0:0:0:0:
264,292,22502,1,0,0:0:0:0:
260,276,22555,1,0,0:0:0:0:
256,256,22607,1,0,0:0:0:0:
272,208,22660,5,0,0:0:0:0:
248,288,22765,1,0,0:0:0:0:
220,360,22976,2,0,L|140:372,1,68.25
76,372,23291,6,0,P|4:324|20:220,1,182,4|8,0:3|0:0,0:0:0:0:
188,144,23765,2,0,P|192:204|172:248,1,91
4,152,24081,1,4,0:3:0:0:
4,152,24160,1,0,0:0:0:0:
4,152,24239,2,0,P|-4:100|24:52,1,91,8|0,0:0|0:0,0:0:0:0:
120,352,24555,6,0,L|0:368,1,91,4|0,0:3|0:0,0:0:0:0:
0,296,24765,2,0,L|4:264,3,30.3333333333333,0|0|0|8,0:0|0:0|0:0|0:0,0:0:0:0:
132,156,25028,1,0,0:0:0:0:
120,352,25186,1,0,0:0:0:0:
12,180,25344,2,0,L|-24:160,3,30.3333333333333,4|0|0|8,0:3|0:0|0:0|0:0,0:0:0:0:
196,264,25660,1,0,0:0:0:0:
196,264,25739,1,0,0:0:0:0:
196,264,25818,6,0,B|256:272|256:272|308:232|308:232|380:240,1,182,4|0,0:3|0:0,0:0:0:0:
440,208,26291,1,2,0:0:0:0:
348,316,26449,1,0,0:0:0:0:
432,292,26607,1,4,0:3:0:0:
432,292,26686,1,2,0:0:0:0:
432,292,26765,1,8,0:0:0:0:
376,160,26923,1,0,0:0:0:0:
448,32,27081,6,0,L|452:124,1,91,4|0,0:3|0:0,0:0:0:0:
296,104,27397,2,0,L|300:196,1,91,8|0,0:0|0:0,0:0:0:0:
148,152,27712,2,0,L|152:244,1,91,0|4,0:0|0:3,0:0:0:0:
144,248,27949,1,0,0:0:0:0:
136,252,28028,5,8,0:0:0:0:
48,212,28133,1,2,0:0:0:0:
32,124,28239,1,2,0:0:0:0:
52,36,28344,5,4,0:3:0:0:
260,200,28502,1,0,0:0:0:0:
260,200,28581,1,0,0:0:0:0:
260,200,28660,1,8,0:0:0:0:
52,328,28818,2,0,P|112:368|204:344,1,121.333333333333
228,324,29133,2,4,L|224:252,1,45.5,4|0,0:3|0:3,0:3:0:0:
196,105,29291,2,0,L|200:196,1,91,8|0,0:0|0:0,0:0:0:0:
248,40,29607,6,0,P|168:-8|60:16,1,182,4|8,0:3|0:0,0:0:0:0:
172,152,30081,1,0,0:0:0:0:
48,248,30239,2,0,P|92:264|176:240,1,136.5
184,232,30555,1,8,0:0:0:0:
0,104,30712,1,0,0:0:0:0:
0,332,30870,6,0,P|80:380|188:356,1,182,4|8,0:3|0:0,0:0:0:0:
304,204,31344,1,0,0:0:0:0:
92,44,31502,1,0,0:0:0:0:
268,352,31660,1,4,0:3:0:0:
268,352,31739,1,0,0:0:0:0:
268,352,31818,1,8,0:0:0:0:
500,128,31976,1,0,0:0:0:0:
424,296,32133,6,0,P|412:340|400:372,1,68.25,4|0,0:3|0:0,0:0:0:0:
400,368,32449,6,0,B|392:348|392:348|404:304,1,45.5,8|0,0:1|0:0,0:0:0:0:
508,196,32607,2,0,B|516:216|516:216|504:260,1,45.5,4|0,0:3|0:0,0:0:0:0:
472,344,32765,5,4,0:3:0:0:
400,368,32844,1,0,0:0:0:0:
324,352,32923,1,0,0:0:0:0:
248,368,33002,1,0,0:0:0:0:
228,300,33081,5,2,0:0:0:0:
156,324,33160,1,0,0:0:0:0:
80,308,33239,1,0,0:0:0:0:
4,324,33318,1,0,0:0:0:0:
20,248,33397,6,0,P|11:157|0:48,1,182,4|0,0:3|0:0,0:0:0:0:
184,16,33870,2,0,L|176:68|168:120,1,91,2|0,0:0|0:0,0:0:0:0:
128,344,34186,1,4,0:3:0:0:
128,344,34265,1,0,0:0:0:0:
128,344,34344,2,0,P|72:348|20:360,1,91,8|0,0:0|0:0,0:0:0:0:
296,216,34660,6,0,P|316:316|272:388,1,182,4|8,0:3|0:0,0:0:0:0:
208,296,35133,1,0,0:0:0:0:
278,382,35291,2,0,L|370:378,1,91,0|4,0:0|0:3,0:0:0:0:
384,364,35502,1,0,0:0:0:0:
396,352,35555,1,0,0:0:0:0:
408,340,35607,2,0,L|500:336,1,91,8|0,0:0|0:0,0:0:0:0:
492,320,35818,1,0,0:0:0:0:
484,300,35870,1,0,0:0:0:0:
476,280,35923,6,0,L|472:172,1,91,4|0,0:3|0:0,0:0:0:0:
252,92,36239,2,0,B|316:88|316:88|368:120|368:120|440:116,1,182,8|0,0:0|0:0,0:0:0:0:
508,120,36712,1,4,0:3:0:0:
508,120,36791,1,0,0:0:0:0:
508,120,36870,1,8,0:0:0:0:
460,44,37028,1,0,0:0:0:0:
472,189,37186,6,0,L|476:280,1,91,4|0,0:3|0:0,0:0:0:0:
320,228,37502,2,0,L|323:318,1,91,8|0,0:0|0:0,0:0:0:0:
176,264,37818,2,0,L|179:354,1,91,0|4,0:0|0:3,0:0:0:0:
176,360,38055,1,0,0:0:0:0:
176,368,38133,5,8,0:0:0:0:
84,368,38239,1,2,0:0:0:0:
12,320,38344,1,2,0:0:0:0:
8,232,38449,5,4,0:3:0:0:
108,92,38607,1,0,0:0:0:0:
116,96,38686,1,0,0:0:0:0:
124,100,38765,1,8,0:0:0:0:
176,264,38923,2,0,P|88:272|44:244,1,136.5
32,168,39239,2,0,P|60:172|96:180,1,45.5,4|0,0:3|0:0,0:0:0:0:
96,356,39397,2,0,L|-20:368,1,91,8|0,0:0|0:0,0:0:0:0:
228,340,39712,6,0,P|320:336|408:384,1,182,4|8,0:3|0:0,0:0:0:0:
288,104,40186,1,0,0:0:0:0:
484,276,40344,1,0,0:0:0:0:
64,184,40502,1,4,0:3:0:0:
40,172,40581,1,0,0:0:0:0:
16,160,40660,2,0,L|-4:48,1,91,8|0,0:0|0:0,0:0:0:0:
284,44,40976,6,0,P|192:48|104:0,1,182,4|8,0:3|0:0,0:0:0:0:
424,108,41449,2,0,L|416:184,1,45.5
340,224,41607,1,0,0:0:0:0:
316,264,41686,1,0,0:0:0:0:
316,308,41765,1,4,0:3:0:0:
336,348,41844,1,0,0:0:0:0:
376,372,41923,2,0,L|448:368,1,45.5,8|0,0:0|0:0,0:0:0:0:
208,280,42081,2,0,L|136:284,1,45.5
512,288,42239,6,0,L|360:296,1,136.5,4|0,0:3|0:0,0:0:0:0:
84,364,42555,2,0,B|135:361|135:361|176:348|176:348|236:348,1,136.5,8|0,0:0|0:0,0:0:0:0:
296,324,42870,5,0,0:0:0:0:
216,316,42949,1,0,0:3:0:0:
136,328,43028,1,0,0:3:0:0:
56,316,43107,1,0,0:3:0:0:
8,176,43186,2,0,B|48:168|48:168|96:184,1,59.149997292328,8|0,0:0|0:0,0:0:0:0:
240,228,43344,2,0,B|200:236|200:236|152:220,1,59.149997292328,8|0,0:0|0:0,0:0:0:0:
424,32,43502,5,4,0:3:0:0:
472,192,43660,1,0,0:0:0:0:
316,160,43818,1,8,0:0:0:0:
264,96,43976,5,4,0:3:0:0:
216,256,44134,1,0,0:0:0:0:
372,224,44292,1,8,0:0:0:0:
112,40,44449,5,4,0:3:0:0:
160,200,44607,1,0,0:0:0:0:
4,168,44765,1,0,0:0:0:0:
8,156,44844,1,0,0:0:0:0:
48,120,44923,1,4,0:3:0:0:
52,108,45002,1,0,0:0:0:0:
8,16,45081,6,0,L|16:72,1,45.5
36,220,45239,2,0,L|44:276,1,45.5,8|0,0:0|0:0,0:0:0:0:
28,352,45397,2,0,B|68:372|68:372|140:364,1,91,0|4,0:0|0:3,0:0:0:0:
136,360,45607,1,0,0:0:0:0:
156,352,45660,1,0,0:0:0:0:
176,344,45712,2,0,B|184:312|184:312|180:296,1,45.5,8|0,0:0|0:0,0:0:0:0:
36,220,45870,2,0,B|33:208|33:208|41:176,1,45.5
32,80,46028,6,0,P|120:56|216:136,1,182,4|0,3:1|0:0,0:0:0:0:
464,184,46423,1,0,0:0:0:0:
464,184,46502,6,0,P|384:168|280:236,1,182,4|0,3:1|0:0,0:0:0:0:
24,296,46897,1,0,0:0:0:0:
36,284,46976,6,0,P|148:272|248:368,1,218.4,4|0,0:0|0:0,0:0:0:0:
304,368,47291,2,0,L|328:208,1,136.5,0|4,0:0|0:3,0:0:0:0:
292,180,47528,1,0,0:0:0:0:
304,164,47607,5,8,0:0:0:0:
476,76,47765,1,8,0:0:0:0:
228,104,47923,5,2,0:0:0:0:
472,268,48081,1,4,0:3:0:0:
288,16,48239,5,8,0:0:0:0:
244,288,48397,1,0,0:0:0:0:
240,304,48449,1,0,0:0:0:0:
236,320,48502,1,0,0:0:0:0:
196,352,48555,5,4,0:3:0:0:
8,360,48712,1,0,0:0:0:0:
100,332,48870,1,8,0:0:0:0:
296,328,49028,1,4,3:1:0:0:
484,328,49185,1,0,0:0:0:0:
392,364,49343,1,8,0:0:0:0:
136,252,49502,6,0,P|112:168|116:64,1,182,8|0,0:0|0:0,0:0:0:0:
8,288,49976,1,4,0:3:0:0:
228,368,50133,2,0,P|284:356|344:360,1,91,8|8,0:0|0:0,0:0:0:0:
452,368,50449,5,2,0:0:0:0:
456,344,50607,1,4,0:3:0:0:
388,268,50765,1,10,0:0:0:0:
388,292,50923,1,4,0:3:0:0:
440,200,51081,5,4,3:1:0:0:
268,172,51239,1,0,0:0:0:0:
296,8,51397,1,0,0:0:0:0:
368,252,51555,5,4,3:1:0:0:
196,224,51713,1,0,0:0:0:0:
224,60,51871,1,8,0:0:0:0:
288,292,52028,6,0,B|220:316|220:316|168:308|168:308|88:328,1,182,12|0,0:0|0:0,0:0:0:0:
48,368,52502,1,4,0:3:0:0:
12,340,52581,1,0,0:0:0:0:
0,296,52660,1,8,0:1:0:0:
4,252,52739,1,0,0:0:0:0:
28,212,52818,1,8,0:0:0:0:
72,200,52897,1,0,0:0:0:0:
112,184,52976,1,2,0:0:0:0:
144,152,53055,1,0,0:0:0:0:
148,104,53133,6,0,L|144:44,1,45.5,4|0,3:3|0:0,0:0:0:0:
92,8,53291,1,8,0:1:0:0:
16,44,53370,1,0,3:0:0:0:
0,116,53449,1,0,3:0:0:0:
20,188,53528,1,0,3:0:0:0:
88,232,53607,6,0,P|152:248|232:200,1,136.5,4|0,3:2|0:0,0:0:0:0:
240,312,53923,2,0,L|232:360,2,45.5,8|0|4,0:0|0:0|3:2,0:0:0:0:
240,312,54555,5,0,0:0:0:0:
320,280,54660,1,0,0:0:0:0:
408,296,54765,1,0,0:0:0:0:
480,344,54871,1,0,0:0:0:0:
500,88,55028,5,0,0:0:0:0:
428,128,55186,1,0,0:0:0:0:
348,128,55344,1,0,0:0:0:0:
276,96,55502,2,0,L|232:100,4,22.75,4|0|0|0|8,3:0|3:0|3:0|3:0|3:1,0:0:0:0:
240,24,55818,1,4,3:0:0:0:
496,216,55976,1,8,0:1:0:0:
316,32,56133,5,4,3:2:0:0:
176,136,56291,1,0,0:0:0:0:
336,204,56449,1,8,0:0:0:0:
188,296,56607,2,0,P|116:336|60:328,1,136.5,0|0,3:0|0:0,0:0:0:0:
0,280,57239,5,0,0:0:0:0:
0,280,57397,1,0,0:0:0:0:
0,280,57555,1,0,0:0:0:0:
0,280,57712,1,0,0:0:0:0:
0,280,57870,1,0,0:0:0:0:
56,140,58028,6,0,L|48:116,1,22.75
84,132,58107,2,0,L|84:108,1,22.75
120,136,58186,2,0,L|118:110,1,22.75
148,144,58265,2,0,L|154:120,1,22.75
176,168,58344,1,0,0:0:0:0:
204,184,58423,1,0,0:0:0:0:
236,196,58502,5,8,0:0:0:0:
260,200,58555,1,0,0:0:0:0:
284,196,58607,1,0,0:0:0:0:
308,188,58660,2,0,P|328:144|316:60,1,121.333333333333,4|0,3:2|0:0,0:0:0:0:
256,28,58976,1,8,0:0:0:0:
500,240,59133,1,4,3:2:0:0:
212,292,59449,5,0,0:0:0:0:
224,364,59607,1,2,0:0:0:0:
288,320,60239,5,0,0:0:0:0:
148,344,60397,1,0,0:0:0:0:
12,308,60555,2,0,L|0:344,4,22.75,4|0|0|0|0,3:0|3:0|3:0|3:0|3:0,0:0:0:0:
72,372,60870,5,0,3:0:0:0:
272,224,61028,1,0,3:0:0:0:
56,44,61186,6,0,P|4:108|40:200,1,182,4|8,3:2|0:0,0:0:0:0:
456,340,61660,2,0,P|508:276|472:184,1,182,4|8,3:2|0:0,0:0:0:0:
256,384,62133,1,6,3:2:0:0:
256,192,62212,12,4,64976,0:3:0:0:
232,268,65133,5,0,0:0:0:0:
232,268,65212,1,0,0:0:0:0:
232,268,65291,2,0,L|224:340,1,68.250002603531,8|0,0:0|0:0,0:0:0:0:
124,204,65607,1,0,0:0:0:0:
76,280,65765,1,0,0:0:0:0:
76,280,65844,1,0,0:0:0:0:
76,280,65923,2,0,L|84:352,1,68.250002603531,8|0,0:0|0:0,0:0:0:0:
8,224,66239,5,0,0:0:0:0:
156,284,66555,1,8,0:0:0:0:
308,244,66870,1,2,0:0:0:0:
456,300,67186,1,8,0:0:0:0:
476,224,67502,5,4,3:0:0:0:
404,176,67660,1,0,0:0:0:0:
404,176,67739,1,0,0:0:0:0:
404,176,67818,2,0,L|396:108,1,68.250002603531,8|0,0:0|0:0,0:0:0:0:
280,228,68134,1,2,0:0:0:0:
220,168,68292,1,0,0:0:0:0:
220,168,68371,1,0,0:0:0:0:
220,168,68450,2,0,L|227:100,1,68.250002603531,8|0,0:0|0:0,0:0:0:0:
192,28,68765,5,2,0:0:0:0:
340,140,69081,1,8,0:0:0:0:
172,140,69397,1,2,0:0:0:0:
316,28,69712,1,8,0:0:0:0:
256,200,69870,5,0,0:0:0:0:
256,184,69949,1,0,0:0:0:0:
256,168,70028,1,4,3:2:0:0:
244,92,70186,1,0,0:0:0:0:
184,40,70344,1,8,0:0:0:0:
108,32,70502,1,0,0:0:0:0:
44,68,70660,1,8,0:0:0:0:
16,140,70818,1,0,3:0:0:0:
16,180,70897,1,0,0:0:0:0:
32,216,70976,1,8,0:0:0:0:
96,264,71133,1,8,0:0:0:0:
144,332,71291,5,0,0:0:0:0:
336,196,71449,1,8,0:0:0:0:
368,332,71607,1,8,0:0:0:0:
176,196,71765,1,8,0:0:0:0:
480,136,71923,5,8,0:0:0:0:
452,360,72081,2,0,L|484:372,3,22.7500008678437,10|0|0|8,0:0|0:0|0:0|0:0,0:0:0:0:
56,360,72397,1,8,0:0:0:0:
32,136,72555,5,4,3:0:0:0:
144,332,72712,1,8,0:0:0:0:
56,360,72870,1,8,0:0:0:0:
176,196,73028,1,8,0:0:0:0:
336,196,73186,1,8,0:0:0:0:
456,360,73344,1,8,0:0:0:0:
368,332,73502,1,8,0:0:0:0:
480,136,73659,1,8,0:0:0:0:
432,276,73818,5,0,0:0:0:0:
416,280,73897,1,0,0:0:0:0:
400,284,73976,1,8,0:0:0:0:
384,288,74055,1,0,0:0:0:0:
308,272,74133,5,8,0:0:0:0:
292,276,74212,1,0,0:0:0:0:
276,280,74291,1,8,0:0:0:0:
260,284,74370,1,0,0:0:0:0:
188,264,74449,5,8,0:0:0:0:
172,268,74528,1,0,0:0:0:0:
156,272,74607,1,8,0:0:0:0:
140,276,74686,1,0,0:0:0:0:
68,256,74765,5,0,0:0:0:0:
48,260,74923,1,0,0:0:0:0:
28,192,75081,5,6,3:1:0:0:
196,176,75239,1,0,0:0:0:0:
208,340,75397,2,10,P|128:368|80:352,1,118.299994584656,10|0,0:1|0:1,0:1:0:0:
56,68,75712,5,2,0:1:0:0:
216,136,75870,1,4,0:3:0:0:
140,288,76028,2,0,L|0:304,1,118.299994584656,8|0,0:1|0:0,0:0:0:0:
176,56,76502,1,2,0:0:0:0:
120,136,76660,6,0,P|228:144|268:80,1,157.733326112875,8|0,0:1|0:0,0:0:0:0:
272,40,76923,2,0,L|280:-8,1,39.4333315282187
76,52,77133,1,4,3:0:0:0:
176,244,77291,2,0,L|160:380,1,118.299994584656,8|0,0:1|0:1,0:1:0:0:
162,361,77528,1,0,0:0:0:0:
162,361,77607,6,0,P|242:373|322:297,1,177.449991876984,4|0,3:0|0:0,0:0:0:0:
392,316,77923,1,8,0:1:0:0:
284,240,78081,1,0,0:0:0:0:
384,120,78239,2,0,P|404:68|392:4,1,118.299994584656,2|4,0:0|3:0,0:0:0:0:
276,104,78476,1,0,0:0:0:0:
272,122,78555,6,0,L|284:246,1,118.299994584656,8|4,0:1|3:0,0:0:0:0:
468,344,79028,1,0,0:0:0:0:
468,344,79107,1,0,0:0:0:0:
468,344,79186,5,8,0:1:0:0:
328,368,79344,1,0,0:0:0:0:
464,180,79502,2,0,L|472:52,1,118.299994584656,0|4,0:0|3:3,0:0:0:0:
224,8,79818,1,8,0:1:0:0:
164,52,79897,1,0,0:0:0:0:
136,128,79976,1,0,0:0:0:0:
160,204,80055,1,0,0:0:0:0:
220,264,80133,6,0,P|156:348|64:328,1,177.449991876984,6|0,3:1|0:0,0:0:0:0:
36,284,80449,2,0,L|24:148,1,118.299994584656,10|0,3:1|0:0,0:0:0:0:
188,28,80765,1,2,2:1:0:0:
36,8,80923,1,4,3:0:0:0:
180,180,81081,6,0,P|244:200|300:164,1,118.299994584656,8|4,0:1|0:3,0:0:0:0:
352,20,81555,1,0,0:0:0:0:
232,120,81712,1,8,0:1:0:0:
340,252,81870,5,0,0:0:0:0:
340,252,81949,1,0,0:0:0:0:
340,252,82028,2,0,P|323:311|312:388,1,118.299994584656,0|4,0:0|0:3,0:0:0:0:
168,136,82265,1,0,0:0:0:0:
172,128,82344,2,0,P|184:76|200:-8,1,118.299994584656,8|4,0:1|0:3,0:0:0:0:
8,316,82660,6,2,P|72:368|176:336,1,177.449991876984,4|0,3:2|0:0,0:0:0:0:
360,208,82976,5,8,0:1:0:0:
372,128,83055,1,0,0:0:0:0:
384,44,83133,2,0,P|320:-8|216:24,1,177.449991876984,4|0,3:2|0:0,0:0:0:0:
184,148,83450,5,8,0:1:0:0:
174,239,83529,1,0,0:0:0:0:
162,331,83607,2,0,P|226:383|330:351,1,177.449991876984,4|0,3:2|0:0,0:0:0:0:
376,328,84160,1,0,0:0:0:0:
448,340,84239,5,8,0:0:0:0:
464,180,84397,1,0,0:0:0:0:
392,208,84476,1,0,0:0:0:0:
320,208,84555,1,0,0:0:0:0:
264,164,84633,1,0,0:0:0:0:
232,92,84712,2,0,L|220:24,2,59.149997292328,4|0|8,3:0|0:0|0:1,0:0:0:0:
328,96,85028,5,0,0:0:0:0:
328,96,85107,1,0,0:0:0:0:
328,96,85186,1,6,3:1:0:0:
136,64,85344,1,0,0:0:0:0:
120,256,85502,2,0,P|176:272|252:236,1,118.299994584656,10|0,0:1|0:0,0:0:0:0:
232,92,85818,5,0,0:0:0:0:
44,136,85976,1,0,0:0:0:0:
84,340,86133,2,0,L|216:368,1,118.299994584656,10|4,0:1|0:3,0:0:0:0:
320,40,86607,1,0,0:0:0:0:
400,104,86765,6,0,P|332:148|252:108,1,157.733326112875,10|0,0:1|0:0,0:0:0:0:
232,56,87028,2,0,L|236:-4,1,39.4333315282187
188,240,87239,2,0,L|128:232,3,39.4333315282187,4|0|0|8,3:0|0:0|0:0|0:1,0:0:0:0:
364,288,87555,1,0,0:0:0:0:
364,296,87633,1,0,0:0:0:0:
364,304,87712,6,0,P|432:368|524:336,1,177.449991876984,4|0,3:0|0:0,0:0:0:0:
452,280,88028,1,8,0:1:0:0:
276,336,88186,1,0,0:0:0:0:
220,152,88344,2,0,P|204:96|244:20,1,118.299994584656,0|4,0:0|3:0,0:0:0:0:
440,96,88581,1,0,0:0:0:0:
424,124,88660,6,0,L|280:112,1,118.299994584656,8|0,0:1|0:0,0:0:0:0:
120,88,89133,5,0,0:0:0:0:
112,92,89212,1,0,0:0:0:0:
104,96,89291,2,0,P|88:160|132:224,1,118.299994584656,8|0,0:1|0:0,0:0:0:0:
196,20,89607,1,0,0:0:0:0:
0,64,89765,1,0,3:0:0:0:
32,264,89923,1,8,0:1:0:0:
104,240,90002,1,0,0:0:0:0:
184,252,90081,1,0,0:0:0:0:
244,300,90160,1,0,0:0:0:0:
288,368,90239,6,0,P|340:336|324:208,1,177.449991876984,6|0,3:1|0:0,0:0:0:0:
320,140,90555,2,0,L|464:160,1,118.299994584656,8|0,0:1|0:0,0:0:0:0:
292,56,90870,1,0,0:0:0:0:
512,196,91028,1,4,3:0:0:0:
272,276,91186,6,0,L|124:292,1,118.299994584656,8|4,0:1|3:0,0:0:0:0:
80,336,91660,5,0,0:0:0:0:
160,152,91818,1,8,0:1:0:0:
0,252,91976,1,0,0:0:0:0:
184,284,92133,1,0,0:0:0:0:
56,144,92291,1,4,3:0:0:0:
56,144,92344,1,0,0:0:0:0:
56,144,92397,1,0,0:0:0:0:
60,148,92449,2,0,P|152:148|200:88,1,157.733326112875,8|0,0:1|0:0,0:0:0:0:
208,28,92765,5,4,3:2:0:0:
300,368,93081,5,8,0:1:0:0:
224,340,93160,1,0,0:0:0:0:
144,336,93239,1,4,3:2:0:0:
208,28,93555,5,8,0:1:0:0:
288,60,93634,1,0,0:0:0:0:
372,44,93712,2,0,L|512:56,1,136.5,4|0,0:0|0:0,0:0:0:0:
348,192,94344,1,8,0:0:0:0:
472,328,94502,5,0,0:0:0:0:
468,336,94581,1,0,0:0:0:0:
468,344,94660,1,0,0:0:0:0:
472,348,94739,1,0,0:0:0:0:
480,348,94818,1,0,0:0:0:0:
484,344,94897,1,0,0:0:0:0:
484,336,94976,2,0,P|380:324|300:372,1,182,8|4,0:0|3:2,0:0:0:0:
204,280,95449,5,0,0:0:0:0:
204,280,95528,1,0,0:0:0:0:
204,280,95607,2,0,L|208:352,1,68.250002603531,2|0,0:0|0:0,0:0:0:0:
124,256,95923,2,0,L|128:328,1,68.250002603531,2|0,0:0|0:0,0:0:0:0:
48,236,96239,2,0,L|52:308,1,68.250002603531,2|0,0:0|0:0,0:0:0:0:
48,236,96555,5,0,0:0:0:0:
124,256,96712,1,0,0:0:0:0:
204,280,96870,1,8,0:0:0:0:
204,280,97186,5,0,0:0:0:0:
288,312,97344,1,0,0:0:0:0:
288,312,97423,1,0,0:0:0:0:
288,312,97502,2,0,L|292:384,1,68.250002603531,8|0,0:0|0:0,0:0:0:0:
240,248,97818,5,0,0:0:0:0:
320,160,97975,1,0,0:0:0:0:
320,160,98054,1,0,0:0:0:0:
320,160,98133,2,0,L|316:232,1,68.250002603531,2|0,0:0|0:0,0:0:0:0:
400,136,98449,2,0,L|396:208,1,68.250002603531,2|0,0:0|0:0,0:0:0:0:
480,112,98765,2,0,L|476:184,1,68.250002603531,2|0,0:0|0:0,0:0:0:0:
480,112,99081,1,0,0:0:0:0:
400,136,99238,1,0,0:0:0:0:
320,160,99396,1,8,0:0:0:0:
320,160,99712,5,0,0:0:0:0:
244,188,99870,1,0,0:0:0:0:
244,188,99949,1,0,0:0:0:0:
244,188,100028,2,0,L|240:260,1,68.250002603531,8|0,0:0|0:0,0:0:0:0:
176,128,100344,5,2,0:0:0:0:
248,16,100502,1,0,0:0:0:0:
248,16,100581,1,0,0:0:0:0:
248,16,100660,2,0,L|252:88,1,68.250002603531,2|0,0:0|0:0,0:0:0:0:
160,52,100976,2,0,L|60:40,2,68.250002603531,0|0|8,0:0|0:0|0:0,0:0:0:0:
348,200,101607,2,0,L|448:188,2,68.250002603531,0|0|8,0:0|0:0|0:0,0:0:0:0:
208,372,102239,2,0,L|108:360,2,68.250002603531,0|0|8,0:0|0:0|0:0,0:0:0:0:
208,372,102712,1,0,0:0:0:0:
184,216,102870,6,0,P|104:216|48:256,1,136.500005207062,2|8,0:0|0:0,0:0:0:0:
28,312,103344,1,0,0:0:0:0:
108,136,103502,2,0,P|116:64|88:8,1,136.500005207062,2|8,0:0|0:0,0:0:0:0:
32,80,103976,1,0,0:0:0:0:
208,124,104133,2,0,P|244:138|280:140,1,68.250002603531
352,124,104370,1,0,0:0:0:0:
360,128,104449,1,8,0:0:0:0:
440,108,104607,1,0,0:0:0:0:
448,112,104686,1,0,0:0:0:0:
456,116,104765,1,0,0:0:0:0:
464,120,105081,5,0,0:0:0:0:
