osu file format v14

[General]
AudioFilename: encounter.mp3
AudioLeadIn: 0
PreviewTime: 42431
Countdown: 0
SampleSet: Normal
StackLeniency: 0.7
Mode: 1
LetterboxInBreaks: 0
WidescreenStoryboard: 0

[Editor]
Bookmarks: 12115,22220,27273,32325,37378,39904,42431,47483,52536,57589,62641,67694,72747,77799,94220,104325,109378,114431
DistanceSpacing: 1.1
BeatDivisor: 1
GridSize: 32
TimelineZoom: 1.100002

[Metadata]
Title:encounter
TitleUnicode:encounter
Artist:Nekomata Master+
ArtistUnicode:猫叉Master+
Creator:tasuke912
Version:Futsuu
Source:jubeat saucer fulfill
Tags:BEMANI OzzyOzrock Chromoxx jukebeat naoyuki sato
BeatmapID:1012644
BeatmapSetID:474003

[Difficulty]
HPDrainRate:7
CircleSize:4
OverallDifficulty:4
ApproachRate:5
SliderMultiplier:1.4
SliderTickRate:1

[Events]
//Background and Video events
0,0,"taiko bg.jpg",0,-50
//Break Periods
//Storyboard Layer 0 (Background)
//Storyboard Layer 1 (Fail)
//Storyboard Layer 2 (Pass)
//Storyboard Layer 3 (Foreground)
//Storyboard Sound Samples

[TimingPoints]
747,315.789473684211,4,1,0,60,1,0
12115,-100,4,1,0,65,0,0
22141,-100,4,1,0,75,0,0
22220,-100,4,1,0,80,0,1
37273,-100,4,1,0,50,0,1
37536,-100,4,1,0,50,0,0
39799,-100,4,1,0,65,0,0
42273,-100,4,1,0,70,0,0
42431,-100,4,1,0,75,0,0
62641,-100,4,1,0,75,0,1
82852,-100,4,1,0,75,0,0
83010,-100,4,1,0,55,0,0
85299,-100,4,1,0,60,0,0
86562,-100,4,1,0,65,0,0
87865,-100,4,1,0,70,0,0
92918,-100,4,1,0,60,0,0
94115,-100,4,1,0,70,0,0
94220,-100,4,1,0,80,0,1
114352,-100,4,1,0,55,0,1
114431,-100,4,1,0,40,0,0

[HitObjects]
256,192,2010,5,0,0:0:0:0:
256,192,2641,1,2,0:0:0:0:
256,192,3273,1,0,0:0:0:0:
256,192,3589,1,0,0:0:0:0:
256,192,3904,1,0,0:0:0:0:
256,192,4536,1,0,0:0:0:0:
256,192,5168,1,2,0:0:0:0:
256,192,5799,1,2,0:0:0:0:
256,192,6115,1,2,0:0:0:0:
256,192,6431,1,2,0:0:0:0:
256,192,7062,1,0,0:0:0:0:
256,192,7694,1,2,0:0:0:0:
256,192,8325,1,0,0:0:0:0:
256,192,8641,1,0,0:0:0:0:
256,192,8957,1,2,0:0:0:0:
256,192,9589,1,0,0:0:0:0:
256,192,10220,1,0,0:0:0:0:
256,192,10852,1,2,0:0:0:0:
256,192,12115,1,4,0:0:0:0:
256,192,12747,1,2,0:0:0:0:
256,192,13378,1,0,0:0:0:0:
256,192,13694,1,0,0:0:0:0:
256,192,14010,1,2,0:0:0:0:
256,192,14641,1,0,0:0:0:0:
256,192,15273,1,2,0:0:0:0:
256,192,15904,1,0,0:0:0:0:
256,192,16220,1,2,0:0:0:0:
256,192,16536,1,2,0:0:0:0:
256,192,17168,1,0,0:0:0:0:
256,192,17799,1,2,0:0:0:0:
256,192,18431,1,0,0:0:0:0:
256,192,18747,1,0,0:0:0:0:
256,192,19062,1,2,0:0:0:0:
256,192,19378,1,2,0:0:0:0:
256,192,19694,1,0,0:0:0:0:
256,192,20325,1,0,0:0:0:0:
256,192,20957,1,2,0:0:0:0:
256,192,22220,1,4,0:0:0:0:
256,192,22694,1,4,0:0:0:0:
256,192,23168,1,4,0:0:0:0:
256,192,23641,1,4,0:0:0:0:
256,192,24115,1,4,0:0:0:0:
256,192,24747,1,6,0:0:0:0:
256,192,25220,1,6,0:0:0:0:
256,192,25694,1,6,0:0:0:0:
256,192,26168,1,6,0:0:0:0:
256,192,26641,1,6,0:0:0:0:
256,192,27273,1,4,0:0:0:0:
256,192,27747,1,4,0:0:0:0:
256,192,28220,1,4,0:0:0:0:
256,192,28694,1,4,0:0:0:0:
256,192,29168,1,4,0:0:0:0:
256,192,29799,1,6,0:0:0:0:
256,192,30273,1,6,0:0:0:0:
256,192,30747,1,6,0:0:0:0:
256,192,31220,1,6,0:0:0:0:
256,192,31694,1,6,0:0:0:0:
256,192,32325,1,4,0:0:0:0:
256,192,32799,1,4,0:0:0:0:
256,192,33273,1,4,0:0:0:0:
256,192,33747,1,4,0:0:0:0:
256,192,34220,1,4,0:0:0:0:
256,192,34694,1,4,0:0:0:0:
256,192,35168,1,4,0:0:0:0:
256,192,35641,1,4,0:0:0:0:
256,192,36115,1,4,0:0:0:0:
256,192,36589,1,4,0:0:0:0:
256,192,37378,12,0,39589,0:0:0:0:
256,192,39904,5,0,0:0:0:0:
256,192,40325,1,2,0:0:0:0:
256,192,40536,1,2,0:0:0:0:
256,192,42431,1,4,0:0:0:0:
256,192,42904,1,0,0:0:0:0:
256,192,43378,1,0,0:0:0:0:
256,192,43694,1,2,0:0:0:0:
256,192,44325,1,0,0:0:0:0:
256,192,44483,1,0,0:0:0:0:
256,192,44641,1,0,0:0:0:0:
256,192,44957,1,0,0:0:0:0:
256,192,45431,1,0,0:0:0:0:
256,192,45904,1,0,0:0:0:0:
256,192,46220,1,2,0:0:0:0:
256,192,46852,1,2,0:0:0:0:
256,192,47010,1,2,0:0:0:0:
256,192,47168,1,2,0:0:0:0:
256,192,47483,1,4,0:0:0:0:
256,192,47957,1,0,0:0:0:0:
256,192,48431,1,0,0:0:0:0:
256,192,48747,1,2,0:0:0:0:
256,192,49378,1,2,0:0:0:0:
256,192,49536,1,2,0:0:0:0:
256,192,49694,1,0,0:0:0:0:
256,192,50010,1,0,0:0:0:0:
256,192,50483,1,2,0:0:0:0:
256,192,51273,1,0,0:0:0:0:
256,192,51747,1,2,0:0:0:0:
256,192,52536,1,4,0:0:0:0:
256,192,53010,1,0,0:0:0:0:
256,192,53483,1,0,0:0:0:0:
256,192,53799,1,2,0:0:0:0:
256,192,54431,1,0,0:0:0:0:
256,192,54589,1,0,0:0:0:0:
256,192,54747,1,0,0:0:0:0:
256,192,55062,1,0,0:0:0:0:
256,192,55536,1,0,0:0:0:0:
256,192,56010,1,0,0:0:0:0:
256,192,56325,1,2,0:0:0:0:
256,192,56957,1,2,0:0:0:0:
256,192,57115,1,2,0:0:0:0:
256,192,57273,1,2,0:0:0:0:
256,192,57589,1,4,0:0:0:0:
256,192,58062,1,0,0:0:0:0:
256,192,58536,1,0,0:0:0:0:
256,192,58852,1,2,0:0:0:0:
256,192,59483,1,2,0:0:0:0:
256,192,59641,1,2,0:0:0:0:
256,192,59799,1,0,0:0:0:0:
256,192,60115,1,0,0:0:0:0:
256,192,60589,1,2,0:0:0:0:
256,192,61378,1,2,0:0:0:0:
256,192,61852,1,2,0:0:0:0:
256,192,62641,1,0,0:0:0:0:
256,192,62878,1,0,0:0:0:0:
256,192,63115,1,0,0:0:0:0:
256,192,63589,1,0,0:0:0:0:
256,192,63825,1,0,0:0:0:0:
256,192,64062,1,0,0:0:0:0:
256,192,65168,1,2,0:0:0:0:
256,192,65404,1,2,0:0:0:0:
256,192,65641,1,2,0:0:0:0:
256,192,66115,1,2,0:0:0:0:
256,192,66352,1,2,0:0:0:0:
256,192,66589,1,2,0:0:0:0:
256,192,67694,1,0,0:0:0:0:
256,192,67931,1,0,0:0:0:0:
256,192,68168,1,0,0:0:0:0:
256,192,68641,1,0,0:0:0:0:
256,192,68878,1,0,0:0:0:0:
256,192,69115,1,0,0:0:0:0:
256,192,70220,1,2,0:0:0:0:
256,192,70457,1,2,0:0:0:0:
256,192,70694,1,2,0:0:0:0:
256,192,71168,1,2,0:0:0:0:
256,192,71404,1,2,0:0:0:0:
256,192,71641,1,2,0:0:0:0:
256,192,72747,1,0,0:0:0:0:
256,192,72983,1,0,0:0:0:0:
256,192,73220,1,0,0:0:0:0:
256,192,73694,1,0,0:0:0:0:
256,192,73931,1,0,0:0:0:0:
256,192,74168,1,0,0:0:0:0:
256,192,74641,1,2,0:0:0:0:
256,192,74957,1,2,0:0:0:0:
256,192,75273,1,0,0:0:0:0:
256,192,75510,1,0,0:0:0:0:
256,192,75747,1,0,0:0:0:0:
256,192,76220,1,2,0:0:0:0:
256,192,76457,1,2,0:0:0:0:
256,192,76694,1,2,0:0:0:0:
256,192,77168,1,2,0:0:0:0:
256,192,77483,1,0,0:0:0:0:
256,192,77799,1,2,0:0:0:0:
256,192,78036,1,2,0:0:0:0:
256,192,78272,1,2,0:0:0:0:
256,192,78746,1,2,0:0:0:0:
256,192,78983,1,2,0:0:0:0:
256,192,79220,1,2,0:0:0:0:
256,192,79694,1,0,0:0:0:0:
256,192,80010,1,0,0:0:0:0:
256,192,80325,1,2,0:0:0:0:
256,192,80562,1,2,0:0:0:0:
256,192,80799,1,2,0:0:0:0:
256,192,81273,1,0,0:0:0:0:
256,192,81510,1,0,0:0:0:0:
256,192,81747,1,0,0:0:0:0:
256,192,82220,1,0,0:0:0:0:
256,192,82536,1,2,0:0:0:0:
256,192,82852,1,6,0:0:0:0:
256,192,85378,1,2,0:0:0:0:
256,192,86641,1,2,0:0:0:0:
256,192,87904,1,0,0:0:0:0:
256,192,88220,1,2,0:0:0:0:
256,192,88852,1,2,0:0:0:0:
256,192,89168,1,0,0:0:0:0:
256,192,89483,1,2,0:0:0:0:
256,192,89799,1,0,0:0:0:0:
256,192,89957,1,0,0:0:0:0:
256,192,90115,1,2,0:0:0:0:
256,192,90431,1,0,0:0:0:0:
256,192,90747,1,2,0:0:0:0:
256,192,91062,1,0,0:0:0:0:
256,192,91220,1,2,0:0:0:0:
256,192,91378,1,0,0:0:0:0:
256,192,91536,1,2,0:0:0:0:
256,192,91694,1,0,0:0:0:0:
256,192,92325,1,2,0:0:0:0:
96,128,92957,2,2,L|384:64,1,280
256,192,94220,5,4,0:0:0:0:
256,192,94694,1,4,0:0:0:0:
256,192,95168,1,4,0:0:0:0:
256,192,95483,1,0,0:0:0:0:
256,192,95799,1,2,0:0:0:0:
256,192,96115,1,0,0:0:0:0:
256,192,96273,1,0,0:0:0:0:
256,192,96431,1,2,0:0:0:0:
256,192,96747,1,6,0:0:0:0:
256,192,97220,1,6,0:0:0:0:
256,192,97694,1,6,0:0:0:0:
256,192,98010,1,2,0:0:0:0:
256,192,98325,1,0,0:0:0:0:
256,192,98641,1,2,0:0:0:0:
256,192,98799,1,2,0:0:0:0:
256,192,98957,1,0,0:0:0:0:
256,192,99273,1,4,0:0:0:0:
256,192,99747,1,4,0:0:0:0:
256,192,100220,1,4,0:0:0:0:
256,192,100536,1,0,0:0:0:0:
256,192,100852,1,2,0:0:0:0:
256,192,101168,1,0,0:0:0:0:
256,192,101325,1,0,0:0:0:0:
256,192,101483,1,2,0:0:0:0:
256,192,101799,1,4,0:0:0:0:
256,192,102273,1,4,0:0:0:0:
256,192,103062,1,6,0:0:0:0:
256,192,103536,1,6,0:0:0:0:
256,192,104325,1,4,0:0:0:0:
256,192,104799,1,4,0:0:0:0:
256,192,105273,1,4,0:0:0:0:
256,192,105589,1,0,0:0:0:0:
256,192,105904,1,2,0:0:0:0:
256,192,106220,1,0,0:0:0:0:
256,192,106378,1,0,0:0:0:0:
256,192,106536,1,2,0:0:0:0:
256,192,106852,1,6,0:0:0:0:
256,192,107325,1,6,0:0:0:0:
256,192,107799,1,6,0:0:0:0:
256,192,108115,1,2,0:0:0:0:
256,192,108431,1,0,0:0:0:0:
256,192,108747,1,2,0:0:0:0:
256,192,108904,1,2,0:0:0:0:
256,192,109062,1,0,0:0:0:0:
256,192,109378,1,4,0:0:0:0:
256,192,109852,1,4,0:0:0:0:
256,192,110325,1,4,0:0:0:0:
256,192,110641,1,0,0:0:0:0:
256,192,110957,1,2,0:0:0:0:
256,192,111273,1,0,0:0:0:0:
256,192,111431,1,0,0:0:0:0:
256,192,111589,1,2,0:0:0:0:
256,192,111904,1,4,0:0:0:0:
256,192,112378,1,4,0:0:0:0:
256,192,113168,1,6,0:0:0:0:
256,192,113641,1,6,0:0:0:0:
256,192,114431,12,0,120325,0:0:0:0:
