osu file format v14

[General]
AudioFilename: audio.mp3
AudioLeadIn: 0
PreviewTime: 92958
Countdown: 0
SampleSet: Soft
StackLeniency: 0.7
Mode: 3
LetterboxInBreaks: 0
SpecialStyle: 1
WidescreenStoryboard: 1

[Editor]
Bookmarks: 7063,12116,42432,62642,72747,82853,101800,104326
DistanceSpacing: 0.8
BeatDivisor: 4
GridSize: 16
TimelineZoom: 2.650002

[Metadata]
Title:encounter
TitleUnicode:encounter
Artist:Nekomata Master+
ArtistUnicode:Nekomata Master+
Creator:pocket-Gao
Version:Another
Source:jubeat saucer fulfill
Tags:hmmm
BeatmapID:1563101
BeatmapSetID:740976

[Difficulty]
HPDrainRate:8
CircleSize:8
OverallDifficulty:8
ApproachRate:5
SliderMultiplier:1.4
SliderTickRate:1

[Events]
//Background and Video events
0,0,"59299191_p0.jpg",0,0
//Break Periods
//Storyboard Layer 0 (Background)
//Storyboard Layer 1 (Fail)
//Storyboard Layer 2 (Pass)
//Storyboard Layer 3 (Foreground)
//Storyboard Sound Samples

[TimingPoints]
747,315.789473684211,4,2,0,0,1,0
2011,315.789473684211,4,2,0,0,1,0
32326,-80,4,2,0,0,0,0
32642,-133.333333333333,4,2,0,0,0,0
32800,-80,4,2,0,0,0,0
33116,-133.333333333333,4,2,0,0,0,0
33274,-80,4,2,0,0,0,0
33589,-133.333333333333,4,2,0,0,0,0
33747,-80,4,2,0,0,0,0
34063,-133.333333333333,4,2,0,0,0,0
34221,-80,4,2,0,0,0,0
34537,-133.333333333333,4,2,0,0,0,0
34695,-66.6666666666667,4,2,0,0,0,0
35011,-133.333333333333,4,2,0,0,0,0
35168,-66.6666666666667,4,2,0,0,0,0
35484,-133.333333333333,4,2,0,0,0,0
35642,-80,4,2,0,0,0,0
35958,-133.333333333333,4,2,0,0,0,0
36058,-100,4,2,0,0,0,0
92958,-100,4,1,0,15,0,1
114432,-100,4,2,0,0,0,0

[HitObjects]
480,192,747,5,0,0:0:0:0:
352,192,747,1,0,0:0:0:0:
160,192,852,1,0,0:0:0:0:
160,192,1062,1,0,0:0:0:0:
160,192,1273,1,0,0:0:0:0:
288,192,1378,1,0,0:0:0:0:
416,192,1378,1,0,0:0:0:0:
160,192,1483,1,0,0:0:0:0:
224,192,1694,1,0,0:0:0:0:
96,192,1694,1,0,0:0:0:0:
352,192,1694,1,0,0:0:0:0:
288,192,1852,1,0,0:0:0:0:
32,192,2010,1,0,0:0:0:0:
160,192,2010,1,0,0:0:0:0:
288,192,2011,1,0,0:0:0:0:
416,192,2168,1,0,0:0:0:0:
224,192,2326,1,0,0:0:0:0:
96,192,2326,1,0,0:0:0:0:
416,192,2484,1,0,0:0:0:0:
416,192,2642,1,0,0:0:0:0:
288,192,2800,1,0,0:0:0:0:
160,192,2800,1,0,0:0:0:0:
96,192,2958,1,0,0:0:0:0:
224,192,3274,1,0,0:0:0:0:
96,192,3274,1,0,0:0:0:0:
416,192,3432,1,0,0:0:0:0:
288,192,3511,1,0,0:0:0:0:
352,192,3589,1,0,0:0:0:0:
288,192,3747,1,0,0:0:0:0:
160,192,3747,1,0,0:0:0:0:
416,192,3905,1,0,0:0:0:0:
288,192,3984,1,0,0:0:0:0:
352,192,4063,1,0,0:0:0:0:
224,192,4221,1,0,0:0:0:0:
96,192,4221,1,0,0:0:0:0:
352,192,4537,1,0,0:0:0:0:
160,192,4537,1,0,0:0:0:0:
160,192,4695,1,0,0:0:0:0:
416,192,4853,1,0,0:0:0:0:
288,192,4853,1,0,0:0:0:0:
96,192,5011,1,0,0:0:0:0:
96,192,5168,1,0,0:0:0:0:
352,192,5326,1,0,0:0:0:0:
224,192,5326,1,0,0:0:0:0:
160,192,5484,1,0,0:0:0:0:
224,192,5800,1,0,0:0:0:0:
480,192,5800,1,0,0:0:0:0:
352,192,5800,1,0,0:0:0:0:
224,192,5958,1,0,0:0:0:0:
160,192,6037,1,0,0:0:0:0:
416,192,6116,1,0,0:0:0:0:
288,192,6116,1,0,0:0:0:0:
224,192,6274,1,0,0:0:0:0:
480,192,6274,1,0,0:0:0:0:
160,192,6353,1,0,0:0:0:0:
288,192,6432,1,0,0:0:0:0:
160,192,6511,1,0,0:0:0:0:
224,192,6589,1,0,0:0:0:0:
96,192,6589,1,0,0:0:0:0:
416,192,6747,1,0,0:0:0:0:
288,192,6905,1,0,0:0:0:0:
480,192,7063,1,0,0:0:0:0:
224,192,7063,1,0,0:0:0:0:
480,192,7221,1,0,0:0:0:0:
224,192,7221,1,0,0:0:0:0:
288,192,7379,1,0,0:0:0:0:
416,192,7379,1,0,0:0:0:0:
96,192,7379,1,0,0:0:0:0:
480,192,7537,1,0,0:0:0:0:
224,192,7537,1,0,0:0:0:0:
416,192,7616,1,0,0:0:0:0:
480,192,7695,1,0,0:0:0:0:
224,192,7695,1,0,0:0:0:0:
352,192,7774,1,0,0:0:0:0:
288,192,7853,1,0,0:0:0:0:
416,192,7853,1,0,0:0:0:0:
160,192,7853,1,0,0:0:0:0:
96,192,8011,1,0,0:0:0:0:
480,192,8326,1,0,0:0:0:0:
224,192,8326,1,0,0:0:0:0:
96,192,8326,1,0,0:0:0:0:
416,192,8405,1,0,0:0:0:0:
480,192,8484,1,0,0:0:0:0:
224,192,8484,1,0,0:0:0:0:
352,192,8563,1,0,0:0:0:0:
416,192,8642,1,0,0:0:0:0:
288,192,8642,1,0,0:0:0:0:
480,192,8800,1,0,0:0:0:0:
224,192,8800,1,0,0:0:0:0:
160,192,8800,1,0,0:0:0:0:
352,192,8879,1,0,0:0:0:0:
480,192,8958,1,0,0:0:0:0:
224,192,8958,1,0,0:0:0:0:
352,192,9037,1,0,0:0:0:0:
288,192,9116,1,0,0:0:0:0:
416,192,9116,1,0,0:0:0:0:
224,192,9274,1,0,0:0:0:0:
96,192,9274,1,0,0:0:0:0:
352,192,9274,1,0,0:0:0:0:
416,192,9379,1,0,0:0:0:0:
416,192,9484,1,0,0:0:0:0:
96,192,9589,1,0,0:0:0:0:
224,192,9589,1,0,0:0:0:0:
96,192,9747,1,0,0:0:0:0:
224,192,9747,1,0,0:0:0:0:
352,192,9747,1,0,0:0:0:0:
288,192,9905,1,0,0:0:0:0:
96,192,10063,1,0,0:0:0:0:
224,192,10063,1,0,0:0:0:0:
352,192,10142,1,0,0:0:0:0:
96,192,10221,1,0,0:0:0:0:
224,192,10221,1,0,0:0:0:0:
352,192,10300,1,0,0:0:0:0:
160,192,10379,1,0,0:0:0:0:
288,192,10379,1,0,0:0:0:0:
416,192,10537,1,0,0:0:0:0:
352,192,10853,1,0,0:0:0:0:
224,192,10853,1,0,0:0:0:0:
96,192,10853,1,0,0:0:0:0:
288,192,10932,1,0,0:0:0:0:
352,192,11011,1,0,0:0:0:0:
224,192,11011,1,0,0:0:0:0:
288,192,11089,1,0,0:0:0:0:
416,192,11168,1,0,0:0:0:0:
160,192,11168,1,0,0:0:0:0:
352,192,11326,1,0,0:0:0:0:
224,192,11326,1,0,0:0:0:0:
96,192,11326,1,0,0:0:0:0:
288,192,11405,1,0,0:0:0:0:
352,192,11484,1,0,0:0:0:0:
224,192,11484,1,0,0:0:0:0:
288,192,11563,1,0,0:0:0:0:
96,192,11642,1,0,0:0:0:0:
480,192,11642,1,0,0:0:0:0:
416,192,11800,1,0,0:0:0:0:
288,192,11800,1,0,0:0:0:0:
160,192,11800,1,0,0:0:0:0:
416,192,11905,1,0,0:0:0:0:
416,192,12011,1,0,0:0:0:0:
32,192,12116,5,0,0:0:0:0:
96,192,12116,1,0,0:0:0:0:
224,192,12116,1,0,0:0:0:0:
352,192,12116,1,0,0:0:0:0:
416,192,12274,1,0,0:0:0:0:
288,192,12274,1,0,0:0:0:0:
288,192,12432,1,0,0:0:0:0:
160,192,12432,1,0,0:0:0:0:
480,192,12432,1,0,0:0:0:0:
352,192,12589,1,0,0:0:0:0:
224,192,12589,1,0,0:0:0:0:
288,192,12747,1,0,0:0:0:0:
160,192,12747,1,0,0:0:0:0:
352,192,12826,1,0,0:0:0:0:
224,192,12905,1,0,0:0:0:0:
96,192,12905,1,0,0:0:0:0:
288,192,13063,1,0,0:0:0:0:
96,192,13379,1,0,0:0:0:0:
224,192,13379,1,0,0:0:0:0:
352,192,13379,1,0,0:0:0:0:
416,192,13458,1,0,0:0:0:0:
288,192,13537,1,0,0:0:0:0:
352,192,13537,1,0,0:0:0:0:
224,192,13616,1,0,0:0:0:0:
416,192,13695,1,0,0:0:0:0:
288,192,13695,1,0,0:0:0:0:
480,192,13853,1,0,0:0:0:0:
352,192,13853,1,0,0:0:0:0:
224,192,13853,1,0,0:0:0:0:
160,192,13932,1,0,0:0:0:0:
96,192,14011,1,0,0:0:0:0:
224,192,14011,1,0,0:0:0:0:
288,192,14089,1,0,0:0:0:0:
352,192,14168,1,0,0:0:0:0:
480,192,14168,1,0,0:0:0:0:
416,192,14326,1,0,0:0:0:0:
224,192,14326,1,0,0:0:0:0:
96,192,14326,1,0,0:0:0:0:
288,192,14642,1,0,0:0:0:0:
160,192,14642,1,0,0:0:0:0:
160,192,14800,1,0,0:0:0:0:
352,192,14800,1,0,0:0:0:0:
416,192,14958,1,0,0:0:0:0:
288,192,14958,1,0,0:0:0:0:
96,192,14958,1,0,0:0:0:0:
224,192,15116,1,0,0:0:0:0:
352,192,15116,1,0,0:0:0:0:
288,192,15274,1,0,0:0:0:0:
416,192,15353,1,0,0:0:0:0:
480,192,15432,1,0,0:0:0:0:
352,192,15432,1,0,0:0:0:0:
160,192,15432,1,0,0:0:0:0:
96,192,15589,1,0,0:0:0:0:
224,192,15589,1,0,0:0:0:0:
480,192,15905,1,0,0:0:0:0:
352,192,15905,1,0,0:0:0:0:
160,192,15905,1,0,0:0:0:0:
224,192,15984,5,0,0:0:0:0:
160,192,16063,1,0,0:0:0:0:
352,192,16063,1,0,0:0:0:0:
288,192,16142,1,0,0:0:0:0:
224,192,16221,1,0,0:0:0:0:
352,192,16221,1,0,0:0:0:0:
416,192,16379,5,0,0:0:0:0:
96,192,16379,1,0,0:0:0:0:
288,192,16379,1,0,0:0:0:0:
352,192,16458,1,0,0:0:0:0:
416,192,16537,1,0,0:0:0:0:
224,192,16537,1,0,0:0:0:0:
288,192,16616,1,0,0:0:0:0:
352,192,16695,1,0,0:0:0:0:
224,192,16695,1,0,0:0:0:0:
288,192,16853,1,0,0:0:0:0:
160,192,16853,1,0,0:0:0:0:
416,192,16853,1,0,0:0:0:0:
288,192,17011,1,0,0:0:0:0:
96,192,17011,1,0,0:0:0:0:
352,192,17089,1,0,0:0:0:0:
32,192,17168,5,0,0:0:0:0:
416,192,17168,1,0,0:0:0:0:
224,192,17168,1,0,0:0:0:0:
480,192,17247,1,0,0:0:0:0:
160,192,17247,1,0,0:0:0:0:
416,192,17326,1,0,0:0:0:0:
224,192,17326,1,0,0:0:0:0:
352,192,17405,1,0,0:0:0:0:
160,192,17405,1,0,0:0:0:0:
416,192,17484,1,0,0:0:0:0:
224,192,17484,1,0,0:0:0:0:
96,192,17484,1,0,0:0:0:0:
416,192,17642,1,0,0:0:0:0:
288,192,17642,1,0,0:0:0:0:
352,192,17721,1,0,0:0:0:0:
96,192,17800,1,0,0:0:0:0:
352,192,17879,1,0,0:0:0:0:
416,192,17958,1,0,0:0:0:0:
288,192,17958,1,0,0:0:0:0:
160,192,17958,1,0,0:0:0:0:
96,192,18116,1,0,0:0:0:0:
96,192,18432,1,0,0:0:0:0:
224,192,18432,1,0,0:0:0:0:
352,192,18432,1,0,0:0:0:0:
160,192,18511,1,0,0:0:0:0:
288,192,18589,1,0,0:0:0:0:
416,192,18589,1,0,0:0:0:0:
160,192,18668,1,0,0:0:0:0:
96,192,18747,1,0,0:0:0:0:
224,192,18747,1,0,0:0:0:0:
480,192,18905,1,0,0:0:0:0:
352,192,18905,1,0,0:0:0:0:
288,192,18905,1,0,0:0:0:0:
416,192,19063,1,0,0:0:0:0:
224,192,19063,1,0,0:0:0:0:
352,192,19142,1,0,0:0:0:0:
416,192,19221,1,0,0:0:0:0:
224,192,19221,1,0,0:0:0:0:
288,192,19379,1,0,0:0:0:0:
96,192,19379,1,0,0:0:0:0:
160,192,19379,1,0,0:0:0:0:
416,192,19695,1,0,0:0:0:0:
224,192,19695,1,0,0:0:0:0:
288,192,19853,1,0,0:0:0:0:
160,192,19853,1,0,0:0:0:0:
480,192,20011,1,0,0:0:0:0:
224,192,20011,1,0,0:0:0:0:
352,192,20011,1,0,0:0:0:0:
288,192,20168,1,0,0:0:0:0:
160,192,20168,1,0,0:0:0:0:
416,192,20326,1,0,0:0:0:0:
352,192,20405,1,0,0:0:0:0:
416,192,20484,1,0,0:0:0:0:
96,192,20484,1,0,0:0:0:0:
224,192,20484,1,0,0:0:0:0:
480,192,20642,1,0,0:0:0:0:
352,192,20642,1,0,0:0:0:0:
288,192,20958,1,0,0:0:0:0:
96,192,20958,1,0,0:0:0:0:
352,192,20958,1,0,0:0:0:0:
416,192,21116,1,0,0:0:0:0:
288,192,21116,1,0,0:0:0:0:
224,192,21116,1,0,0:0:0:0:
96,192,21274,1,0,0:0:0:0:
352,192,21274,1,0,0:0:0:0:
224,192,21274,1,0,0:0:0:0:
416,192,21432,1,0,0:0:0:0:
288,192,21432,1,0,0:0:0:0:
96,192,21432,1,0,0:0:0:0:
480,192,21589,1,0,0:0:0:0:
352,192,21589,1,0,0:0:0:0:
416,192,21668,1,0,0:0:0:0:
224,192,21668,1,0,0:0:0:0:
480,192,21747,1,0,0:0:0:0:
352,192,21747,1,0,0:0:0:0:
416,192,21826,1,0,0:0:0:0:
224,192,21826,1,0,0:0:0:0:
480,192,21905,1,0,0:0:0:0:
288,192,21905,1,0,0:0:0:0:
96,192,22063,1,0,0:0:0:0:
32,192,22221,5,0,0:0:0:0:
96,192,22221,1,0,0:0:0:0:
224,192,22221,1,0,0:0:0:0:
288,192,22300,1,0,0:0:0:0:
352,192,22379,1,0,0:0:0:0:
416,192,22458,1,0,0:0:0:0:
480,192,22537,1,0,0:0:0:0:
288,192,22537,1,0,0:0:0:0:
32,192,22695,1,0,0:0:0:0:
96,192,22695,1,0,0:0:0:0:
224,192,22695,1,0,0:0:0:0:
288,192,22774,1,0,0:0:0:0:
352,192,22853,1,0,0:0:0:0:
416,192,22932,1,0,0:0:0:0:
352,192,23011,1,0,0:0:0:0:
480,192,23011,1,0,0:0:0:0:
32,192,23168,1,0,0:0:0:0:
288,192,23168,1,0,0:0:0:0:
160,192,23168,1,0,0:0:0:0:
352,192,23247,1,0,0:0:0:0:
416,192,23326,1,0,0:0:0:0:
480,192,23405,1,0,0:0:0:0:
416,192,23484,1,0,0:0:0:0:
288,192,23484,1,0,0:0:0:0:
32,192,23642,1,0,0:0:0:0:
224,192,23642,1,0,0:0:0:0:
96,192,23642,1,0,0:0:0:0:
288,192,23721,1,0,0:0:0:0:
160,192,23721,1,0,0:0:0:0:
352,192,23800,1,0,0:0:0:0:
224,192,23800,1,0,0:0:0:0:
416,192,23879,1,0,0:0:0:0:
160,192,23958,1,0,0:0:0:0:
352,192,23958,1,0,0:0:0:0:
32,192,24116,1,0,0:0:0:0:
96,192,24116,1,0,0:0:0:0:
224,192,24116,1,0,0:0:0:0:
160,192,24195,1,0,0:0:0:0:
352,192,24274,1,0,0:0:0:0:
224,192,24353,1,0,0:0:0:0:
288,192,24432,1,0,0:0:0:0:
416,192,24432,1,0,0:0:0:0:
160,192,24511,1,0,0:0:0:0:
288,192,24589,1,0,0:0:0:0:
224,192,24668,1,0,0:0:0:0:
32,192,24747,1,0,0:0:0:0:
352,192,24747,1,0,0:0:0:0:
480,192,24747,1,0,0:0:0:0:
288,192,24826,1,0,0:0:0:0:
224,192,24905,1,0,0:0:0:0:
160,192,24984,1,0,0:0:0:0:
96,192,25063,1,0,0:0:0:0:
288,192,25063,1,0,0:0:0:0:
32,192,25221,1,0,0:0:0:0:
480,192,25221,1,0,0:0:0:0:
352,192,25221,1,0,0:0:0:0:
288,192,25300,1,0,0:0:0:0:
224,192,25379,1,0,0:0:0:0:
160,192,25458,1,0,0:0:0:0:
96,192,25537,1,0,0:0:0:0:
224,192,25537,1,0,0:0:0:0:
32,192,25695,1,0,0:0:0:0:
416,192,25695,1,0,0:0:0:0:
288,192,25695,1,0,0:0:0:0:
224,192,25774,1,0,0:0:0:0:
160,192,25853,1,0,0:0:0:0:
96,192,25932,1,0,0:0:0:0:
160,192,26011,1,0,0:0:0:0:
288,192,26011,1,0,0:0:0:0:
32,192,26168,1,0,0:0:0:0:
480,192,26168,1,0,0:0:0:0:
352,192,26168,1,0,0:0:0:0:
288,192,26247,1,0,0:0:0:0:
224,192,26326,1,0,0:0:0:0:
416,192,26326,1,0,0:0:0:0:
160,192,26405,1,0,0:0:0:0:
352,192,26405,1,0,0:0:0:0:
224,192,26484,1,0,0:0:0:0:
416,192,26484,1,0,0:0:0:0:
32,192,26642,1,0,0:0:0:0:
480,192,26642,1,0,0:0:0:0:
352,192,26642,1,0,0:0:0:0:
224,192,26642,1,0,0:0:0:0:
96,192,26800,1,0,0:0:0:0:
224,192,26879,1,0,0:0:0:0:
352,192,26958,1,0,0:0:0:0:
96,192,26958,1,0,0:0:0:0:
96,192,27116,1,0,0:0:0:0:
224,192,27195,1,0,0:0:0:0:
32,192,27274,1,0,0:0:0:0:
96,192,27274,1,0,0:0:0:0:
352,192,27274,1,0,0:0:0:0:
288,192,27353,1,0,0:0:0:0:
224,192,27432,1,0,0:0:0:0:
288,192,27511,1,0,0:0:0:0:
352,192,27589,1,0,0:0:0:0:
160,192,27589,1,0,0:0:0:0:
32,192,27747,1,0,0:0:0:0:
96,192,27747,1,0,0:0:0:0:
416,192,27747,1,0,0:0:0:0:
352,192,27826,1,0,0:0:0:0:
288,192,27905,1,0,0:0:0:0:
352,192,27984,1,0,0:0:0:0:
416,192,28063,1,0,0:0:0:0:
224,192,28063,1,0,0:0:0:0:
32,192,28221,1,0,0:0:0:0:
96,192,28221,1,0,0:0:0:0:
352,192,28221,1,0,0:0:0:0:
288,192,28300,1,0,0:0:0:0:
224,192,28379,1,0,0:0:0:0:
288,192,28458,1,0,0:0:0:0:
352,192,28537,1,0,0:0:0:0:
160,192,28537,1,0,0:0:0:0:
32,192,28695,1,0,0:0:0:0:
416,192,28695,1,0,0:0:0:0:
96,192,28695,1,0,0:0:0:0:
352,192,28774,1,0,0:0:0:0:
224,192,28774,1,0,0:0:0:0:
288,192,28853,1,0,0:0:0:0:
416,192,28853,1,0,0:0:0:0:
160,192,28932,1,0,0:0:0:0:
224,192,29011,1,0,0:0:0:0:
352,192,29011,1,0,0:0:0:0:
160,192,29089,1,0,0:0:0:0:
288,192,29168,1,0,0:0:0:0:
32,192,29168,1,0,0:0:0:0:
96,192,29168,1,0,0:0:0:0:
352,192,29247,1,0,0:0:0:0:
416,192,29326,1,0,0:0:0:0:
352,192,29405,1,0,0:0:0:0:
288,192,29484,1,0,0:0:0:0:
160,192,29484,1,0,0:0:0:0:
96,192,29563,1,0,0:0:0:0:
160,192,29642,1,0,0:0:0:0:
224,192,29721,1,0,0:0:0:0:
32,192,29800,1,0,0:0:0:0:
288,192,29800,1,0,0:0:0:0:
416,192,29800,1,0,0:0:0:0:
224,192,29879,1,0,0:0:0:0:
288,192,29958,1,0,0:0:0:0:
160,192,30037,1,0,0:0:0:0:
224,192,30116,1,0,0:0:0:0:
96,192,30116,1,0,0:0:0:0:
32,192,30274,1,0,0:0:0:0:
288,192,30274,1,0,0:0:0:0:
416,192,30274,1,0,0:0:0:0:
224,192,30353,1,0,0:0:0:0:
288,192,30432,1,0,0:0:0:0:
160,192,30511,1,0,0:0:0:0:
96,192,30589,1,0,0:0:0:0:
224,192,30589,1,0,0:0:0:0:
32,192,30747,1,0,0:0:0:0:
352,192,30747,1,0,0:0:0:0:
480,192,30747,1,0,0:0:0:0:
224,192,30826,1,0,0:0:0:0:
288,192,30905,1,0,0:0:0:0:
160,192,30984,1,0,0:0:0:0:
224,192,31063,1,0,0:0:0:0:
96,192,31063,1,0,0:0:0:0:
32,192,31221,1,0,0:0:0:0:
416,192,31221,1,0,0:0:0:0:
288,192,31221,1,0,0:0:0:0:
224,192,31300,1,0,0:0:0:0:
352,192,31300,1,0,0:0:0:0:
160,192,31379,1,0,0:0:0:0:
416,192,31379,1,0,0:0:0:0:
96,192,31458,1,0,0:0:0:0:
288,192,31537,1,0,0:0:0:0:
160,192,31537,1,0,0:0:0:0:
352,192,31616,1,0,0:0:0:0:
32,192,31695,1,0,0:0:0:0:
224,192,31695,1,0,0:0:0:0:
96,192,31695,1,0,0:0:0:0:
288,192,31774,1,0,0:0:0:0:
352,192,31853,1,0,0:0:0:0:
160,192,31853,1,0,0:0:0:0:
288,192,31932,1,0,0:0:0:0:
352,192,32011,1,0,0:0:0:0:
160,192,32011,1,0,0:0:0:0:
416,192,32089,1,0,0:0:0:0:
224,192,32089,1,0,0:0:0:0:
352,192,32168,1,0,0:0:0:0:
160,192,32168,1,0,0:0:0:0:
416,192,32247,1,0,0:0:0:0:
224,192,32247,1,0,0:0:0:0:
32,192,32326,1,0,0:0:0:0:
480,192,32326,1,0,0:0:0:0:
96,192,32326,1,0,0:0:0:0:
288,192,32326,1,0,0:0:0:0:
32,192,32800,1,0,0:0:0:0:
96,192,32800,1,0,0:0:0:0:
288,192,32800,1,0,0:0:0:0:
480,192,32800,1,0,0:0:0:0:
352,192,32800,1,0,0:0:0:0:
32,192,33274,1,0,0:0:0:0:
96,192,33274,1,0,0:0:0:0:
288,192,33274,1,0,0:0:0:0:
416,192,33274,1,0,0:0:0:0:
224,192,33274,1,0,0:0:0:0:
32,192,33747,1,0,0:0:0:0:
96,192,33747,1,0,0:0:0:0:
416,192,33747,1,0,0:0:0:0:
288,192,33747,1,0,0:0:0:0:
160,192,33747,1,0,0:0:0:0:
32,192,34221,1,0,0:0:0:0:
96,192,34221,1,0,0:0:0:0:
352,192,34221,1,0,0:0:0:0:
480,192,34221,1,0,0:0:0:0:
224,192,34221,1,0,0:0:0:0:
32,192,34695,1,0,0:0:0:0:
160,192,34695,1,0,0:0:0:0:
480,192,34695,1,0,0:0:0:0:
416,192,34695,1,0,0:0:0:0:
224,192,34695,1,0,0:0:0:0:
32,192,35168,1,0,0:0:0:0:
352,192,35168,1,0,0:0:0:0:
224,192,35168,1,0,0:0:0:0:
416,192,35168,1,0,0:0:0:0:
96,192,35168,1,0,0:0:0:0:
32,192,35642,1,0,0:0:0:0:
160,192,35642,1,0,0:0:0:0:
288,192,35642,1,0,0:0:0:0:
416,192,35642,1,0,0:0:0:0:
480,192,35642,1,0,0:0:0:0:
32,192,36116,1,0,0:0:0:0:
288,192,36116,1,0,0:0:0:0:
224,192,36116,1,0,0:0:0:0:
96,192,36116,1,0,0:0:0:0:
416,192,36116,1,0,0:0:0:0:
32,192,36589,1,0,0:0:0:0:
224,192,36589,1,0,0:0:0:0:
96,192,36589,1,0,0:0:0:0:
288,192,36668,1,0,0:0:0:0:
160,192,36668,1,0,0:0:0:0:
352,192,36747,1,0,0:0:0:0:
224,192,36747,1,0,0:0:0:0:
288,192,36853,1,0,0:0:0:0:
160,192,36853,1,0,0:0:0:0:
352,192,36958,1,0,0:0:0:0:
224,192,36958,1,0,0:0:0:0:
288,192,37063,1,0,0:0:0:0:
416,192,37063,1,0,0:0:0:0:
352,192,37168,1,0,0:0:0:0:
224,192,37168,1,0,0:0:0:0:
416,192,37274,1,0,0:0:0:0:
288,192,37274,1,0,0:0:0:0:
32,192,37379,1,0,0:0:0:0:
480,192,37379,1,0,0:0:0:0:
352,192,37379,1,0,0:0:0:0:
96,192,37379,1,0,0:0:0:0:
160,192,39063,1,0,0:0:0:0:
224,192,39168,1,0,0:0:0:0:
160,192,39274,1,0,0:0:0:0:
288,192,39379,1,0,0:0:0:0:
224,192,39484,1,0,0:0:0:0:
288,192,39589,1,0,0:0:0:0:
352,192,39695,1,0,0:0:0:0:
416,192,39800,1,0,0:0:0:0:
96,192,39905,1,0,0:0:0:0:
480,192,39905,1,0,0:0:0:0:
224,192,39905,1,0,0:0:0:0:
288,192,40116,1,0,0:0:0:0:
224,192,40326,1,0,0:0:0:0:
352,192,40326,1,0,0:0:0:0:
160,192,40537,1,0,0:0:0:0:
416,192,40747,1,0,0:0:0:0:
416,192,40958,1,0,0:0:0:0:
288,192,41168,1,0,0:0:0:0:
96,192,41168,1,0,0:0:0:0:
160,192,41379,5,0,0:0:0:0:
160,192,41484,1,0,0:0:0:0:
224,192,41589,1,0,0:0:0:0:
224,192,41695,1,0,0:0:0:0:
96,192,41800,1,0,0:0:0:0:
416,192,41958,1,0,0:0:0:0:
352,192,42037,1,0,0:0:0:0:
224,192,42116,1,0,0:0:0:0:
96,192,42116,1,0,0:0:0:0:
416,192,42116,1,0,0:0:0:0:
480,192,42274,1,0,0:0:0:0:
352,192,42274,1,0,0:0:0:0:
416,192,42353,1,0,0:0:0:0:
32,192,42432,5,0,0:0:0:0:
224,192,42432,128,0,42905:0:0:0:0:
96,192,42432,1,0,0:0:0:0:
480,192,42432,1,0,0:0:0:0:
96,192,42589,128,0,42905:0:0:0:0:
288,192,42747,1,0,0:0:0:0:
416,192,42747,1,0,0:0:0:0:
352,192,42905,1,0,0:0:0:0:
480,192,42905,128,0,43379:0:0:0:0:
352,192,43063,128,0,43379:0:0:0:0:
224,192,43221,1,0,0:0:0:0:
96,192,43221,1,0,0:0:0:0:
160,192,43379,1,0,0:0:0:0:
480,192,43537,1,0,0:0:0:0:
352,192,43537,1,0,0:0:0:0:
160,192,43695,128,0,44011:0:0:0:0:
96,192,43695,1,0,0:0:0:0:
416,192,43695,1,0,0:0:0:0:
224,192,44011,128,0,44168:0:0:0:0:
480,192,44011,1,0,0:0:0:0:
352,192,44011,1,0,0:0:0:0:
288,192,44168,128,0,44326:0:0:0:0:
96,192,44168,1,0,0:0:0:0:
352,192,44326,128,0,44484:0:0:0:0:
160,192,44326,1,0,0:0:0:0:
480,192,44484,1,0,0:0:0:0:
96,192,44484,1,0,0:0:0:0:
416,192,44563,1,0,0:0:0:0:
224,192,44642,1,0,0:0:0:0:
480,192,44642,128,0,44958:0:0:0:0:
224,192,44800,1,0,0:0:0:0:
352,192,44800,1,0,0:0:0:0:
352,192,44958,1,0,0:0:0:0:
96,192,44958,1,0,0:0:0:0:
288,192,45274,1,0,0:0:0:0:
160,192,45274,1,0,0:0:0:0:
352,192,45432,1,0,0:0:0:0:
96,192,45432,1,0,0:0:0:0:
416,192,45511,1,0,0:0:0:0:
480,192,45589,1,0,0:0:0:0:
288,192,45668,1,0,0:0:0:0:
352,192,45747,1,0,0:0:0:0:
160,192,45747,1,0,0:0:0:0:
416,192,45826,1,0,0:0:0:0:
352,192,45905,128,0,46221:0:0:0:0:
96,192,45905,1,0,0:0:0:0:
480,192,45905,1,0,0:0:0:0:
288,192,46063,1,0,0:0:0:0:
160,192,46063,1,0,0:0:0:0:
416,192,46221,128,0,46537:0:0:0:0:
96,192,46221,1,0,0:0:0:0:
224,192,46221,1,0,0:0:0:0:
288,192,46537,128,0,46695:0:0:0:0:
96,192,46537,1,0,0:0:0:0:
160,192,46616,1,0,0:0:0:0:
96,192,46695,1,0,0:0:0:0:
352,192,46774,1,0,0:0:0:0:
224,192,46853,128,0,47011:0:0:0:0:
160,192,46853,1,0,0:0:0:0:
96,192,47011,1,0,0:0:0:0:
480,192,47011,1,0,0:0:0:0:
352,192,47089,1,0,0:0:0:0:
96,192,47168,128,0,47484:0:0:0:0:
224,192,47168,1,0,0:0:0:0:
480,192,47168,1,0,0:0:0:0:
352,192,47326,1,0,0:0:0:0:
224,192,47405,1,0,0:0:0:0:
32,192,47484,5,0,0:0:0:0:
352,192,47484,1,0,0:0:0:0:
480,192,47484,1,0,0:0:0:0:
224,192,47642,1,0,0:0:0:0:
352,192,47721,1,0,0:0:0:0:
288,192,47800,1,0,0:0:0:0:
160,192,47800,1,0,0:0:0:0:
96,192,47879,1,0,0:0:0:0:
480,192,47958,128,0,48274:0:0:0:0:
352,192,47958,1,0,0:0:0:0:
224,192,47958,1,0,0:0:0:0:
288,192,48274,1,0,0:0:0:0:
160,192,48274,1,0,0:0:0:0:
224,192,48432,128,0,48747:0:0:0:0:
352,192,48432,1,0,0:0:0:0:
96,192,48432,1,0,0:0:0:0:
352,192,48589,1,0,0:0:0:0:
160,192,48747,128,0,49063:0:0:0:0:
288,192,48747,1,0,0:0:0:0:
416,192,48747,1,0,0:0:0:0:
480,192,48905,1,0,0:0:0:0:
416,192,48984,1,0,0:0:0:0:
96,192,49063,128,0,49379:0:0:0:0:
224,192,49063,1,0,0:0:0:0:
480,192,49063,1,0,0:0:0:0:
416,192,49221,1,0,0:0:0:0:
288,192,49221,1,0,0:0:0:0:
224,192,49379,128,0,49537:0:0:0:0:
160,192,49379,1,0,0:0:0:0:
288,192,49537,128,0,49695:0:0:0:0:
480,192,49537,1,0,0:0:0:0:
352,192,49537,1,0,0:0:0:0:
416,192,49695,128,0,49853:0:0:0:0:
96,192,49695,1,0,0:0:0:0:
224,192,49774,1,0,0:0:0:0:
352,192,49853,128,0,50011:0:0:0:0:
160,192,49853,1,0,0:0:0:0:
288,192,49932,1,0,0:0:0:0:
32,192,50011,1,0,0:0:0:0:
96,192,50011,1,0,0:0:0:0:
224,192,50011,128,0,50484:0:0:0:0:
160,192,50011,1,0,0:0:0:0:
352,192,50326,1,0,0:0:0:0:
480,192,50326,1,0,0:0:0:0:
32,192,50484,1,0,0:0:0:0:
352,192,50484,128,0,50800:0:0:0:0:
160,192,50484,1,0,0:0:0:0:
288,192,50484,1,0,0:0:0:0:
96,192,50800,1,0,0:0:0:0:
224,192,50800,1,0,0:0:0:0:
160,192,50958,1,0,0:0:0:0:
224,192,51116,1,0,0:0:0:0:
96,192,51116,1,0,0:0:0:0:
32,192,51274,1,0,0:0:0:0:
224,192,51274,128,0,51747:0:0:0:0:
96,192,51274,1,0,0:0:0:0:
416,192,51274,1,0,0:0:0:0:
352,192,51353,1,0,0:0:0:0:
416,192,51432,1,0,0:0:0:0:
352,192,51511,1,0,0:0:0:0:
480,192,51589,1,0,0:0:0:0:
416,192,51668,1,0,0:0:0:0:
32,192,51747,1,0,0:0:0:0:
352,192,51747,128,0,52063:0:0:0:0:
160,192,51747,1,0,0:0:0:0:
480,192,51747,1,0,0:0:0:0:
160,192,51905,1,0,0:0:0:0:
224,192,51984,1,0,0:0:0:0:
160,192,52063,1,0,0:0:0:0:
288,192,52142,1,0,0:0:0:0:
352,192,52221,1,0,0:0:0:0:
224,192,52221,1,0,0:0:0:0:
416,192,52379,1,0,0:0:0:0:
96,192,52379,1,0,0:0:0:0:
352,192,52458,1,0,0:0:0:0:
32,192,52537,1,0,0:0:0:0:
224,192,52537,128,0,53011:0:0:0:0:
416,192,52537,1,0,0:0:0:0:
96,192,52537,1,0,0:0:0:0:
96,192,52695,128,0,53011:0:0:0:0:
416,192,52853,1,0,0:0:0:0:
288,192,52853,1,0,0:0:0:0:
352,192,53011,1,0,0:0:0:0:
480,192,53011,128,0,53484:0:0:0:0:
352,192,53168,128,0,53484:0:0:0:0:
96,192,53326,1,0,0:0:0:0:
224,192,53326,1,0,0:0:0:0:
160,192,53484,1,0,0:0:0:0:
352,192,53642,1,0,0:0:0:0:
480,192,53642,1,0,0:0:0:0:
96,192,53800,1,0,0:0:0:0:
160,192,53800,128,0,54116:0:0:0:0:
288,192,53800,1,0,0:0:0:0:
352,192,54116,1,0,0:0:0:0:
480,192,54116,1,0,0:0:0:0:
224,192,54116,128,0,54274:0:0:0:0:
96,192,54274,1,0,0:0:0:0:
288,192,54274,128,0,54432:0:0:0:0:
160,192,54432,1,0,0:0:0:0:
352,192,54432,128,0,54589:0:0:0:0:
96,192,54589,1,0,0:0:0:0:
480,192,54589,1,0,0:0:0:0:
416,192,54668,1,0,0:0:0:0:
224,192,54747,1,0,0:0:0:0:
480,192,54747,128,0,55063:0:0:0:0:
352,192,54905,1,0,0:0:0:0:
224,192,54905,1,0,0:0:0:0:
96,192,55063,1,0,0:0:0:0:
352,192,55063,1,0,0:0:0:0:
224,192,55221,1,0,0:0:0:0:
288,192,55300,1,0,0:0:0:0:
352,192,55379,1,0,0:0:0:0:
480,192,55379,1,0,0:0:0:0:
288,192,55458,1,0,0:0:0:0:
224,192,55537,1,0,0:0:0:0:
96,192,55537,1,0,0:0:0:0:
288,192,55616,1,0,0:0:0:0:
352,192,55695,1,0,0:0:0:0:
416,192,55774,1,0,0:0:0:0:
480,192,55853,1,0,0:0:0:0:
224,192,55853,1,0,0:0:0:0:
416,192,55932,1,0,0:0:0:0:
224,192,56011,128,0,56326:0:0:0:0:
352,192,56011,1,0,0:0:0:0:
96,192,56011,1,0,0:0:0:0:
416,192,56089,1,0,0:0:0:0:
480,192,56168,1,0,0:0:0:0:
160,192,56168,1,0,0:0:0:0:
416,192,56247,1,0,0:0:0:0:
288,192,56326,128,0,56642:0:0:0:0:
352,192,56326,1,0,0:0:0:0:
96,192,56326,1,0,0:0:0:0:
352,192,56642,128,0,56800:0:0:0:0:
96,192,56642,1,0,0:0:0:0:
224,192,56642,1,0,0:0:0:0:
160,192,56721,1,0,0:0:0:0:
96,192,56800,1,0,0:0:0:0:
480,192,56800,1,0,0:0:0:0:
416,192,56879,1,0,0:0:0:0:
288,192,56958,128,0,57116:0:0:0:0:
224,192,56958,1,0,0:0:0:0:
160,192,57037,1,0,0:0:0:0:
96,192,57116,1,0,0:0:0:0:
480,192,57116,1,0,0:0:0:0:
480,192,57274,128,0,57589:0:0:0:0:
224,192,57274,1,0,0:0:0:0:
288,192,57353,1,0,0:0:0:0:
352,192,57432,1,0,0:0:0:0:
224,192,57432,1,0,0:0:0:0:
160,192,57511,1,0,0:0:0:0:
32,192,57589,5,0,0:0:0:0:
224,192,57589,1,0,0:0:0:0:
96,192,57589,1,0,0:0:0:0:
416,192,57747,1,0,0:0:0:0:
352,192,57826,1,0,0:0:0:0:
288,192,57905,1,0,0:0:0:0:
160,192,57905,1,0,0:0:0:0:
96,192,57984,1,0,0:0:0:0:
224,192,58063,1,0,0:0:0:0:
480,192,58063,128,0,58379:0:0:0:0:
352,192,58063,1,0,0:0:0:0:
224,192,58379,1,0,0:0:0:0:
96,192,58379,1,0,0:0:0:0:
224,192,58537,128,0,58853:0:0:0:0:
352,192,58537,1,0,0:0:0:0:
480,192,58695,1,0,0:0:0:0:
416,192,58695,1,0,0:0:0:0:
352,192,58774,1,0,0:0:0:0:
160,192,58853,128,0,59168:0:0:0:0:
288,192,58853,1,0,0:0:0:0:
352,192,59011,1,0,0:0:0:0:
416,192,59089,1,0,0:0:0:0:
96,192,59168,128,0,59484:0:0:0:0:
224,192,59168,1,0,0:0:0:0:
288,192,59168,1,0,0:0:0:0:
352,192,59326,1,0,0:0:0:0:
480,192,59326,1,0,0:0:0:0:
224,192,59484,128,0,59642:0:0:0:0:
416,192,59484,1,0,0:0:0:0:
288,192,59642,128,0,59800:0:0:0:0:
352,192,59642,1,0,0:0:0:0:
416,192,59800,128,0,59958:0:0:0:0:
96,192,59800,1,0,0:0:0:0:
224,192,59800,1,0,0:0:0:0:
160,192,59879,1,0,0:0:0:0:
352,192,59958,128,0,60116:0:0:0:0:
160,192,60037,1,0,0:0:0:0:
224,192,60116,128,0,60589:0:0:0:0:
96,192,60116,128,0,60432:0:0:0:0:
480,192,60116,1,0,0:0:0:0:
480,192,60432,1,0,0:0:0:0:
352,192,60432,1,0,0:0:0:0:
352,192,60589,128,0,60905:0:0:0:0:
96,192,60589,128,0,60905:0:0:0:0:
224,192,60905,1,0,0:0:0:0:
480,192,60905,1,0,0:0:0:0:
416,192,61063,1,0,0:0:0:0:
288,192,61063,1,0,0:0:0:0:
160,192,61142,1,0,0:0:0:0:
480,192,61221,1,0,0:0:0:0:
224,192,61221,1,0,0:0:0:0:
160,192,61300,1,0,0:0:0:0:
480,192,61379,128,0,61695:0:0:0:0:
288,192,61379,1,0,0:0:0:0:
224,192,61379,128,0,61695:0:0:0:0:
352,192,61695,5,0,0:0:0:0:
96,192,61695,1,0,0:0:0:0:
288,192,61774,1,0,0:0:0:0:
352,192,61853,128,0,62168:0:0:0:0:
416,192,61853,1,0,0:0:0:0:
224,192,62011,1,0,0:0:0:0:
96,192,62089,1,0,0:0:0:0:
224,192,62168,1,0,0:0:0:0:
160,192,62247,1,0,0:0:0:0:
288,192,62326,1,0,0:0:0:0:
416,192,62326,1,0,0:0:0:0:
160,192,62405,1,0,0:0:0:0:
224,192,62484,1,0,0:0:0:0:
352,192,62484,1,0,0:0:0:0:
160,192,62563,1,0,0:0:0:0:
32,192,62642,5,0,0:0:0:0:
480,192,62642,1,0,0:0:0:0:
288,192,62642,1,0,0:0:0:0:
416,192,62642,1,0,0:0:0:0:
96,192,62879,1,0,0:0:0:0:
160,192,62879,1,0,0:0:0:0:
288,192,62879,1,0,0:0:0:0:
416,192,62958,1,0,0:0:0:0:
352,192,63037,1,0,0:0:0:0:
416,192,63116,1,0,0:0:0:0:
288,192,63116,1,0,0:0:0:0:
96,192,63116,1,0,0:0:0:0:
480,192,63274,1,0,0:0:0:0:
480,192,63432,1,0,0:0:0:0:
224,192,63589,1,0,0:0:0:0:
352,192,63589,1,0,0:0:0:0:
96,192,63589,1,0,0:0:0:0:
160,192,63668,1,0,0:0:0:0:
288,192,63747,1,0,0:0:0:0:
160,192,63826,1,0,0:0:0:0:
96,192,63826,1,0,0:0:0:0:
416,192,63826,1,0,0:0:0:0:
352,192,63905,1,0,0:0:0:0:
224,192,63984,1,0,0:0:0:0:
160,192,64063,1,0,0:0:0:0:
96,192,64063,1,0,0:0:0:0:
352,192,64063,1,0,0:0:0:0:
416,192,64142,1,0,0:0:0:0:
288,192,64221,1,0,0:0:0:0:
416,192,64300,1,0,0:0:0:0:
352,192,64379,1,0,0:0:0:0:
224,192,64458,1,0,0:0:0:0:
96,192,64537,1,0,0:0:0:0:
352,192,64537,1,0,0:0:0:0:
224,192,64616,1,0,0:0:0:0:
160,192,64695,1,0,0:0:0:0:
288,192,64747,1,0,0:0:0:0:
416,192,64800,1,0,0:0:0:0:
224,192,64853,1,0,0:0:0:0:
96,192,64853,1,0,0:0:0:0:
288,192,64932,1,0,0:0:0:0:
352,192,65011,1,0,0:0:0:0:
224,192,65089,1,0,0:0:0:0:
480,192,65168,1,0,0:0:0:0:
288,192,65168,1,0,0:0:0:0:
160,192,65168,1,0,0:0:0:0:
480,192,65405,1,0,0:0:0:0:
224,192,65405,1,0,0:0:0:0:
288,192,65405,1,0,0:0:0:0:
224,192,65642,1,0,0:0:0:0:
480,192,65642,1,0,0:0:0:0:
288,192,65642,1,0,0:0:0:0:
96,192,65800,128,0,66116:0:0:0:0:
416,192,65958,1,0,0:0:0:0:
352,192,66037,1,0,0:0:0:0:
288,192,66116,1,0,0:0:0:0:
160,192,66116,1,0,0:0:0:0:
480,192,66116,1,0,0:0:0:0:
288,192,66353,1,0,0:0:0:0:
224,192,66353,1,0,0:0:0:0:
480,192,66353,1,0,0:0:0:0:
288,192,66589,1,0,0:0:0:0:
224,192,66589,1,0,0:0:0:0:
480,192,66589,1,0,0:0:0:0:
96,192,66747,1,0,0:0:0:0:
288,192,66905,1,0,0:0:0:0:
224,192,66984,1,0,0:0:0:0:
480,192,67063,128,0,67379:0:0:0:0:
352,192,67063,1,0,0:0:0:0:
352,192,67221,128,0,67379:0:0:0:0:
96,192,67379,128,0,67695:0:0:0:0:
224,192,67379,1,0,0:0:0:0:
224,192,67537,128,0,67695:0:0:0:0:
288,192,67537,1,0,0:0:0:0:
416,192,67616,1,0,0:0:0:0:
352,192,67695,1,0,0:0:0:0:
480,192,67695,1,0,0:0:0:0:
160,192,67695,1,0,0:0:0:0:
416,192,67932,1,0,0:0:0:0:
288,192,67932,1,0,0:0:0:0:
160,192,67932,1,0,0:0:0:0:
352,192,68011,1,0,0:0:0:0:
224,192,68089,1,0,0:0:0:0:
416,192,68168,1,0,0:0:0:0:
288,192,68168,1,0,0:0:0:0:
160,192,68168,1,0,0:0:0:0:
480,192,68326,1,0,0:0:0:0:
480,192,68484,1,0,0:0:0:0:
96,192,68642,1,0,0:0:0:0:
160,192,68642,1,0,0:0:0:0:
352,192,68642,1,0,0:0:0:0:
224,192,68747,1,0,0:0:0:0:
352,192,68853,1,0,0:0:0:0:
160,192,68879,1,0,0:0:0:0:
96,192,68879,1,0,0:0:0:0:
288,192,68958,1,0,0:0:0:0:
416,192,69063,5,0,0:0:0:0:
160,192,69116,1,0,0:0:0:0:
96,192,69116,1,0,0:0:0:0:
352,192,69116,1,0,0:0:0:0:
224,192,69168,1,0,0:0:0:0:
416,192,69274,1,0,0:0:0:0:
288,192,69274,1,0,0:0:0:0:
96,192,69379,1,0,0:0:0:0:
352,192,69432,1,0,0:0:0:0:
224,192,69484,1,0,0:0:0:0:
160,192,69589,1,0,0:0:0:0:
288,192,69589,1,0,0:0:0:0:
352,192,69695,1,0,0:0:0:0:
224,192,69747,1,0,0:0:0:0:
416,192,69800,1,0,0:0:0:0:
288,192,69905,1,0,0:0:0:0:
160,192,69905,1,0,0:0:0:0:
352,192,70011,1,0,0:0:0:0:
224,192,70116,1,0,0:0:0:0:
32,192,70221,5,0,0:0:0:0:
480,192,70221,1,0,0:0:0:0:
288,192,70221,1,0,0:0:0:0:
160,192,70221,1,0,0:0:0:0:
480,192,70458,1,0,0:0:0:0:
224,192,70458,1,0,0:0:0:0:
288,192,70458,1,0,0:0:0:0:
224,192,70695,1,0,0:0:0:0:
480,192,70695,1,0,0:0:0:0:
288,192,70695,1,0,0:0:0:0:
96,192,70853,128,0,71168:0:0:0:0:
352,192,70853,1,0,0:0:0:0:
288,192,71011,1,0,0:0:0:0:
224,192,71089,1,0,0:0:0:0:
288,192,71168,1,0,0:0:0:0:
160,192,71168,1,0,0:0:0:0:
480,192,71168,1,0,0:0:0:0:
288,192,71405,1,0,0:0:0:0:
224,192,71405,1,0,0:0:0:0:
480,192,71405,1,0,0:0:0:0:
288,192,71642,1,0,0:0:0:0:
224,192,71642,1,0,0:0:0:0:
480,192,71642,1,0,0:0:0:0:
160,192,71800,1,0,0:0:0:0:
352,192,71800,1,0,0:0:0:0:
96,192,71879,1,0,0:0:0:0:
224,192,71958,1,0,0:0:0:0:
160,192,72037,1,0,0:0:0:0:
480,192,72116,128,0,72432:0:0:0:0:
352,192,72116,1,0,0:0:0:0:
224,192,72116,1,0,0:0:0:0:
352,192,72274,128,0,72432:0:0:0:0:
96,192,72432,128,0,72747:0:0:0:0:
224,192,72432,1,0,0:0:0:0:
224,192,72589,128,0,72747:0:0:0:0:
352,192,72747,1,0,0:0:0:0:
480,192,72747,1,0,0:0:0:0:
160,192,72747,1,0,0:0:0:0:
224,192,72984,1,0,0:0:0:0:
160,192,72984,1,0,0:0:0:0:
352,192,72984,1,0,0:0:0:0:
416,192,73063,1,0,0:0:0:0:
480,192,73142,1,0,0:0:0:0:
224,192,73221,1,0,0:0:0:0:
160,192,73221,1,0,0:0:0:0:
352,192,73221,1,0,0:0:0:0:
96,192,73379,1,0,0:0:0:0:
288,192,73379,1,0,0:0:0:0:
352,192,73537,1,0,0:0:0:0:
224,192,73537,1,0,0:0:0:0:
480,192,73616,1,0,0:0:0:0:
352,192,73695,1,0,0:0:0:0:
160,192,73695,1,0,0:0:0:0:
288,192,73695,1,0,0:0:0:0:
416,192,73774,1,0,0:0:0:0:
288,192,73932,1,0,0:0:0:0:
160,192,73932,1,0,0:0:0:0:
352,192,74011,1,0,0:0:0:0:
96,192,74011,1,0,0:0:0:0:
288,192,74089,1,0,0:0:0:0:
160,192,74168,1,0,0:0:0:0:
480,192,74168,1,0,0:0:0:0:
352,192,74247,1,0,0:0:0:0:
416,192,74326,1,0,0:0:0:0:
224,192,74326,1,0,0:0:0:0:
288,192,74405,1,0,0:0:0:0:
416,192,74484,1,0,0:0:0:0:
480,192,74563,1,0,0:0:0:0:
96,192,74642,1,0,0:0:0:0:
224,192,74642,1,0,0:0:0:0:
352,192,74721,1,0,0:0:0:0:
288,192,74800,1,0,0:0:0:0:
160,192,74800,1,0,0:0:0:0:
224,192,74879,1,0,0:0:0:0:
416,192,74879,1,0,0:0:0:0:
96,192,74958,1,0,0:0:0:0:
480,192,74958,1,0,0:0:0:0:
288,192,74958,1,0,0:0:0:0:
160,192,75037,1,0,0:0:0:0:
352,192,75116,1,0,0:0:0:0:
224,192,75116,1,0,0:0:0:0:
416,192,75195,1,0,0:0:0:0:
480,192,75274,1,0,0:0:0:0:
288,192,75274,1,0,0:0:0:0:
160,192,75274,1,0,0:0:0:0:
160,192,75511,1,0,0:0:0:0:
480,192,75511,1,0,0:0:0:0:
352,192,75511,1,0,0:0:0:0:
288,192,75589,1,0,0:0:0:0:
480,192,75747,1,0,0:0:0:0:
352,192,75747,1,0,0:0:0:0:
160,192,75747,1,0,0:0:0:0:
288,192,75905,128,0,76063:0:0:0:0:
96,192,75905,128,0,76063:0:0:0:0:
224,192,75905,1,0,0:0:0:0:
160,192,76063,1,0,0:0:0:0:
224,192,76142,1,0,0:0:0:0:
416,192,76221,1,0,0:0:0:0:
288,192,76221,1,0,0:0:0:0:
96,192,76221,1,0,0:0:0:0:
96,192,76458,1,0,0:0:0:0:
288,192,76458,1,0,0:0:0:0:
416,192,76458,1,0,0:0:0:0:
224,192,76537,1,0,0:0:0:0:
416,192,76695,1,0,0:0:0:0:
288,192,76695,1,0,0:0:0:0:
96,192,76695,1,0,0:0:0:0:
480,192,76853,1,0,0:0:0:0:
352,192,76932,1,0,0:0:0:0:
224,192,76932,1,0,0:0:0:0:
416,192,77168,1,0,0:0:0:0:
288,192,77168,1,0,0:0:0:0:
160,192,77168,1,0,0:0:0:0:
224,192,77326,1,0,0:0:0:0:
480,192,77405,1,0,0:0:0:0:
352,192,77405,1,0,0:0:0:0:
224,192,77484,1,0,0:0:0:0:
480,192,77642,1,0,0:0:0:0:
352,192,77642,1,0,0:0:0:0:
288,192,77721,1,0,0:0:0:0:
224,192,77800,1,0,0:0:0:0:
96,192,77800,1,0,0:0:0:0:
352,192,77800,1,0,0:0:0:0:
288,192,78037,1,0,0:0:0:0:
96,192,78037,1,0,0:0:0:0:
160,192,78037,1,0,0:0:0:0:
224,192,78116,1,0,0:0:0:0:
96,192,78274,1,0,0:0:0:0:
224,192,78274,1,0,0:0:0:0:
352,192,78274,1,0,0:0:0:0:
480,192,78432,128,0,78589:0:0:0:0:
352,192,78432,128,0,78589:0:0:0:0:
416,192,78432,1,0,0:0:0:0:
224,192,78589,1,0,0:0:0:0:
288,192,78668,1,0,0:0:0:0:
480,192,78747,1,0,0:0:0:0:
352,192,78747,1,0,0:0:0:0:
160,192,78747,1,0,0:0:0:0:
480,192,78984,1,0,0:0:0:0:
352,192,78984,1,0,0:0:0:0:
224,192,78984,1,0,0:0:0:0:
288,192,79063,1,0,0:0:0:0:
480,192,79221,1,0,0:0:0:0:
352,192,79221,1,0,0:0:0:0:
160,192,79221,1,0,0:0:0:0:
416,192,79379,1,0,0:0:0:0:
288,192,79379,1,0,0:0:0:0:
480,192,79484,1,0,0:0:0:0:
224,192,79537,1,0,0:0:0:0:
352,192,79589,1,0,0:0:0:0:
416,192,79695,1,0,0:0:0:0:
160,192,79695,1,0,0:0:0:0:
288,192,79800,1,0,0:0:0:0:
224,192,79853,1,0,0:0:0:0:
352,192,79905,1,0,0:0:0:0:
160,192,79932,1,0,0:0:0:0:
96,192,80011,1,0,0:0:0:0:
224,192,80011,1,0,0:0:0:0:
352,192,80116,1,0,0:0:0:0:
224,192,80168,1,0,0:0:0:0:
416,192,80221,1,0,0:0:0:0:
160,192,80247,1,0,0:0:0:0:
96,192,80326,1,0,0:0:0:0:
480,192,80326,1,0,0:0:0:0:
352,192,80326,1,0,0:0:0:0:
224,192,80432,1,0,0:0:0:0:
288,192,80537,1,0,0:0:0:0:
96,192,80563,1,0,0:0:0:0:
160,192,80563,1,0,0:0:0:0:
480,192,80642,1,0,0:0:0:0:
416,192,80747,1,0,0:0:0:0:
352,192,80800,1,0,0:0:0:0:
224,192,80800,1,0,0:0:0:0:
160,192,80853,1,0,0:0:0:0:
224,192,80958,1,0,0:0:0:0:
416,192,80958,1,0,0:0:0:0:
288,192,81063,1,0,0:0:0:0:
160,192,81168,1,0,0:0:0:0:
352,192,81168,1,0,0:0:0:0:
96,192,81274,1,0,0:0:0:0:
288,192,81274,1,0,0:0:0:0:
224,192,81353,1,0,0:0:0:0:
160,192,81432,1,0,0:0:0:0:
288,192,81511,1,0,0:0:0:0:
416,192,81511,1,0,0:0:0:0:
224,192,81589,1,0,0:0:0:0:
352,192,81668,5,0,0:0:0:0:
288,192,81747,1,0,0:0:0:0:
160,192,81747,1,0,0:0:0:0:
416,192,81747,1,0,0:0:0:0:
96,192,81905,1,0,0:0:0:0:
224,192,81905,1,0,0:0:0:0:
352,192,81905,1,0,0:0:0:0:
480,192,81984,1,0,0:0:0:0:
288,192,82063,1,0,0:0:0:0:
288,192,82142,1,0,0:0:0:0:
352,192,82221,1,0,0:0:0:0:
224,192,82221,1,0,0:0:0:0:
160,192,82300,1,0,0:0:0:0:
352,192,82379,1,0,0:0:0:0:
416,192,82458,1,0,0:0:0:0:
288,192,82458,1,0,0:0:0:0:
224,192,82537,1,0,0:0:0:0:
96,192,82537,1,0,0:0:0:0:
288,192,82616,1,0,0:0:0:0:
160,192,82695,1,0,0:0:0:0:
224,192,82774,1,0,0:0:0:0:
32,192,82853,5,0,0:0:0:0:
160,192,82853,1,0,0:0:0:0:
352,192,84853,1,0,0:0:0:0:
480,192,84905,1,0,0:0:0:0:
288,192,85142,1,0,0:0:0:0:
224,192,85379,1,0,0:0:0:0:
96,192,85379,1,0,0:0:0:0:
160,192,86642,1,0,0:0:0:0:
288,192,86642,1,0,0:0:0:0:
352,192,87432,1,0,0:0:0:0:
96,192,87905,1,0,0:0:0:0:
224,192,87905,1,0,0:0:0:0:
416,192,87905,1,0,0:0:0:0:
160,192,88063,1,0,0:0:0:0:
224,192,88142,1,0,0:0:0:0:
480,192,88221,1,0,0:0:0:0:
352,192,88221,1,0,0:0:0:0:
160,192,88221,1,0,0:0:0:0:
288,192,88379,1,0,0:0:0:0:
96,192,88537,1,0,0:0:0:0:
224,192,88537,1,0,0:0:0:0:
480,192,88695,1,0,0:0:0:0:
352,192,88695,1,0,0:0:0:0:
224,192,88774,1,0,0:0:0:0:
288,192,88853,1,0,0:0:0:0:
160,192,88853,1,0,0:0:0:0:
352,192,89011,1,0,0:0:0:0:
224,192,89089,1,0,0:0:0:0:
288,192,89168,1,0,0:0:0:0:
96,192,89168,1,0,0:0:0:0:
96,192,89326,1,0,0:0:0:0:
160,192,89405,1,0,0:0:0:0:
480,192,89484,1,0,0:0:0:0:
352,192,89484,1,0,0:0:0:0:
224,192,89484,1,0,0:0:0:0:
288,192,89642,1,0,0:0:0:0:
224,192,89800,1,0,0:0:0:0:
96,192,89800,1,0,0:0:0:0:
480,192,89958,1,0,0:0:0:0:
352,192,89958,1,0,0:0:0:0:
224,192,90037,1,0,0:0:0:0:
288,192,90116,1,0,0:0:0:0:
160,192,90116,1,0,0:0:0:0:
352,192,90274,1,0,0:0:0:0:
224,192,90353,1,0,0:0:0:0:
288,192,90432,1,0,0:0:0:0:
96,192,90432,1,0,0:0:0:0:
96,192,90589,1,0,0:0:0:0:
160,192,90668,1,0,0:0:0:0:
480,192,90747,1,0,0:0:0:0:
352,192,90747,1,0,0:0:0:0:
224,192,90747,1,0,0:0:0:0:
288,192,90905,1,0,0:0:0:0:
224,192,91063,1,0,0:0:0:0:
96,192,91063,1,0,0:0:0:0:
480,192,91221,1,0,0:0:0:0:
352,192,91221,1,0,0:0:0:0:
288,192,91379,1,0,0:0:0:0:
160,192,91379,1,0,0:0:0:0:
96,192,91537,1,0,0:0:0:0:
352,192,91537,1,0,0:0:0:0:
288,192,91695,1,0,0:0:0:0:
160,192,91695,1,0,0:0:0:0:
224,192,91774,1,0,0:0:0:0:
288,192,91853,1,0,0:0:0:0:
224,192,91932,1,0,0:0:0:0:
480,192,92011,5,0,0:0:0:0:
352,192,92011,1,0,0:0:0:0:
160,192,92089,1,0,0:0:0:0:
224,192,92168,1,0,0:0:0:0:
96,192,92326,1,0,0:0:0:0:
224,192,92326,1,0,0:0:0:0:
288,192,92405,1,0,0:0:0:0:
480,192,92484,1,0,0:0:0:0:
352,192,92484,1,0,0:0:0:0:
288,192,92563,1,0,0:0:0:0:
160,192,92563,1,0,0:0:0:0:
352,192,92800,1,0,0:0:0:0:
224,192,92800,1,0,0:0:0:0:
288,192,92879,1,0,0:0:0:0:
96,192,92958,5,0,0:0:0:0:
160,192,93037,1,0,0:0:0:0:
224,192,93116,1,0,0:0:0:0:
288,192,93195,1,0,0:0:0:0:
352,192,93274,1,0,0:0:0:0:
288,192,93353,1,0,0:0:0:0:
224,192,93432,1,0,0:0:0:0:
160,192,93511,1,0,0:0:0:0:
32,192,93589,5,0,0:0:0:0:
96,192,93589,1,0,0:0:0:0:
480,192,93589,1,0,0:0:0:0:
32,192,93826,1,0,0:0:0:0:
96,192,93826,1,0,0:0:0:0:
480,192,93826,1,0,0:0:0:0:
32,192,94063,1,0,0:0:0:0:
96,192,94063,1,0,0:0:0:0:
352,192,94063,1,0,0:0:0:0:
480,192,94063,1,0,0:0:0:0:
288,192,94142,1,0,0:0:0:0:
32,192,94221,1,0,0:0:0:0:
96,192,94221,1,0,0:0:0:0:
224,192,94221,1,0,0:0:0:0:
160,192,94300,1,0,0:0:0:0:
288,192,94300,1,0,0:0:0:0:
224,192,94379,1,0,0:0:0:0:
352,192,94379,1,0,0:0:0:0:
288,192,94458,1,0,0:0:0:0:
416,192,94458,1,0,0:0:0:0:
352,192,94537,1,0,0:0:0:0:
480,192,94537,1,0,0:0:0:0:
96,192,94695,1,0,0:0:0:0:
224,192,94695,1,0,0:0:0:0:
32,192,94695,1,0,0:0:0:0:
288,192,94774,1,0,0:0:0:0:
160,192,94774,1,0,0:0:0:0:
352,192,94853,1,0,0:0:0:0:
224,192,94853,1,0,0:0:0:0:
416,192,94932,1,0,0:0:0:0:
288,192,94932,1,0,0:0:0:0:
480,192,95011,1,0,0:0:0:0:
352,192,95011,1,0,0:0:0:0:
224,192,95168,1,0,0:0:0:0:
96,192,95168,1,0,0:0:0:0:
32,192,95168,1,0,0:0:0:0:
160,192,95247,1,0,0:0:0:0:
288,192,95247,1,0,0:0:0:0:
224,192,95326,1,0,0:0:0:0:
352,192,95326,1,0,0:0:0:0:
288,192,95405,1,0,0:0:0:0:
416,192,95405,1,0,0:0:0:0:
352,192,95484,1,0,0:0:0:0:
480,192,95484,1,0,0:0:0:0:
288,192,95642,1,0,0:0:0:0:
96,192,95642,1,0,0:0:0:0:
352,192,95721,1,0,0:0:0:0:
160,192,95721,1,0,0:0:0:0:
416,192,95800,1,0,0:0:0:0:
224,192,95800,1,0,0:0:0:0:
480,192,95800,1,0,0:0:0:0:
352,192,95879,1,0,0:0:0:0:
160,192,95879,1,0,0:0:0:0:
288,192,95958,1,0,0:0:0:0:
96,192,95958,1,0,0:0:0:0:
352,192,96037,1,0,0:0:0:0:
288,192,96116,1,0,0:0:0:0:
224,192,96116,1,0,0:0:0:0:
416,192,96195,1,0,0:0:0:0:
480,192,96195,1,0,0:0:0:0:
224,192,96274,1,0,0:0:0:0:
160,192,96274,1,0,0:0:0:0:
352,192,96353,1,0,0:0:0:0:
288,192,96353,1,0,0:0:0:0:
96,192,96432,1,0,0:0:0:0:
160,192,96432,1,0,0:0:0:0:
416,192,96511,1,0,0:0:0:0:
352,192,96511,1,0,0:0:0:0:
288,192,96589,1,0,0:0:0:0:
224,192,96589,1,0,0:0:0:0:
480,192,96668,1,0,0:0:0:0:
416,192,96668,1,0,0:0:0:0:
224,192,96747,1,0,0:0:0:0:
96,192,96747,1,0,0:0:0:0:
32,192,96747,1,0,0:0:0:0:
288,192,96826,1,0,0:0:0:0:
160,192,96826,1,0,0:0:0:0:
224,192,96905,1,0,0:0:0:0:
352,192,96905,1,0,0:0:0:0:
416,192,96984,1,0,0:0:0:0:
288,192,96984,1,0,0:0:0:0:
480,192,97063,1,0,0:0:0:0:
352,192,97063,1,0,0:0:0:0:
288,192,97221,1,0,0:0:0:0:
160,192,97221,1,0,0:0:0:0:
32,192,97221,1,0,0:0:0:0:
224,192,97300,1,0,0:0:0:0:
352,192,97300,1,0,0:0:0:0:
416,192,97379,1,0,0:0:0:0:
288,192,97379,1,0,0:0:0:0:
352,192,97458,1,0,0:0:0:0:
480,192,97458,1,0,0:0:0:0:
288,192,97537,1,0,0:0:0:0:
416,192,97537,1,0,0:0:0:0:
288,192,97695,1,0,0:0:0:0:
160,192,97695,1,0,0:0:0:0:
32,192,97695,1,0,0:0:0:0:
352,192,97774,1,0,0:0:0:0:
224,192,97774,1,0,0:0:0:0:
416,192,97853,1,0,0:0:0:0:
288,192,97853,1,0,0:0:0:0:
480,192,97932,1,0,0:0:0:0:
352,192,97932,1,0,0:0:0:0:
416,192,98011,1,0,0:0:0:0:
288,192,98011,1,0,0:0:0:0:
96,192,98168,1,0,0:0:0:0:
288,192,98168,1,0,0:0:0:0:
352,192,98247,1,0,0:0:0:0:
160,192,98247,1,0,0:0:0:0:
416,192,98326,1,0,0:0:0:0:
224,192,98326,1,0,0:0:0:0:
96,192,98326,1,0,0:0:0:0:
480,192,98405,1,0,0:0:0:0:
288,192,98405,1,0,0:0:0:0:
352,192,98484,1,0,0:0:0:0:
160,192,98484,1,0,0:0:0:0:
224,192,98563,1,0,0:0:0:0:
288,192,98642,1,0,0:0:0:0:
96,192,98642,1,0,0:0:0:0:
160,192,98721,1,0,0:0:0:0:
416,192,98721,1,0,0:0:0:0:
224,192,98800,1,0,0:0:0:0:
480,192,98800,1,0,0:0:0:0:
160,192,98879,1,0,0:0:0:0:
352,192,98879,1,0,0:0:0:0:
224,192,98958,1,0,0:0:0:0:
416,192,98958,1,0,0:0:0:0:
288,192,99037,1,0,0:0:0:0:
96,192,99037,1,0,0:0:0:0:
416,192,99116,1,0,0:0:0:0:
160,192,99116,1,0,0:0:0:0:
288,192,99195,1,0,0:0:0:0:
96,192,99195,1,0,0:0:0:0:
352,192,99274,1,0,0:0:0:0:
480,192,99274,1,0,0:0:0:0:
32,192,99274,1,0,0:0:0:0:
416,192,99353,1,0,0:0:0:0:
288,192,99353,1,0,0:0:0:0:
352,192,99432,1,0,0:0:0:0:
224,192,99432,1,0,0:0:0:0:
288,192,99511,1,0,0:0:0:0:
160,192,99511,1,0,0:0:0:0:
224,192,99589,1,0,0:0:0:0:
96,192,99589,1,0,0:0:0:0:
480,192,99747,1,0,0:0:0:0:
352,192,99747,1,0,0:0:0:0:
32,192,99747,1,0,0:0:0:0:
416,192,99826,1,0,0:0:0:0:
288,192,99826,1,0,0:0:0:0:
352,192,99905,1,0,0:0:0:0:
224,192,99905,1,0,0:0:0:0:
288,192,99984,1,0,0:0:0:0:
160,192,99984,1,0,0:0:0:0:
224,192,100063,1,0,0:0:0:0:
96,192,100063,1,0,0:0:0:0:
480,192,100221,1,0,0:0:0:0:
352,192,100221,1,0,0:0:0:0:
32,192,100221,1,0,0:0:0:0:
416,192,100300,1,0,0:0:0:0:
288,192,100300,1,0,0:0:0:0:
352,192,100379,1,0,0:0:0:0:
224,192,100379,1,0,0:0:0:0:
288,192,100458,1,0,0:0:0:0:
160,192,100458,1,0,0:0:0:0:
224,192,100537,1,0,0:0:0:0:
96,192,100537,1,0,0:0:0:0:
480,192,100695,1,0,0:0:0:0:
288,192,100695,1,0,0:0:0:0:
416,192,100774,1,0,0:0:0:0:
224,192,100774,1,0,0:0:0:0:
352,192,100853,1,0,0:0:0:0:
160,192,100853,1,0,0:0:0:0:
480,192,100853,1,0,0:0:0:0:
288,192,100932,1,0,0:0:0:0:
96,192,100932,1,0,0:0:0:0:
224,192,101011,1,0,0:0:0:0:
352,192,101011,1,0,0:0:0:0:
160,192,101089,1,0,0:0:0:0:
224,192,101168,1,0,0:0:0:0:
96,192,101168,1,0,0:0:0:0:
480,192,101247,1,0,0:0:0:0:
352,192,101247,1,0,0:0:0:0:
160,192,101326,1,0,0:0:0:0:
288,192,101326,1,0,0:0:0:0:
352,192,101405,1,0,0:0:0:0:
480,192,101405,1,0,0:0:0:0:
224,192,101484,1,0,0:0:0:0:
96,192,101484,1,0,0:0:0:0:
288,192,101563,1,0,0:0:0:0:
416,192,101563,1,0,0:0:0:0:
96,192,101642,1,0,0:0:0:0:
224,192,101642,1,0,0:0:0:0:
352,192,101721,1,0,0:0:0:0:
480,192,101721,1,0,0:0:0:0:
160,192,101800,1,0,0:0:0:0:
288,192,101800,1,0,0:0:0:0:
32,192,101800,1,0,0:0:0:0:
352,192,102116,1,0,0:0:0:0:
160,192,102116,1,0,0:0:0:0:
480,192,102116,1,0,0:0:0:0:
416,192,102195,1,0,0:0:0:0:
224,192,102195,1,0,0:0:0:0:
32,192,102274,1,0,0:0:0:0:
96,192,102274,1,0,0:0:0:0:
480,192,102274,1,0,0:0:0:0:
288,192,102274,1,0,0:0:0:0:
160,192,102589,1,0,0:0:0:0:
96,192,102747,1,0,0:0:0:0:
224,192,102905,1,0,0:0:0:0:
416,192,102905,1,0,0:0:0:0:
96,192,102905,1,0,0:0:0:0:
160,192,102984,1,0,0:0:0:0:
352,192,102984,1,0,0:0:0:0:
32,192,103063,1,0,0:0:0:0:
96,192,103063,1,0,0:0:0:0:
480,192,103063,1,0,0:0:0:0:
288,192,103063,1,0,0:0:0:0:
288,192,103379,1,0,0:0:0:0:
160,192,103379,1,0,0:0:0:0:
352,192,103379,1,0,0:0:0:0:
224,192,103458,1,0,0:0:0:0:
480,192,103458,1,0,0:0:0:0:
32,192,103537,1,0,0:0:0:0:
288,192,103537,1,0,0:0:0:0:
96,192,103537,1,0,0:0:0:0:
416,192,103537,1,0,0:0:0:0:
224,192,103695,1,0,0:0:0:0:
160,192,103853,1,0,0:0:0:0:
416,192,104011,1,0,0:0:0:0:
288,192,104011,1,0,0:0:0:0:
480,192,104168,1,0,0:0:0:0:
352,192,104247,1,0,0:0:0:0:
96,192,104326,1,0,0:0:0:0:
224,192,104326,1,0,0:0:0:0:
32,192,104326,1,0,0:0:0:0:
160,192,104405,1,0,0:0:0:0:
288,192,104405,1,0,0:0:0:0:
224,192,104484,1,0,0:0:0:0:
416,192,104484,1,0,0:0:0:0:
160,192,104563,1,0,0:0:0:0:
352,192,104563,1,0,0:0:0:0:
288,192,104642,1,0,0:0:0:0:
416,192,104642,1,0,0:0:0:0:
96,192,104800,1,0,0:0:0:0:
224,192,104800,1,0,0:0:0:0:
32,192,104800,1,0,0:0:0:0:
288,192,104879,1,0,0:0:0:0:
160,192,104879,1,0,0:0:0:0:
224,192,104958,1,0,0:0:0:0:
416,192,104958,1,0,0:0:0:0:
160,192,105037,1,0,0:0:0:0:
352,192,105037,1,0,0:0:0:0:
288,192,105116,1,0,0:0:0:0:
416,192,105116,1,0,0:0:0:0:
32,192,105274,1,0,0:0:0:0:
224,192,105274,1,0,0:0:0:0:
352,192,105274,1,0,0:0:0:0:
288,192,105353,1,0,0:0:0:0:
160,192,105353,1,0,0:0:0:0:
224,192,105432,1,0,0:0:0:0:
416,192,105432,1,0,0:0:0:0:
160,192,105511,1,0,0:0:0:0:
352,192,105511,1,0,0:0:0:0:
288,192,105589,1,0,0:0:0:0:
96,192,105589,1,0,0:0:0:0:
352,192,105747,1,0,0:0:0:0:
160,192,105747,1,0,0:0:0:0:
288,192,105826,1,0,0:0:0:0:
416,192,105826,1,0,0:0:0:0:
480,192,105905,1,0,0:0:0:0:
352,192,105905,1,0,0:0:0:0:
160,192,105905,1,0,0:0:0:0:
416,192,105984,1,0,0:0:0:0:
288,192,105984,1,0,0:0:0:0:
352,192,106063,1,0,0:0:0:0:
480,192,106063,1,0,0:0:0:0:
96,192,106142,1,0,0:0:0:0:
160,192,106221,1,0,0:0:0:0:
352,192,106221,1,0,0:0:0:0:
288,192,106300,1,0,0:0:0:0:
96,192,106300,1,0,0:0:0:0:
352,192,106379,1,0,0:0:0:0:
160,192,106379,1,0,0:0:0:0:
416,192,106458,1,0,0:0:0:0:
224,192,106458,1,0,0:0:0:0:
352,192,106537,1,0,0:0:0:0:
160,192,106537,1,0,0:0:0:0:
416,192,106616,1,0,0:0:0:0:
224,192,106616,1,0,0:0:0:0:
480,192,106695,1,0,0:0:0:0:
288,192,106695,1,0,0:0:0:0:
416,192,106774,1,0,0:0:0:0:
224,192,106774,1,0,0:0:0:0:
32,192,106853,1,0,0:0:0:0:
96,192,106853,1,0,0:0:0:0:
288,192,106853,1,0,0:0:0:0:
160,192,106932,1,0,0:0:0:0:
352,192,106932,1,0,0:0:0:0:
416,192,107011,1,0,0:0:0:0:
224,192,107011,1,0,0:0:0:0:
480,192,107089,1,0,0:0:0:0:
288,192,107089,1,0,0:0:0:0:
224,192,107168,1,0,0:0:0:0:
416,192,107168,1,0,0:0:0:0:
96,192,107326,1,0,0:0:0:0:
288,192,107326,1,0,0:0:0:0:
32,192,107326,1,0,0:0:0:0:
352,192,107405,1,0,0:0:0:0:
160,192,107405,1,0,0:0:0:0:
416,192,107484,1,0,0:0:0:0:
224,192,107484,1,0,0:0:0:0:
480,192,107563,1,0,0:0:0:0:
288,192,107563,1,0,0:0:0:0:
416,192,107642,1,0,0:0:0:0:
224,192,107642,1,0,0:0:0:0:
96,192,107800,1,0,0:0:0:0:
288,192,107800,1,0,0:0:0:0:
32,192,107800,1,0,0:0:0:0:
160,192,107879,1,0,0:0:0:0:
352,192,107879,1,0,0:0:0:0:
224,192,107958,1,0,0:0:0:0:
416,192,107958,1,0,0:0:0:0:
288,192,108037,1,0,0:0:0:0:
480,192,108037,1,0,0:0:0:0:
224,192,108116,1,0,0:0:0:0:
416,192,108116,1,0,0:0:0:0:
288,192,108274,1,0,0:0:0:0:
160,192,108274,1,0,0:0:0:0:
352,192,108353,1,0,0:0:0:0:
224,192,108353,1,0,0:0:0:0:
416,192,108432,1,0,0:0:0:0:
288,192,108432,1,0,0:0:0:0:
96,192,108432,1,0,0:0:0:0:
224,192,108511,1,0,0:0:0:0:
352,192,108511,1,0,0:0:0:0:
416,192,108589,1,0,0:0:0:0:
288,192,108589,1,0,0:0:0:0:
160,192,108668,1,0,0:0:0:0:
96,192,108747,1,0,0:0:0:0:
288,192,108747,1,0,0:0:0:0:
352,192,108826,1,0,0:0:0:0:
160,192,108826,1,0,0:0:0:0:
288,192,108905,1,0,0:0:0:0:
96,192,108905,1,0,0:0:0:0:
416,192,108984,1,0,0:0:0:0:
224,192,108984,1,0,0:0:0:0:
352,192,109063,1,0,0:0:0:0:
160,192,109063,1,0,0:0:0:0:
96,192,109142,1,0,0:0:0:0:
288,192,109142,1,0,0:0:0:0:
224,192,109221,1,0,0:0:0:0:
416,192,109221,1,0,0:0:0:0:
160,192,109300,1,0,0:0:0:0:
352,192,109300,1,0,0:0:0:0:
96,192,109379,1,0,0:0:0:0:
288,192,109379,1,0,0:0:0:0:
32,192,109379,1,0,0:0:0:0:
480,192,109458,1,0,0:0:0:0:
224,192,109458,1,0,0:0:0:0:
416,192,109537,1,0,0:0:0:0:
160,192,109537,1,0,0:0:0:0:
352,192,109616,1,0,0:0:0:0:
96,192,109616,1,0,0:0:0:0:
416,192,109695,1,0,0:0:0:0:
160,192,109695,1,0,0:0:0:0:
480,192,109853,1,0,0:0:0:0:
224,192,109853,1,0,0:0:0:0:
288,192,109853,1,0,0:0:0:0:
416,192,109932,1,0,0:0:0:0:
160,192,109932,1,0,0:0:0:0:
352,192,110011,1,0,0:0:0:0:
96,192,110011,1,0,0:0:0:0:
416,192,110089,1,0,0:0:0:0:
160,192,110089,1,0,0:0:0:0:
480,192,110168,1,0,0:0:0:0:
224,192,110168,1,0,0:0:0:0:
288,192,110326,1,0,0:0:0:0:
480,192,110326,1,0,0:0:0:0:
224,192,110326,1,0,0:0:0:0:
160,192,110405,1,0,0:0:0:0:
416,192,110405,1,0,0:0:0:0:
352,192,110484,1,0,0:0:0:0:
96,192,110484,1,0,0:0:0:0:
160,192,110563,1,0,0:0:0:0:
416,192,110563,1,0,0:0:0:0:
480,192,110642,1,0,0:0:0:0:
224,192,110642,1,0,0:0:0:0:
224,192,110800,1,0,0:0:0:0:
416,192,110800,1,0,0:0:0:0:
160,192,110879,1,0,0:0:0:0:
352,192,110879,1,0,0:0:0:0:
96,192,110958,1,0,0:0:0:0:
288,192,110958,1,0,0:0:0:0:
480,192,110958,1,0,0:0:0:0:
224,192,111037,1,0,0:0:0:0:
416,192,111037,1,0,0:0:0:0:
160,192,111116,1,0,0:0:0:0:
352,192,111116,1,0,0:0:0:0:
416,192,111195,1,0,0:0:0:0:
224,192,111195,1,0,0:0:0:0:
352,192,111274,1,0,0:0:0:0:
160,192,111274,1,0,0:0:0:0:
96,192,111353,1,0,0:0:0:0:
288,192,111353,1,0,0:0:0:0:
352,192,111432,1,0,0:0:0:0:
160,192,111432,1,0,0:0:0:0:
416,192,111511,1,0,0:0:0:0:
224,192,111511,1,0,0:0:0:0:
352,192,111589,1,0,0:0:0:0:
160,192,111589,1,0,0:0:0:0:
416,192,111668,1,0,0:0:0:0:
224,192,111668,1,0,0:0:0:0:
480,192,111747,1,0,0:0:0:0:
288,192,111747,1,0,0:0:0:0:
416,192,111826,1,0,0:0:0:0:
224,192,111826,1,0,0:0:0:0:
480,192,111905,1,0,0:0:0:0:
288,192,111905,1,0,0:0:0:0:
96,192,111905,1,0,0:0:0:0:
32,192,111905,1,0,0:0:0:0:
352,192,112221,1,0,0:0:0:0:
160,192,112221,1,0,0:0:0:0:
480,192,112221,1,0,0:0:0:0:
416,192,112300,1,0,0:0:0:0:
224,192,112300,1,0,0:0:0:0:
32,192,112379,1,0,0:0:0:0:
96,192,112379,1,0,0:0:0:0:
288,192,112379,1,0,0:0:0:0:
480,192,112379,1,0,0:0:0:0:
160,192,112695,1,0,0:0:0:0:
96,192,112853,1,0,0:0:0:0:
224,192,113011,1,0,0:0:0:0:
416,192,113011,1,0,0:0:0:0:
96,192,113011,1,0,0:0:0:0:
160,192,113089,1,0,0:0:0:0:
352,192,113089,1,0,0:0:0:0:
32,192,113168,1,0,0:0:0:0:
96,192,113168,1,0,0:0:0:0:
288,192,113168,1,0,0:0:0:0:
480,192,113168,1,0,0:0:0:0:
224,192,113484,5,0,0:0:0:0:
288,192,113484,1,0,0:0:0:0:
416,192,113484,1,0,0:0:0:0:
352,192,113563,1,0,0:0:0:0:
160,192,113563,1,0,0:0:0:0:
32,192,113642,5,0,0:0:0:0:
416,192,113642,1,0,0:0:0:0:
96,192,113642,1,0,0:0:0:0:
288,192,113642,1,0,0:0:0:0:
224,192,113800,1,0,0:0:0:0:
160,192,113958,1,0,0:0:0:0:
224,192,114116,1,0,0:0:0:0:
352,192,114116,1,0,0:0:0:0:
416,192,114274,1,0,0:0:0:0:
288,192,114353,1,0,0:0:0:0:
32,192,114432,5,0,0:0:0:0:
352,192,114432,1,0,0:0:0:0:
224,192,114432,1,0,0:0:0:0:
160,192,116116,1,0,0:0:0:0:
224,192,116326,1,0,0:0:0:0:
288,192,116432,1,0,0:0:0:0:
224,192,116537,1,0,0:0:0:0:
288,192,116642,1,0,0:0:0:0:
352,192,116747,1,0,0:0:0:0:
416,192,116853,1,0,0:0:0:0:
480,192,116958,1,0,0:0:0:0:
96,192,116958,1,0,0:0:0:0:
416,192,117063,1,0,0:0:0:0:
352,192,117168,1,0,0:0:0:0:
160,192,117168,1,0,0:0:0:0:
288,192,117274,1,0,0:0:0:0:
352,192,117379,1,0,0:0:0:0:
96,192,117379,1,0,0:0:0:0:
416,192,117484,1,0,0:0:0:0:
480,192,117589,1,0,0:0:0:0:
160,192,117589,1,0,0:0:0:0:
416,192,117800,1,0,0:0:0:0:
96,192,117800,1,0,0:0:0:0:
96,192,118011,1,0,0:0:0:0:
352,192,118011,1,0,0:0:0:0:
160,192,118221,1,0,0:0:0:0:
96,192,118326,1,0,0:0:0:0:
96,192,118458,1,0,0:0:0:0:
224,192,118695,1,0,0:0:0:0:
224,192,118853,1,0,0:0:0:0:
160,192,119050,1,0,0:0:0:0:
224,192,119247,1,0,0:0:0:0:
224,192,119405,1,0,0:0:0:0:
160,192,119642,1,0,0:0:0:0:
96,192,119839,1,0,0:0:0:0:
224,192,120076,1,0,0:0:0:0:
352,192,120313,1,0,0:0:0:0:
