osu file format v14

[General]
AudioFilename: audio.mp3
AudioLeadIn: 0
PreviewTime: 42352
Countdown: 0
SampleSet: None
StackLeniency: 0.2
Mode: 0
LetterboxInBreaks: 0
WidescreenStoryboard: 0

[Editor]
DistanceSpacing: 1.2
BeatDivisor: 4
GridSize: 32
TimelineZoom: 7.099995

[Metadata]
Title:encounter
TitleUnicode:encounter
Artist:Nekomata Master+
ArtistUnicode:猫叉Master+
Creator:blixys
Version:circles!
Source:jubeat saucer fufill
Tags:circles rhythm konami bemani naoyuki sato nao
BeatmapID:2047682
BeatmapSetID:978499

[Difficulty]
HPDrainRate:3
CircleSize:5
OverallDifficulty:8
ApproachRate:10
SliderMultiplier:1.4
SliderTickRate:1

[Events]
//Background and Video events
0,0,"bg.png",0,0
//Break Periods
2,83051,87454
//Storyboard Layer 0 (Background)
//Storyboard Layer 1 (Fail)
//Storyboard Layer 2 (Pass)
//Storyboard Layer 3 (Foreground)
//Storyboard Sound Samples

[TimingPoints]
747,315.789473684211,4,3,1,90,1,0
38641,-100,4,3,1,45,0,0
41957,-100,4,3,1,100,0,0
42431,-100,4,3,1,90,0,0
114450,-100,4,2,1,5,0,0
120325,-100,4,2,1,90,0,0

[Colours]
Combo1 : 0,255,64
Combo2 : 255,6,131
Combo3 : 1,89,254
Combo4 : 255,66,66
Combo5 : 255,255,0

[HitObjects]
107,53,747,5,0,0:0:0:0:
68,171,1378,5,0,0:0:0:0:
192,146,1694,5,14,0:0:0:0:
199,140,1772,1,2,0:0:0:0:
206,136,1851,1,2,0:0:0:0:
213,130,1930,1,2,0:0:0:0:
220,126,2009,1,10,0:0:0:0:
424,283,2325,5,0,0:0:0:0:
374,231,2483,1,0,0:0:0:0:
303,239,2640,1,0,0:0:0:0:
341,321,2798,1,8,0:0:0:0:
341,321,3273,5,0,0:0:0:0:
339,235,3431,1,0,0:0:0:0:
374,231,3510,1,0,0:0:0:0:
399,257,3589,1,8,0:0:0:0:
329,214,3747,5,0,0:0:0:0:
383,207,3826,1,0,0:0:0:0:
418,247,3905,1,0,0:0:0:0:
341,321,4062,5,8,0:0:0:0:
79,43,4536,5,0,0:0:0:0:
79,43,4694,1,0,0:0:0:0:
124,143,4852,5,8,0:0:0:0:
72,106,5010,1,0,0:0:0:0:
13,130,5168,1,0,0:0:0:0:
65,169,5326,1,8,0:0:0:0:
347,48,5800,5,8,0:0:0:0:
380,39,5877,1,0,0:0:0:0:
415,43,5956,1,0,0:0:0:0:
446,58,6035,1,0,0:0:0:0:
470,83,6115,1,8,0:0:0:0:
331,40,6274,5,8,0:0:0:0:
374,28,6351,1,0,0:0:0:0:
419,33,6430,1,0,0:0:0:0:
460,53,6509,1,0,0:0:0:0:
491,86,6589,1,8,0:0:0:0:
409,131,6747,1,2,0:0:0:0:
52,197,7062,5,0,0:0:0:0:
52,197,7220,1,0,0:0:0:0:
152,152,7378,5,8,0:0:0:0:
115,204,7536,1,0,0:0:0:0:
139,263,7694,1,0,0:0:0:0:
178,211,7852,1,8,0:0:0:0:
209,173,8325,5,8,0:0:0:0:
218,206,8403,1,0,0:0:0:0:
214,241,8482,1,0,0:0:0:0:
199,272,8561,1,0,0:0:0:0:
174,296,8640,1,8,0:0:0:0:
225,210,8799,5,8,0:0:0:0:
213,167,8877,1,0,0:0:0:0:
218,122,8956,1,0,0:0:0:0:
238,81,9035,1,0,0:0:0:0:
271,50,9114,1,8,0:0:0:0:
289,138,9273,1,8,0:0:0:0:
289,138,9378,1,2,0:0:0:0:
289,138,9483,1,2,0:0:0:0:
225,210,9589,1,0,0:0:0:0:
360,115,9747,5,0,0:0:0:0:
376,123,9825,1,0,0:0:0:0:
384,139,9904,1,8,0:0:0:0:
320,227,10062,5,0,0:0:0:0:
304,235,10140,1,0,0:0:0:0:
296,251,10219,1,0,0:0:0:0:
376,323,10378,1,8,0:0:0:0:
240,80,10852,5,8,0:0:0:0:
251,112,10930,1,0,0:0:0:0:
273,140,11009,1,0,0:0:0:0:
302,159,11088,1,0,0:0:0:0:
336,168,11167,1,8,0:0:0:0:
425,72,11326,5,8,0:0:0:0:
392,83,11403,1,0,0:0:0:0:
364,105,11483,1,0,0:0:0:0:
345,134,11561,1,0,0:0:0:0:
336,168,11640,1,8,0:0:0:0:
416,235,11799,5,0,0:0:0:0:
436,208,11878,1,0,0:0:0:0:
436,242,11957,1,0,0:0:0:0:
416,214,12036,1,0,0:0:0:0:
448,225,12115,1,4,0:0:0:0:
235,333,12273,5,0,0:0:0:0:
251,345,12352,5,0,0:0:0:0:
290,273,12431,1,8,0:0:0:0:
96,256,12589,5,0,0:0:0:0:
77,263,12668,5,0,0:0:0:0:
58,183,12747,1,8,0:0:0:0:
121,154,12904,1,8,0:0:0:0:
184,125,13062,1,8,0:0:0:0:
388,238,13379,5,8,0:0:0:0:
355,229,13456,1,0,0:0:0:0:
320,233,13535,1,0,0:0:0:0:
289,248,13614,1,0,0:0:0:0:
265,273,13694,1,8,0:0:0:0:
351,222,13853,5,8,0:0:0:0:
394,234,13930,1,0,0:0:0:0:
439,229,14009,1,0,0:0:0:0:
480,209,14088,1,0,0:0:0:0:
511,176,14168,1,8,0:0:0:0:
423,158,14326,5,4,0:0:0:0:
179,154,14641,5,8,0:0:0:0:
125,198,14799,1,0,0:0:0:0:
70,241,14957,1,8,0:0:0:0:
148,286,15115,1,0,0:0:0:0:
182,277,15193,1,0,0:0:0:0:
216,268,15272,1,8,0:0:0:0:
320,307,15431,1,8,0:0:0:0:
320,307,15589,1,8,0:0:0:0:
477,79,15904,5,8,0:0:0:0:
444,91,15982,1,0,0:0:0:0:
411,103,16061,1,0,0:0:0:0:
378,116,16140,1,0,0:0:0:0:
346,128,16219,1,8,0:0:0:0:
445,314,16378,5,8,0:0:0:0:
409,290,16456,1,0,0:0:0:0:
374,266,16535,1,0,0:0:0:0:
340,242,16614,1,0,0:0:0:0:
305,219,16693,1,8,0:0:0:0:
256,320,16852,5,0,0:0:0:0:
256,192,17010,1,0,0:0:0:0:
256,64,17168,1,12,0:0:0:0:
438,137,17483,5,8,0:0:0:0:
359,182,17641,1,0,0:0:0:0:
350,216,17719,1,0,0:0:0:0:
341,249,17799,1,8,0:0:0:0:
256,320,17957,1,8,0:0:0:0:
256,320,18116,1,8,0:0:0:0:
160,351,18431,5,8,0:0:0:0:
153,317,18509,1,0,0:0:0:0:
146,283,18588,1,0,0:0:0:0:
139,249,18667,1,0,0:0:0:0:
132,213,18746,1,8,0:0:0:0:
379,213,18905,5,8,0:0:0:0:
372,249,18983,1,0,0:0:0:0:
365,283,19062,1,0,0:0:0:0:
358,317,19141,1,0,0:0:0:0:
352,352,19220,1,8,0:0:0:0:
256,192,19378,1,2,0:0:0:0:
256,96,19694,5,8,0:0:0:0:
192,288,19852,5,0,0:0:0:0:
256,256,20010,1,4,0:0:0:0:
320,288,20168,1,0,0:0:0:0:
128,202,20325,5,8,0:0:0:0:
256,138,20483,1,4,0:0:0:0:
384,202,20641,1,8,0:0:0:0:
416,192,20957,5,2,0:0:0:0:
405,293,21115,1,2,0:0:0:0:
326,237,21273,1,10,0:0:0:0:
262,288,21431,1,2,0:0:0:0:
230,261,21589,5,2,0:0:0:0:
174,217,21668,5,2,0:0:0:0:
151,212,21747,5,2,0:0:0:0:
144,221,21825,5,2,0:0:0:0:
92,165,21904,5,10,0:0:0:0:
210,275,22062,1,8,0:0:0:0:
80,336,22220,5,4,0:0:0:0:
210,275,22378,1,0,0:0:0:0:
196,281,22457,1,0,0:0:0:0:
181,288,22536,1,8,0:0:0:0:
384,256,22694,1,0,0:0:0:0:
254,195,22852,1,0,0:0:0:0:
268,201,22931,1,0,0:0:0:0:
283,208,23010,1,8,0:0:0:0:
64,224,23168,5,8,0:0:0:0:
194,163,23325,1,0,0:0:0:0:
64,224,23483,5,0,0:0:0:0:
125,354,23640,1,8,0:0:0:0:
64,224,23799,5,0,0:0:0:0:
125,354,23956,1,0,0:0:0:0:
64,224,24115,5,8,0:0:0:0:
98,230,24193,1,0,0:0:0:0:
132,236,24272,1,0,0:0:0:0:
167,242,24351,1,0,0:0:0:0:
201,248,24430,1,8,0:0:0:0:
322,78,24589,1,0,0:0:0:0:
322,78,24747,5,10,0:0:0:0:
287,73,24825,1,0,0:0:0:0:
253,81,24904,1,0,0:0:0:0:
224,100,24983,1,0,0:0:0:0:
204,128,25062,1,8,0:0:0:0:
341,286,25221,5,8,0:0:0:0:
375,290,25299,1,0,0:0:0:0:
409,282,25378,1,0,0:0:0:0:
438,263,25457,1,0,0:0:0:0:
458,235,25536,1,8,0:0:0:0:
128,67,25695,5,8,0:0:0:0:
99,87,25773,1,0,0:0:0:0:
80,116,25852,1,0,0:0:0:0:
72,150,25931,1,0,0:0:0:0:
83,183,26010,1,8,0:0:0:0:
384,180,26168,5,8,0:0:0:0:
349,175,26246,1,0,0:0:0:0:
315,183,26325,1,0,0:0:0:0:
286,202,26404,1,0,0:0:0:0:
266,230,26483,1,8,0:0:0:0:
102,336,26642,5,8,0:0:0:0:
136,340,26720,1,0,0:0:0:0:
170,332,26799,1,0,0:0:0:0:
199,313,26878,1,0,0:0:0:0:
219,285,26957,1,8,0:0:0:0:
449,137,27115,5,8,0:0:0:0:
475,130,27194,5,8,0:0:0:0:
432,48,27273,5,6,0:0:0:0:
302,109,27431,1,0,0:0:0:0:
316,103,27510,1,0,0:0:0:0:
331,96,27589,1,8,0:0:0:0:
101,246,27747,5,0,0:0:0:0:
231,307,27905,1,0,0:0:0:0:
217,301,27984,1,0,0:0:0:0:
202,294,28063,1,8,0:0:0:0:
448,160,28221,5,8,0:0:0:0:
318,221,28378,1,0,0:0:0:0:
448,160,28536,5,0,0:0:0:0:
387,30,28693,1,8,0:0:0:0:
318,221,28852,1,0,0:0:0:0:
257,91,29010,1,0,0:0:0:0:
160,149,29168,1,8,0:0:0:0:
168,182,29246,1,0,0:0:0:0:
185,212,29325,1,0,0:0:0:0:
211,236,29404,1,0,0:0:0:0:
244,247,29483,5,10,0:0:0:0:
221,221,29562,5,2,0:0:0:0:
241,182,29641,5,2,0:0:0:0:
179,100,29720,5,2,0:0:0:0:
205,85,29799,5,6,0:0:0:0:
311,180,29957,5,0,0:0:0:0:
276,173,30035,1,0,0:0:0:0:
249,152,30114,1,8,0:0:0:0:
442,209,30273,5,0,0:0:0:0:
347,315,30431,5,0,0:0:0:0:
353,280,30509,1,0,0:0:0:0:
374,253,30588,1,8,0:0:0:0:
168,249,30747,5,8,0:0:0:0:
258,318,30904,1,0,0:0:0:0:
168,249,31062,5,0,0:0:0:0:
168,249,31220,5,8,0:0:0:0:
63,292,31377,1,0,0:0:0:0:
168,249,31535,5,0,0:0:0:0:
320,80,31694,5,2,0:0:0:0:
318,99,31773,5,2,0:0:0:0:
315,165,31852,5,2,0:0:0:0:
264,173,31931,5,2,0:0:0:0:
276,224,32010,5,2,0:0:0:0:
303,252,32089,5,2,0:0:0:0:
320,288,32168,5,2,0:0:0:0:
337,283,32247,5,2,0:0:0:0:
416,256,32325,5,14,0:0:0:0:
448,320,32641,1,0,0:0:0:0:
96,224,32799,5,8,0:0:0:0:
64,288,33115,1,0,0:0:0:0:
416,96,33273,5,8,0:0:0:0:
448,160,33589,1,0,0:0:0:0:
96,64,33747,5,8,0:0:0:0:
64,128,34063,1,0,0:0:0:0:
416,24,34220,5,10,0:0:0:0:
440,32,34378,5,2,0:0:0:0:
408,104,34536,1,8,0:0:0:0:
96,64,34694,5,2,0:0:0:0:
72,72,34852,5,2,0:0:0:0:
104,144,35010,1,8,0:0:0:0:
432,184,35168,5,2,0:0:0:0:
456,192,35326,5,2,0:0:0:0:
424,264,35484,1,8,0:0:0:0:
112,224,35642,5,2,0:0:0:0:
88,232,35800,5,2,0:0:0:0:
120,304,35958,1,8,0:0:0:0:
400,264,36115,5,2,0:0:0:0:
424,272,36273,5,2,0:0:0:0:
392,344,36431,1,8,0:0:0:0:
240,304,36589,5,0,0:0:0:0:
272,352,36747,5,8,0:0:0:0:
240,304,36852,5,8,0:0:0:0:
272,256,36957,5,8,0:0:0:0:
240,208,37062,5,8,0:0:0:0:
272,160,37167,5,8,0:0:0:0:
240,112,37272,5,8,0:0:0:0:
256,32,37378,5,14,0:0:0:0:
57,59,38641,5,0,1:0:0:0:
105,152,38799,1,0,1:0:0:0:
138,141,38877,1,0,1:0:0:0:
171,130,38956,1,0,1:0:0:0:
204,119,39035,1,0,1:0:0:0:
238,109,39114,1,0,1:0:0:0:
419,188,39273,5,0,1:0:0:0:
369,204,39352,1,0,1:0:0:0:
319,220,39431,1,0,1:0:0:0:
269,236,39510,1,0,1:0:0:0:
219,252,39588,1,0,1:0:0:0:
144,44,39747,5,2,1:0:0:0:
160,32,39825,5,2,1:0:0:0:
143,156,39904,5,8,0:0:0:0:
143,156,40115,1,0,0:0:0:0:
143,156,40325,1,0,0:0:0:0:
143,156,40536,1,0,0:0:0:0:
143,156,40746,1,0,0:0:0:0:
143,156,40957,1,0,0:0:0:0:
283,93,41168,5,2,1:0:0:0:
297,189,41378,1,10,0:0:0:0:
290,211,41483,1,10,0:0:0:0:
283,233,41589,1,10,0:0:0:0:
27,113,41957,5,0,1:0:0:0:
42,74,42036,5,2,1:0:0:0:
68,106,42115,5,2,1:0:0:0:
159,35,42273,5,0,1:0:0:0:
198,50,42352,5,2,1:0:0:0:
166,76,42431,5,8,3:0:0:0:
294,228,42668,5,0,0:0:0:0:
294,228,42747,1,2,0:0:0:0:
368,268,42904,1,0,0:0:0:0:
334,154,43062,1,8,0:0:0:0:
408,194,43220,1,2,0:0:0:0:
334,154,43378,5,8,0:0:0:0:
368,268,43536,1,2,0:0:0:0:
334,154,43694,1,0,0:0:0:0:
73,40,43852,5,0,0:0:0:0:
73,40,43930,1,0,0:0:0:0:
73,40,44009,1,2,0:0:0:0:
33,114,44167,1,0,0:0:0:0:
147,80,44325,1,0,0:0:0:0:
107,154,44482,1,0,0:0:0:0:
147,80,44640,5,8,0:0:0:0:
177,63,44719,1,0,0:0:0:0:
211,56,44798,1,8,0:0:0:0:
246,60,44877,1,0,0:0:0:0:
278,73,44956,1,8,0:0:0:0:
70,269,45115,5,0,0:0:0:0:
79,242,45194,5,0,0:0:0:0:
97,263,45273,5,2,0:0:0:0:
22,313,45431,5,0,0:0:0:0:
67,178,45589,1,8,0:0:0:0:
157,283,45747,1,2,0:0:0:0:
67,178,45904,1,8,0:0:0:0:
206,207,46062,1,10,0:0:0:0:
235,68,46220,1,0,0:0:0:0:
374,97,46378,1,0,0:0:0:0:
345,236,46536,5,8,0:0:0:0:
310,238,46614,1,0,0:0:0:0:
276,248,46693,1,0,0:0:0:0:
247,267,46772,1,0,0:0:0:0:
223,293,46851,1,12,0:0:0:0:
191,183,47010,1,8,0:0:0:0:
191,183,47168,1,8,0:0:0:0:
111,266,47325,1,0,0:0:0:0:
382,0,47483,5,10,0:0:0:0:
491,59,47641,1,2,0:0:0:0:
471,52,47720,1,2,0:0:0:0:
471,31,47799,1,2,0:0:0:0:
491,25,47878,1,2,0:0:0:0:
503,42,47957,1,14,0:0:0:0:
247,224,48273,5,0,0:0:0:0:
136,154,48431,5,0,0:0:0:0:
131,285,48589,1,8,0:0:0:0:
136,154,48747,1,0,0:0:0:0:
244,81,48904,1,0,0:0:0:0:
278,78,48983,1,0,0:0:0:0:
312,85,49062,1,2,0:0:0:0:
244,81,49220,1,0,0:0:0:0:
130,93,49378,5,8,0:0:0:0:
323,74,49536,1,8,0:0:0:0:
163,216,49694,1,8,0:0:0:0:
357,198,49852,1,8,0:0:0:0:
196,340,50010,1,4,0:0:0:0:
163,216,50325,1,8,0:0:0:0:
154,183,50403,1,0,0:0:0:0:
145,149,50482,1,2,0:0:0:0:
196,340,50641,1,0,0:0:0:0:
145,149,50799,5,2,0:0:0:0:
335,200,50957,1,0,0:0:0:0:
145,149,51115,1,8,0:0:0:0:
391,80,51273,1,0,0:0:0:0:
256,64,51432,5,0,0:0:0:0:
290,58,51509,1,0,0:0:0:0:
325,58,51588,1,0,0:0:0:0:
359,66,51667,1,0,0:0:0:0:
391,80,51747,1,10,0:0:0:0:
128,128,51904,5,0,0:0:0:0:
147,125,51983,5,0,0:0:0:0:
151,210,52062,1,6,0:0:0:0:
318,182,52220,5,0,0:0:0:0:
299,179,52299,5,0,0:0:0:0:
295,264,52378,1,6,0:0:0:0:
43,357,52536,5,0,0:0:0:0:
70,335,52614,1,0,0:0:0:0:
103,323,52693,1,0,0:0:0:0:
138,322,52772,1,0,0:0:0:0:
172,330,52851,1,8,0:0:0:0:
43,357,53010,5,0,0:0:0:0:
103,323,53167,1,0,0:0:0:0:
172,330,53325,1,8,0:0:0:0:
43,357,53483,5,0,0:0:0:0:
172,330,53641,1,8,0:0:0:0:
413,39,53799,5,0,0:0:0:0:
435,66,53877,1,0,0:0:0:0:
447,99,53956,1,0,0:0:0:0:
448,134,54035,1,0,0:0:0:0:
440,168,54114,1,8,0:0:0:0:
413,39,54273,5,0,0:0:0:0:
447,99,54430,1,0,0:0:0:0:
440,168,54588,1,8,0:0:0:0:
413,39,54747,5,8,0:0:0:0:
420,71,54825,1,8,0:0:0:0:
426,103,54904,1,8,0:0:0:0:
433,135,54983,1,8,0:0:0:0:
440,168,55062,1,8,0:0:0:0:
23,61,55220,5,0,0:0:0:0:
42,58,55299,5,0,0:0:0:0:
46,143,55378,1,8,0:0:0:0:
212,51,55536,5,0,0:0:0:0:
42,58,55694,1,0,0:0:0:0:
212,51,55852,5,2,0:0:0:0:
42,58,56010,1,0,0:0:0:0:
49,228,56168,5,10,0:0:0:0:
130,139,56325,1,0,0:0:0:0:
49,228,56483,1,0,0:0:0:0:
130,139,56641,1,2,0:0:0:0:
162,151,56719,1,2,0:0:0:0:
197,154,56798,1,8,0:0:0:0:
231,148,56877,1,8,0:0:0:0:
263,134,56956,1,4,0:0:0:0:
130,139,57116,5,8,0:0:0:0:
263,134,57273,1,8,0:0:0:0:
202,287,57431,1,0,0:0:0:0:
199,220,57510,1,0,0:0:0:0:
197,154,57589,1,6,0:0:0:0:
402,85,57747,5,0,0:0:0:0:
385,79,57825,1,8,0:0:0:0:
385,62,57904,1,0,0:0:0:0:
402,56,57983,1,8,0:0:0:0:
412,69,58062,1,6,0:0:0:0:
265,267,58220,5,0,0:0:0:0:
287,145,58378,1,2,0:0:0:0:
387,289,58536,1,0,0:0:0:0:
409,167,58694,1,8,0:0:0:0:
337,217,58852,1,0,0:0:0:0:
84,148,59010,5,0,0:0:0:0:
116,158,59088,5,0,0:0:0:0:
138,185,59167,5,8,0:0:0:0:
260,63,59325,5,0,0:0:0:0:
234,86,59404,5,0,0:0:0:0:
200,91,59483,5,2,0:0:0:0:
217,228,59641,1,2,0:0:0:0:
328,145,59799,5,2,0:0:0:0:
345,282,59957,1,2,0:0:0:0:
200,91,60115,1,0,0:0:0:0:
328,145,60273,1,0,0:0:0:0:
90,173,60431,1,0,0:0:0:0:
107,203,60509,1,0,0:0:0:0:
130,229,60588,1,2,0:0:0:0:
322,228,60747,5,0,0:0:0:0:
356,233,60826,1,0,0:0:0:0:
391,227,60904,1,8,0:0:0:0:
247,121,61062,1,0,0:0:0:0:
251,156,61141,1,0,0:0:0:0:
266,187,61220,1,8,0:0:0:0:
247,121,61378,5,2,0:0:0:0:
252,86,61457,1,2,0:0:0:0:
245,52,61535,1,2,0:0:0:0:
140,196,61693,1,2,0:0:0:0:
175,191,61772,1,2,0:0:0:0:
206,176,61851,1,2,0:0:0:0:
27,113,62010,5,0,1:0:0:0:
42,74,62089,5,2,1:0:0:0:
68,106,62168,5,0,1:0:0:0:
359,95,62326,5,0,1:0:0:0:
398,110,62405,5,2,1:0:0:0:
366,136,62484,5,0,1:0:0:0:
50,307,62641,5,0,0:0:0:0:
156,217,62799,5,0,0:0:0:0:
145,190,62878,1,8,0:0:0:0:
167,358,63036,5,0,0:0:0:0:
178,331,63115,1,8,0:0:0:0:
167,358,63273,1,2,0:0:0:0:
145,190,63431,1,2,0:0:0:0:
458,269,63589,5,8,0:0:0:0:
423,265,63667,1,2,0:0:0:0:
390,253,63746,1,8,0:0:0:0:
360,234,63825,1,2,0:0:0:0:
336,209,63904,5,8,0:0:0:0:
318,180,63983,1,2,0:0:0:0:
307,147,64062,1,8,0:0:0:0:
304,112,64141,1,2,0:0:0:0:
309,77,64220,1,8,0:0:0:0:
293,80,64299,5,0,0:0:0:0:
270,95,64378,5,8,0:0:0:0:
215,145,64457,5,0,0:0:0:0:
186,139,64536,5,8,0:0:0:0:
186,205,64615,5,0,0:0:0:0:
190,210,64694,5,8,0:0:0:0:
154,230,64773,5,0,0:0:0:0:
130,288,64852,5,8,0:0:0:0:
144,297,64931,5,0,0:0:0:0:
213,282,65010,5,8,0:0:0:0:
220,290,65089,5,0,0:0:0:0:
315,319,65168,1,12,0:0:0:0:
304,178,65325,5,0,0:0:0:0:
293,151,65404,1,8,0:0:0:0:
315,319,65562,5,0,0:0:0:0:
326,292,65641,1,8,0:0:0:0:
293,151,65799,5,2,1:0:0:0:
143,83,66115,5,6,0:0:0:0:
197,238,66273,5,0,0:0:0:0:
224,249,66352,1,8,0:0:0:0:
56,227,66510,5,0,0:0:0:0:
83,216,66589,1,8,0:0:0:0:
224,249,66747,5,0,0:0:0:0:
208,217,66825,1,0,0:0:0:0:
211,182,66904,1,0,0:0:0:0:
228,152,66983,1,0,0:0:0:0:
257,133,67062,5,8,0:0:0:0:
305,223,67220,1,4,0:0:0:0:
347,85,67378,5,0,0:0:0:0:
305,223,67536,1,12,0:0:0:0:
74,48,67694,5,0,0:0:0:0:
133,179,67852,5,0,0:0:0:0:
153,141,67931,1,8,0:0:0:0:
260,352,68089,5,0,0:0:0:0:
240,314,68168,1,8,0:0:0:0:
297,220,68325,5,2,1:0:0:0:
347,125,68483,5,2,1:0:0:0:
143,116,68641,5,8,0:0:0:0:
165,89,68720,1,2,0:0:0:0:
194,69,68798,1,8,0:0:0:0:
227,57,68878,1,2,0:0:0:0:
261,54,68956,5,8,0:0:0:0:
296,60,69036,1,2,0:0:0:0:
328,75,69114,1,8,0:0:0:0:
354,97,69193,1,2,0:0:0:0:
375,125,69272,5,8,0:0:0:0:
387,158,69351,1,2,0:0:0:0:
391,193,69430,1,8,0:0:0:0:
385,227,69509,1,2,0:0:0:0:
371,259,69588,5,8,0:0:0:0:
349,286,69667,1,2,0:0:0:0:
321,307,69746,1,8,0:0:0:0:
289,320,69825,1,2,0:0:0:0:
254,324,69904,5,8,0:0:0:0:
178,307,69983,5,2,0:0:0:0:
204,227,70062,5,8,0:0:0:0:
173,168,70141,5,2,0:0:0:0:
159,143,70220,5,12,0:0:0:0:
76,45,70378,5,0,0:0:0:0:
29,61,70457,1,8,0:0:0:0:
326,215,70615,5,0,0:0:0:0:
373,199,70694,1,8,0:0:0:0:
459,35,70852,5,2,1:0:0:0:
252,73,71168,5,8,0:0:0:0:
67,130,71325,5,0,0:0:0:0:
51,83,71404,1,8,0:0:0:0:
233,262,71562,5,0,0:0:0:0:
249,309,71641,1,8,0:0:0:0:
463,308,71799,5,0,0:0:0:0:
428,309,71877,1,0,0:0:0:0:
393,311,71956,1,0,0:0:0:0:
358,313,72035,1,0,0:0:0:0:
323,314,72115,5,8,0:0:0:0:
391,153,72273,1,2,0:0:0:0:
162,237,72431,5,8,0:0:0:0:
94,76,72589,1,2,0:0:0:0:
256,32,72747,5,14,0:0:0:0:
256,32,72983,5,14,0:0:0:0:
256,32,73220,5,14,0:0:0:0:
71,72,73535,5,2,0:0:0:0:
64,55,73614,1,2,0:0:0:0:
58,39,73693,1,10,0:0:0:0:
139,152,73851,5,2,0:0:0:0:
146,135,73930,1,2,0:0:0:0:
152,119,74009,1,10,0:0:0:0:
75,237,74167,5,2,0:0:0:0:
68,220,74246,1,2,0:0:0:0:
62,204,74325,1,10,0:0:0:0:
156,284,74482,5,2,0:0:0:0:
150,300,74561,1,2,0:0:0:0:
143,317,74641,5,10,0:0:0:0:
151,335,74720,5,0,0:0:0:0:
218,310,74799,5,8,0:0:0:0:
235,275,74878,5,0,0:0:0:0:
246,273,74957,5,8,0:0:0:0:
321,280,75036,5,0,0:0:0:0:
300,303,75115,5,8,0:0:0:0:
372,288,75194,1,0,0:0:0:0:
400,190,75273,5,14,0:0:0:0:
400,190,75510,5,14,0:0:0:0:
400,190,75747,5,14,0:0:0:0:
59,145,76062,5,0,0:0:0:0:
72,151,76141,5,0,0:0:0:0:
113,56,76220,1,6,0:0:0:0:
464,80,76457,5,4,0:0:0:0:
373,73,76615,5,0,0:0:0:0:
352,49,76694,1,8,0:0:0:0:
433,191,76852,5,0,0:0:0:0:
457,218,76931,1,8,0:0:0:0:
280,112,77089,5,0,0:0:0:0:
254,82,77168,1,8,0:0:0:0:
382,278,77325,5,0,0:0:0:0:
410,311,77404,1,8,0:0:0:0:
186,151,77562,5,0,0:0:0:0:
155,115,77641,1,8,0:0:0:0:
288,256,77799,5,14,0:0:0:0:
288,256,78036,5,14,0:0:0:0:
288,256,78273,5,14,0:0:0:0:
160,288,78589,5,0,0:0:0:0:
160,288,78668,1,0,0:0:0:0:
160,288,78747,5,8,0:0:0:0:
64,224,78983,1,8,0:0:0:0:
96,96,79220,1,8,0:0:0:0:
201,174,79378,5,8,0:0:0:0:
246,161,79483,1,0,0:0:0:0:
291,149,79588,1,8,0:0:0:0:
282,205,79694,5,8,0:0:0:0:
327,217,79799,1,0,0:0:0:0:
372,229,79904,1,8,0:0:0:0:
363,284,80010,5,8,0:0:0:0:
408,272,80115,1,0,0:0:0:0:
453,260,80220,1,8,0:0:0:0:
480,320,80325,5,12,0:0:0:0:
256,192,80345,12,0,82378,0:0:0:0:
256,384,82536,5,8,0:0:0:0:
256,192,82693,1,8,0:0:0:0:
256,0,82851,1,6,0:0:0:0:
281,126,87904,5,0,0:0:0:0:
329,192,88062,5,0,0:0:0:0:
299,209,88140,1,0,0:0:0:0:
264,209,88219,1,8,0:0:0:0:
195,181,88378,5,0,0:0:0:0:
160,181,88457,1,0,0:0:0:0:
131,199,88535,1,0,0:0:0:0:
83,278,88694,1,8,0:0:0:0:
131,199,88852,1,0,0:0:0:0:
83,278,89011,1,8,0:0:0:0:
269,265,89168,5,0,0:0:0:0:
335,313,89326,5,0,0:0:0:0:
352,284,89404,1,0,0:0:0:0:
352,249,89483,1,8,0:0:0:0:
324,179,89642,5,0,0:0:0:0:
324,144,89721,1,0,0:0:0:0:
342,115,89799,1,0,0:0:0:0:
421,67,89957,5,8,0:0:0:0:
434,99,90035,1,0,0:0:0:0:
447,131,90114,1,8,0:0:0:0:
421,67,90273,1,0,0:0:0:0:
196,57,90431,5,0,0:0:0:0:
82,100,90589,1,0,0:0:0:0:
293,94,90747,5,8,0:0:0:0:
196,57,90904,1,0,0:0:0:0:
191,109,90982,1,0,0:0:0:0:
187,161,91062,1,0,0:0:0:0:
291,171,91220,1,8,0:0:0:0:
187,161,91378,1,0,0:0:0:0:
196,57,91536,1,8,0:0:0:0:
32,320,91694,5,8,0:0:0:0:
56,305,91772,1,0,0:0:0:0:
83,295,91852,1,8,0:0:0:0:
110,289,91930,1,0,0:0:0:0:
139,288,92009,5,8,0:0:0:0:
167,290,92089,1,0,0:0:0:0:
195,296,92167,1,8,0:0:0:0:
222,305,92246,1,0,0:0:0:0:
248,316,92325,1,8,0:0:0:0:
274,328,92404,5,0,0:0:0:0:
301,337,92483,1,8,0:0:0:0:
328,344,92562,1,0,0:0:0:0:
356,348,92641,1,8,0:0:0:0:
385,347,92720,1,0,0:0:0:0:
413,344,92799,5,8,0:0:0:0:
441,337,92878,1,0,0:0:0:0:
467,326,92957,1,4,0:0:0:0:
69,252,93589,5,14,0:0:0:0:
296,0,93825,5,14,0:0:0:0:
401,323,94062,5,14,0:0:0:0:
180,304,94220,5,8,0:0:0:0:
147,316,94298,1,0,0:0:0:0:
112,320,94377,1,0,0:0:0:0:
77,317,94456,1,0,0:0:0:0:
44,306,94535,1,0,0:0:0:0:
156,216,94694,5,8,0:0:0:0:
128,193,94772,1,0,0:0:0:0:
107,166,94851,1,0,0:0:0:0:
93,134,94930,1,0,0:0:0:0:
86,100,95009,1,0,0:0:0:0:
220,152,95168,5,8,0:0:0:0:
225,117,95246,1,0,0:0:0:0:
238,85,95325,1,0,0:0:0:0:
259,56,95404,1,0,0:0:0:0:
285,33,95483,1,0,0:0:0:0:
308,176,95642,5,8,0:0:0:0:
340,163,95720,1,0,0:0:0:0:
375,159,95799,1,0,0:0:0:0:
410,162,95878,1,0,0:0:0:0:
443,173,95957,5,0,0:0:0:0:
435,184,96036,5,0,0:0:0:0:
450,213,96115,5,2,0:0:0:0:
427,231,96194,5,2,0:0:0:0:
432,260,96273,5,2,0:0:0:0:
450,287,96352,5,2,0:0:0:0:
428,314,96431,5,2,0:0:0:0:
390,337,96510,5,2,0:0:0:0:
384,334,96589,5,2,0:0:0:0:
375,327,96668,5,2,0:0:0:0:
339,246,96747,5,10,0:0:0:0:
312,224,96825,1,0,0:0:0:0:
291,197,96904,1,0,0:0:0:0:
277,165,96983,1,0,0:0:0:0:
270,131,97062,1,0,0:0:0:0:
134,133,97220,5,8,0:0:0:0:
168,121,97298,1,0,0:0:0:0:
202,116,97377,1,0,0:0:0:0:
237,120,97456,1,0,0:0:0:0:
270,131,97535,1,0,0:0:0:0:
206,250,97694,5,8,0:0:0:0:
178,227,97772,1,0,0:0:0:0:
156,200,97851,1,0,0:0:0:0:
142,168,97930,1,0,0:0:0:0:
135,134,98009,1,0,0:0:0:0:
71,254,98168,5,8,0:0:0:0:
104,241,98246,1,0,0:0:0:0:
139,235,98325,1,0,0:0:0:0:
174,239,98404,1,0,0:0:0:0:
206,250,98483,1,0,0:0:0:0:
277,307,98641,5,2,0:0:0:0:
292,292,98720,5,2,0:0:0:0:
283,257,98799,5,2,0:0:0:0:
316,231,98878,5,2,0:0:0:0:
312,186,98957,5,2,0:0:0:0:
328,144,99036,5,2,0:0:0:0:
370,145,99115,5,2,0:0:0:0:
346,97,99194,5,2,0:0:0:0:
394,72,99273,5,10,0:0:0:0:
401,106,99352,1,0,0:0:0:0:
415,138,99431,1,0,0:0:0:0:
437,165,99510,1,0,0:0:0:0:
465,188,99588,1,0,0:0:0:0:
349,259,99747,5,0,0:0:0:0:
383,252,99826,1,0,0:0:0:0:
415,238,99905,1,0,0:0:0:0:
442,216,99984,1,0,0:0:0:0:
465,188,100062,1,0,0:0:0:0:
349,259,100220,5,8,0:0:0:0:
342,225,100299,1,0,0:0:0:0:
328,193,100378,1,0,0:0:0:0:
306,166,100457,1,0,0:0:0:0:
278,143,100535,1,0,0:0:0:0:
162,214,100694,5,8,0:0:0:0:
196,207,100773,1,0,0:0:0:0:
228,193,100852,1,0,0:0:0:0:
255,171,100931,1,0,0:0:0:0:
278,143,101009,5,2,0:0:0:0:
269,144,101089,5,2,0:0:0:0:
229,120,101168,5,2,0:0:0:0:
190,105,101247,5,2,0:0:0:0:
187,140,101325,5,2,0:0:0:0:
143,102,101404,5,2,0:0:0:0:
112,118,101483,5,2,0:0:0:0:
88,80,101562,5,2,0:0:0:0:
79,84,101641,5,2,0:0:0:0:
68,75,101720,5,2,0:0:0:0:
66,67,101799,5,6,0:0:0:0:
110,271,102115,5,0,0:0:0:0:
90,217,102273,1,8,0:0:0:0:
256,352,102431,5,0,0:0:0:0:
256,192,102589,1,0,0:0:0:0:
256,32,102747,1,0,0:0:0:0:
362,336,102904,5,0,0:0:0:0:
365,301,102982,1,0,0:0:0:0:
368,266,103061,1,8,0:0:0:0:
384,80,103378,5,0,0:0:0:0:
381,115,103456,1,0,0:0:0:0:
378,150,103535,1,8,0:0:0:0:
54,312,103694,5,0,0:0:0:0:
86,216,103852,1,0,0:0:0:0:
153,291,104010,1,0,0:0:0:0:
24,95,104168,5,0,0:0:0:0:
32,98,104247,5,0,0:0:0:0:
54,0,104325,5,8,0:0:0:0:
84,18,104403,1,0,0:0:0:0:
109,42,104482,1,0,0:0:0:0:
129,71,104561,1,0,0:0:0:0:
142,104,104640,1,0,0:0:0:0:
11,138,104799,5,8,0:0:0:0:
45,138,104877,1,0,0:0:0:0:
78,146,104956,1,0,0:0:0:0:
110,162,105035,1,0,0:0:0:0:
138,184,105114,1,0,0:0:0:0:
41,277,105273,5,8,0:0:0:0:
71,260,105351,1,0,0:0:0:0:
104,251,105430,1,0,0:0:0:0:
140,248,105509,1,0,0:0:0:0:
175,253,105588,1,0,0:0:0:0:
139,383,105747,5,8,0:0:0:0:
156,354,105825,1,0,0:0:0:0:
179,329,105904,1,0,0:0:0:0:
209,310,105983,1,0,0:0:0:0:
242,296,106062,5,0,0:0:0:0:
244,289,106141,5,0,0:0:0:0:
239,253,106220,5,2,0:0:0:0:
255,219,106299,5,2,0:0:0:0:
229,167,106378,5,2,0:0:0:0:
245,152,106457,5,2,0:0:0:0:
235,116,106536,5,2,0:0:0:0:
248,94,106615,5,2,0:0:0:0:
269,88,106694,5,2,0:0:0:0:
271,104,106773,5,2,0:0:0:0:
299,42,106852,5,10,0:0:0:0:
329,58,106930,1,0,0:0:0:0:
354,83,107009,1,0,0:0:0:0:
371,113,107088,1,0,0:0:0:0:
378,147,107167,1,0,0:0:0:0:
144,251,107325,5,8,0:0:0:0:
113,234,107403,1,0,0:0:0:0:
88,209,107482,1,0,0:0:0:0:
71,179,107561,1,0,0:0:0:0:
64,145,107640,1,0,0:0:0:0:
241,285,107799,5,8,0:0:0:0:
224,316,107877,1,0,0:0:0:0:
199,341,107956,1,0,0:0:0:0:
169,358,108035,1,0,0:0:0:0:
135,365,108114,1,0,0:0:0:0:
197,80,108273,5,8,0:0:0:0:
214,49,108351,1,0,0:0:0:0:
239,24,108430,1,0,0:0:0:0:
269,7,108509,1,0,0:0:0:0:
303,0,108588,5,0,0:0:0:0:
296,18,108668,5,2,0:0:0:0:
320,59,108747,5,2,0:0:0:0:
341,98,108825,5,2,0:0:0:0:
345,137,108904,5,2,0:0:0:0:
305,144,108983,5,2,0:0:0:0:
319,163,109062,5,2,0:0:0:0:
339,204,109141,5,2,0:0:0:0:
321,213,109220,5,2,0:0:0:0:
322,221,109299,5,2,0:0:0:0:
335,236,109378,5,10,0:0:0:0:
300,239,109456,1,0,0:0:0:0:
266,232,109535,1,0,0:0:0:0:
235,216,109614,1,0,0:0:0:0:
211,190,109693,1,0,0:0:0:0:
335,236,109852,5,8,0:0:0:0:
349,204,109930,1,0,0:0:0:0:
372,177,110009,1,0,0:0:0:0:
401,159,110088,1,0,0:0:0:0:
435,151,110167,1,0,0:0:0:0:
335,236,110325,5,8,0:0:0:0:
355,264,110403,1,0,0:0:0:0:
366,297,110482,1,0,0:0:0:0:
367,332,110561,1,0,0:0:0:0:
357,365,110640,1,0,0:0:0:0:
82,213,110799,5,8,0:0:0:0:
110,192,110877,1,0,0:0:0:0:
143,181,110956,1,0,0:0:0:0:
178,180,111035,1,0,0:0:0:0:
211,190,111115,5,2,0:0:0:0:
213,197,111194,5,2,0:0:0:0:
234,238,111273,5,2,0:0:0:0:
197,272,111352,5,2,0:0:0:0:
218,277,111431,5,2,0:0:0:0:
247,313,111510,5,2,0:0:0:0:
281,335,111589,5,2,0:0:0:0:
306,301,111668,5,2,0:0:0:0:
320,294,111747,5,2,0:0:0:0:
348,260,111825,5,2,0:0:0:0:
384,246,111904,5,14,0:0:0:0:
350,73,112220,1,0,0:0:0:0:
365,104,112298,1,0,0:0:0:0:
380,135,112377,1,8,0:0:0:0:
256,96,112694,1,8,0:0:0:0:
256,192,112852,1,0,0:0:0:0:
189,237,113010,5,8,0:0:0:0:
173,268,113088,1,0,0:0:0:0:
158,299,113167,1,8,0:0:0:0:
276,277,113325,5,2,0:0:0:0:
268,182,113483,5,0,0:0:0:0:
253,151,113562,1,0,0:0:0:0:
237,120,113640,1,10,0:0:0:0:
27,235,113799,5,2,0:0:0:0:
72,138,113957,1,0,0:0:0:0:
124,280,114115,1,8,0:0:0:0:
169,183,114273,5,0,0:0:0:0:
203,189,114351,1,0,0:0:0:0:
238,187,114430,1,14,0:0:0:0:
256,192,114450,12,0,120325,1:0:0:0:
