osu file format v14

[General]
AudioFilename: encounter.mp3
AudioLeadIn: 0
PreviewTime: 42431
Countdown: 0
SampleSet: None
StackLeniency: 0.7
Mode: 0
LetterboxInBreaks: 1
WidescreenStoryboard: 1

[Editor]
Bookmarks: 28694,62641
DistanceSpacing: 1.3
BeatDivisor: 4
GridSize: 32
TimelineZoom: 2.7

[Metadata]
Title:encounter
TitleUnicode:encounter
Artist:Nekomata Master+
ArtistUnicode:猫叉Master+
Creator:Sing
Version:Hard
Source:jubeat saucer fulfill
Tags:sionKotori kotori bms konami bemani lgv894 lgv irre irreversible frey sharkie mikii priti avena
BeatmapID:994023
BeatmapSetID:352575

[Difficulty]
HPDrainRate:5
CircleSize:4
OverallDifficulty:6
ApproachRate:8
SliderMultiplier:1.4
SliderTickRate:1

[Events]
//Background and Video events
0,0,"final bg.png",0,0
//Break Periods
2,40104,41207
2,83051,84154
//Storyboard Layer 0 (Background)
//Storyboard Layer 1 (Fail)
//Storyboard Layer 2 (Pass)
//Storyboard Layer 3 (Foreground)
//Storyboard Sound Samples

[TimingPoints]
747,315.789473684211,4,3,0,60,1,0
747,-100,4,3,0,60,0,0
12115,-100,4,3,0,60,0,0
22220,-100,4,3,0,60,0,0
32326,-100,4,3,0,60,0,0
37378,-100,4,3,0,60,0,0
39904,-100,4,3,0,60,0,0
42115,-100,4,3,0,60,0,0
42431,-100,4,3,0,60,0,0
62641,-100,4,3,0,60,0,0
67062,-100,4,3,0,60,0,0
67694,-100,4,3,0,60,0,0
72115,-100,4,3,0,60,0,0
72747,-100,4,3,0,60,0,0
84905,-100,4,3,0,60,0,0
87905,-100,4,3,0,60,0,0
90431,-100,4,3,0,60,0,0
92957,-100,4,3,0,60,0,0
93589,-100,4,3,0,60,0,0
94220,-100,4,3,0,60,0,1
114431,-100,4,3,0,60,0,0
119641,-100,4,3,0,60,0,0
120062,-100,4,3,0,60,0,0

[Colours]
Combo1 : 255,94,55
Combo2 : 173,255,95
Combo3 : 255,88,100
Combo4 : 17,254,176

[HitObjects]
14,185,747,6,0,B|158:169|130:251|292:235,1,280,2|2,0:0|0:0,0:0:0:0:
284,235,1694,1,0,0:0:0:0:
284,235,2010,6,0,L|273:89,1,140,4|8,0:0|0:2,0:0:0:0:
357,61,2483,2,0,L|453:75,1,70,4|4,0:0|0:0,0:0:0:0:
482,143,2799,2,0,L|318:158,1,140,8|0,0:2|0:0,0:0:0:0:
277,90,3273,6,0,L|280:42,2,35,4|0|0,0:0|0:0|0:0,0:0:0:0:
250,177,3589,1,8,0:2:0:0:
183,114,3747,2,0,L|186:66,2,35,4|0|0,0:0|0:0|0:0,0:0:0:0:
156,201,4063,1,8,0:2:0:0:
89,140,4220,1,0,0:0:0:0:
218,268,4536,6,0,L|209:361,1,70,4|0,0:0|0:0,0:0:0:0:
292,380,4852,2,0,L|377:341,1,70,8|4,0:2|0:0,0:0:0:0:
362,259,5168,2,0,L|285:204,1,70,4|8,0:0|0:2,0:0:0:0:
224,175,5483,1,0,0:0:0:0:
224,175,5799,6,0,L|172:170,2,35,4|0|0,0:0|0:0|0:0,0:0:0:0:
304,131,6115,1,8,0:2:0:0:
225,84,6273,2,0,L|173:79,2,35,4|0|0,0:0|0:0|0:0,0:0:0:0:
305,40,6589,1,8,0:2:0:0:
381,88,6747,2,0,L|458:82,1,70,2|2,0:1|0:1,0:0:0:0:
507,154,7062,6,0,L|497:233,1,70,4|0,0:0|0:0,0:0:0:0:
427,281,7378,2,0,L|417:202,1,70,8|4,0:2|0:0,0:0:0:0:
342,159,7694,2,0,L|332:238,1,70,4|8,0:0|0:2,0:0:0:0:
321,319,8010,1,0,0:0:0:0:
321,319,8325,6,0,L|380:332,2,35,4|4|4,0:0|0:0|0:0,0:0:0:0:
235,351,8641,1,8,0:2:0:0:
219,261,8799,2,0,L|278:274,2,35,4|4|4,0:0|0:0|0:0,0:0:0:0:
133,293,9115,1,8,0:2:0:0:
151,203,9273,2,0,L|152:141,2,46.6666666666667,2|2|2,0:0|0:0|0:0,0:0:0:0:
133,293,9589,6,0,L|54:306,1,70,4|0,0:0|0:0,0:0:0:0:
5,234,9904,2,0,L|0:157,1,70,8|4,0:2|0:0,0:0:0:0:
46,85,10220,2,0,L|125:98,1,70,4|8,0:0|0:2,0:0:0:0:
192,47,10536,1,0,0:0:0:0:
193,138,10694,1,0,0:0:0:0:
273,96,10852,6,0,L|325:93,2,35,4|4|4,0:0|0:0|0:0,0:0:0:0:
281,187,11168,1,8,0:2:0:0:
367,161,11325,2,0,L|419:158,2,35,4|4|4,0:0|0:0|0:0,0:0:0:0:
375,252,11641,1,8,0:2:0:0:
460,221,11799,1,2,0:0:0:0:
460,221,11878,1,0,0:0:0:0:
460,221,11957,1,0,0:0:0:0:
460,221,12036,1,0,0:0:0:0:
460,221,12115,6,0,L|465:313,1,70,4|0,1:2|0:0,0:0:0:0:
398,354,12431,2,0,L|315:349,1,70,8|4,0:2|0:0,0:0:0:0:
269,279,12747,2,0,L|186:284,1,70,4|8,0:0|0:2,0:0:0:0:
114,316,13062,2,0,L|110:246,1,70,0|0,0:0|0:0,0:0:0:0:
182,189,13378,6,0,L|188:139,2,35,4|0|0,0:0|0:0|0:0,0:0:0:0:
97,153,13694,1,8,0:2:0:0:
150,79,13852,2,0,L|156:29,2,35,4|0|0,0:0|0:0|0:0,0:0:0:0:
65,43,14168,1,8,0:2:0:0:
12,117,14325,1,4,0:0:0:0:
97,153,14483,1,0,0:0:0:0:
150,79,14641,6,0,L|229:70,1,70,4|0,0:0|0:0,0:0:0:0:
290,12,14957,2,0,P|303:60|299:95,1,70,8|4,0:2|0:0,0:0:0:0:
266,164,15273,2,0,P|266:198|278:231,1,70,4|8,0:0|0:2,0:0:0:0:
351,176,15589,2,0,L|430:167,1,70,0|0,0:0|0:0,0:0:0:0:
499,213,15904,6,0,L|497:265,2,35,6|0|0,0:0|0:0|0:0,0:0:0:0:
498,121,16220,1,8,0:2:0:0:
420,168,16378,2,0,L|418:220,2,35,6|0|0,0:0|0:0|0:0,0:0:0:0:
419,76,16694,1,8,0:2:0:0:
346,130,16852,1,2,0:1:0:0:
333,39,17010,1,2,0:1:0:0:
262,97,17168,6,0,L|216:93,2,35,4|4|4,0:0|0:0|0:0,0:0:0:0:
346,130,17483,2,0,L|335:215,2,70,8|4|4,0:2|0:0|0:0,0:0:0:0:
419,76,17957,2,0,L|408:-9,2,70,8|2|0,0:2|0:0|0:0,0:0:0:0:
420,168,18431,2,0,L|409:253,2,70,4|4|8,0:0|0:0|0:2,0:0:0:0:
498,121,18905,2,0,L|487:36,2,70,4|4|8,0:0|0:0|0:2,0:0:0:0:
499,213,19378,1,2,0:0:0:0:
429,271,19536,1,0,0:0:0:0:
374,197,19694,6,0,L|287:208,1,70,4|0,0:0|0:0,0:0:0:0:
214,187,20010,2,0,L|127:176,1,70,8|4,0:2|0:0,0:0:0:0:
60,213,20325,2,0,L|68:304,1,70,4|8,0:0|0:2,0:0:0:0:
143,331,20641,2,0,L|151:240,1,70,0|0,0:0|0:0,0:0:0:0:
140,170,20957,5,2,1:0:0:0:
115,82,21115,1,2,1:2:0:0:
201,110,21273,2,0,L|296:96,1,70,0|2,0:0|1:0,0:0:0:0:
352,58,21589,2,0,L|355:15,4,35,2|0|0|0|2,1:2|1:2|1:2|1:2|1:2,0:0:0:0:
347,148,22062,1,0,1:0:0:0:
429,109,22220,6,0,P|438:163|377:232,1,140,4|8,1:2|0:2,0:0:0:0:
297,226,22694,2,0,L|136:215,1,140,4|8,1:2|0:2,0:0:0:0:
69,241,23168,2,0,P|23:291|29:359,1,140,4|8,1:2|0:2,0:0:0:0:
119,353,23641,2,0,L|258:362,1,140,4|8,1:2|0:2,0:0:0:0:
349,351,24115,1,2,0:0:0:0:
349,351,24747,6,0,L|357:199,1,140,4|8,1:2|0:2,0:0:0:0:
270,181,25220,2,0,P|205:208|108:201,1,140,4|8,1:2|0:2,0:0:0:0:
48,182,25694,2,0,L|40:30,1,140,4|8,1:2|0:2,0:0:0:0:
126,9,26168,2,0,P|191:36|288:29,1,140,4|8,1:2|0:2,0:0:0:0:
344,3,26641,2,0,L|338:55,4,35,2|0|4|0|8,0:0|0:0|0:0|0:0|0:2,0:0:0:0:
430,33,27115,1,2,0:0:0:0:
430,33,27194,1,2,0:0:0:0:
430,33,27273,6,0,P|468:71|454:157,1,140,4|8,1:2|0:2,0:0:0:0:
379,198,27747,2,0,L|216:181,1,140,4|8,1:2|0:2,0:0:0:0:
208,269,28220,2,0,L|45:286,1,140,4|8,1:2|0:2,0:0:0:0:
33,198,28694,2,0,P|18:131|61:79,1,140,4|8,1:2|0:2,0:0:0:0:
150,103,29168,1,2,0:0:0:0:
150,103,29483,2,0,L|141:173,1,70,8|2,0:2|0:0,0:0:0:0:
194,247,29799,6,0,L|348:259,1,140,4|8,1:2|0:2,0:0:0:0:
408,204,30273,2,0,P|422:270|435:345,1,140,4|8,1:2|0:2,0:0:0:0:
342,345,30747,2,0,L|188:357,1,140,4|8,1:2|0:2,0:0:0:0:
122,312,31220,2,0,P|136:246|149:171,1,140,4|8,1:2|0:2,0:0:0:0:
87,106,31694,1,2,0:0:0:0:
87,106,32010,1,8,0:2:0:0:
87,106,32089,1,0,0:0:0:0:
87,106,32168,1,2,0:0:0:0:
87,106,32247,1,2,0:0:0:0:
87,106,32325,6,0,P|115:70|226:51,1,140,4|8,1:2|0:2,0:0:0:0:
274,102,32799,2,0,P|318:92|415:149,1,140,4|8,1:2|0:2,0:0:0:0:
464,196,33273,2,0,L|318:218,1,140,4|8,1:2|0:2,0:0:0:0:
309,307,33747,2,0,L|163:285,1,140,4|8,1:2|0:2,0:0:0:0:
104,349,34220,2,0,P|71:312|99:230,1,140,4|8,1:2|0:2,0:0:0:0:
180,197,34694,2,0,P|208:136|171:80,1,140,4|8,1:2|0:2,0:0:0:0:
96,27,35168,2,0,P|77:98|53:166,1,140,4|8,1:2|0:2,0:0:0:0:
144,142,35641,2,0,P|166:208|184:275,1,140,4|8,1:2|0:2,0:0:0:0:
273,250,36115,2,0,P|254:321|230:389,1,140,4|8,1:2|0:2,0:0:0:0:
147,348,36589,6,0,L|92:353,4,35,4|0|0|0|0,0:2|0:0|0:0|0:0|0:0,0:0:0:0:
210,282,37062,2,0,L|215:215,2,46.6666666666667,0|0|0,0:0|0:0|0:0,0:0:0:0:
256,192,37378,12,4,39904,0:0:0:0:
158,295,41957,5,0,1:0:0:0:
158,295,42036,1,0,1:0:0:0:
158,295,42115,2,0,L|101:306,2,35,2|0|0,1:0|0:0|1:0,0:0:0:0:
247,275,42431,6,0,P|304:283|396:278,1,140,4|8,1:2|0:2,0:0:0:0:
461,228,42904,2,0,L|477:88,1,140,4|8,0:0|0:2,0:0:0:0:
419,17,43378,1,4,0:0:0:0:
419,17,43694,6,0,L|278:33,1,140,4|8,0:0|0:2,0:0:0:0:
212,94,44168,1,4,0:0:0:0:
297,124,44325,1,2,0:2:0:0:
229,185,44483,1,2,0:0:0:0:
229,185,44562,1,0,0:0:0:0:
229,185,44641,2,0,L|240:255,1,70,8|0,0:2|0:0,0:0:0:0:
281,335,44957,6,0,P|228:358|140:334,1,140,4|8,0:0|0:2,0:0:0:0:
131,251,45431,2,0,P|64:233|0:257,1,140,4|8,0:0|0:2,0:0:0:0:
22,345,45904,2,0,L|97:329,1,70,4|8,0:0|0:2,0:0:0:0:
179,310,46220,6,0,L|160:161,1,140,4|8,0:0|0:2,0:0:0:0:
218,99,46694,1,2,0:0:0:0:
218,99,46773,1,2,0:0:0:0:
218,99,46852,2,0,P|187:86|127:91,1,70,2|8,0:2|0:2,0:0:0:0:
81,144,47168,2,0,P|46:142|13:129,1,70,8|2,0:2|0:0,0:0:0:0:
19,38,47483,6,0,L|28:-3,2,35,4|0|0,1:2|0:0|0:0,0:0:0:0:
13,129,47799,1,8,0:2:0:0:
20,219,47957,2,0,L|42:370,1,140,4|8,0:0|0:2,0:0:0:0:
126,328,48431,2,0,L|143:245,1,70,4|8,0:0|0:2,0:0:0:0:
172,173,48747,6,0,L|250:168,1,70,4|0,0:0|0:0,0:0:0:0:
331,182,49062,2,0,L|409:187,1,70,8|4,0:2|0:0,0:0:0:0:
484,148,49378,1,2,0:2:0:0:
472,238,49536,1,2,0:0:0:0:
388,273,49694,2,0,L|398:361,1,70,2|2,0:0|0:0,0:0:0:0:
307,366,50010,6,0,P|246:344|162:351,1,140,4|8,1:2|0:2,0:0:0:0:
150,259,50483,2,0,P|80:263|14:240,1,140,4|8,1:2|0:2,0:0:0:0:
6,149,50957,2,0,L|13:76,1,70,4|8,0:0|0:2,0:0:0:0:
79,16,51273,6,0,P|140:38|224:31,1,140,4|8,1:2|0:2,0:0:0:0:
236,123,51746,2,0,P|305:118|371:141,1,140,4|10,1:2|0:2,0:0:0:0:
442,198,52220,2,0,L|448:128,1,70,4|10,0:0|0:2,0:0:0:0:
452,36,52536,6,0,L|296:52,1,140,4|8,1:2|0:2,0:0:0:0:
267,129,53010,2,0,P|257:228|279:291,1,140,4|8,0:0|0:2,0:0:0:0:
350,303,53483,1,4,0:0:0:0:
350,303,53799,6,0,P|308:346|217:349,1,140,4|8,0:0|0:2,0:0:0:0:
187,273,54273,1,4,0:0:0:0:
143,352,54431,1,2,0:2:0:0:
94,274,54589,1,2,0:0:0:0:
94,274,54668,1,0,0:0:0:0:
94,274,54747,2,0,L|91:198,1,70,8|0,0:2|0:0,0:0:0:0:
41,127,55062,6,0,P|107:109|184:104,1,140,4|8,0:0|0:2,0:0:0:0:
259,145,55536,2,0,P|328:140|396:121,1,140,4|8,0:0|0:2,0:0:0:0:
474,73,56010,2,0,L|463:-4,1,70,4|8,0:0|0:2,0:0:0:0:
373,7,56325,6,0,L|355:166,1,140,4|8,0:0|0:2,0:0:0:0:
418,214,56799,1,2,0:0:0:0:
418,214,56878,1,2,0:0:0:0:
418,214,56957,2,0,L|412:293,1,70,2|8,0:2|0:2,0:0:0:0:
346,346,57273,2,0,L|390:366,2,35,8|0|0,0:2|0:0|0:0,0:0:0:0:
261,311,57589,6,0,L|229:296,2,35,4|0|0,1:2|0:0|0:0,0:0:0:0:
333,255,57904,1,8,0:2:0:0:
252,211,58062,2,0,L|99:227,1,140,4|8,0:0|0:2,0:0:0:0:
40,281,58536,2,0,P|25:227|32:190,1,70,4|8,0:0|0:2,0:0:0:0:
85,144,58852,6,0,L|78:61,1,70,4|0,0:0|0:0,0:0:0:0:
152,18,59168,2,0,L|242:26,1,70,8|4,0:2|0:0,0:0:0:0:
312,15,59483,1,2,0:2:0:0:
266,93,59641,1,2,0:0:0:0:
356,100,59799,2,0,L|446:92,1,70,2|2,0:0|0:0,0:0:0:0:
489,159,60115,6,0,P|501:217|466:299,1,140,4|8,0:0|0:2,0:0:0:0:
396,341,60589,2,0,L|242:331,1,140,4|8,0:0|0:2,0:0:0:0:
176,375,61062,2,0,P|172:322|183:290,1,70,4|8,0:0|0:2,0:0:0:0:
226,229,61378,6,0,L|72:239,1,140,4|8,0:0|0:2,0:0:0:0:
16,179,61852,2,0,P|-10:115|0:47,1,140,4|2,0:0|0:1,0:0:0:0:
86,17,62325,2,0,L|172:28,1,70,10|2,0:0|0:1,0:0:0:0:
241,58,62641,6,0,L|368:50,2,105,4|8|8,1:2|0:0|0:0,0:0:0:0:
168,113,63273,2,0,L|178:196,1,70,2|2,1:0|1:0,0:0:0:0:
257,224,63589,2,0,L|384:216,2,105,8|8|8,0:0|0:0|0:0,0:0:0:0:
184,279,64221,2,0,L|190:332,3,35,2|0|0|0,0:2|0:0|0:0|0:0,0:0:0:0:
228,334,64536,2,0,L|223:368,3,35,2|0|0|0,0:2|0:0|0:0|0:0,0:0:0:0:
269,376,64852,1,2,0:2:0:0:
269,376,65168,6,0,L|257:262,2,105,8|8|8,0:0|0:0|0:0,0:0:0:0:
340,319,65799,1,2,0:0:0:0:
199,202,66115,2,0,L|187:88,2,105,8|8|8,0:0|0:0|0:0,0:0:0:0:
270,145,66746,1,2,0:0:0:0:
128,29,67062,2,0,P|111:81|20:107,1,140,2|2,0:2|0:2,0:0:0:0:
194,202,67694,6,0,P|267:221|317:210,2,105,4|8|8,1:2|0:0|0:0,0:0:0:0:
126,141,68325,2,0,P|105:183|106:228,1,70,2|2,1:0|1:0,0:0:0:0:
151,283,68641,2,0,P|224:302|274:291,2,105,8|8|8,0:0|0:0|0:0,0:0:0:0:
83,222,69273,2,0,P|62:264|63:309,1,70,2|0,0:0|0:0,0:0:0:0:
104,366,69589,2,0,L|137:357,3,35,2|0|0|0,0:2|0:0|0:0|0:0,0:0:0:0:
181,345,69904,2,0,L|214:353,3,35,2|0|0|0,0:2|0:0|0:0|0:0,0:0:0:0:
259,364,70220,6,0,L|374:348,2,105,4|8|8,1:2|0:0|0:0,0:0:0:0:
218,281,70852,1,2,0:0:0:0:
330,137,71168,2,0,L|445:121,2,105,8|8|8,0:0|0:0|0:0,0:0:0:0:
289,54,71799,2,0,L|295:6,3,35,2|2|2|2,0:2|0:2|0:2|0:2,0:0:0:0:
248,29,72115,2,0,P|236:87|161:109,1,140,2|2,0:2|0:2,0:0:0:0:
59,138,72747,6,0,L|35:31,2,105,4|8|8,1:2|0:0|0:0,0:0:0:0:
131,192,73378,1,2,0:0:0:0:
48,229,73536,1,0,0:0:0:0:
48,229,73615,1,0,0:0:0:0:
48,229,73694,2,0,L|24:336,2,105,8|8|8,0:0|0:0|0:0,0:0:0:0:
131,192,74325,2,0,L|223:183,1,70,2|2,0:0|0:0,0:0:0:0:
267,122,74641,2,0,L|271:73,2,35,2|2|2,0:0|0:0|0:1,0:0:0:0:
283,212,74957,2,0,L|287:261,2,35,2|2|2,0:0|0:0|0:1,0:0:0:0:
353,153,75273,6,0,P|368:104|350:41,2,105,8|8|8,0:0|0:0|0:0,0:0:0:0:
283,212,75904,1,2,0:0:0:0:
369,243,76062,1,0,0:0:0:0:
369,243,76141,1,0,0:0:0:0:
369,243,76220,2,0,P|403:280|467:296,2,105,8|8|8,0:0|0:0|0:0,0:0:0:0:
283,212,76852,2,0,L|204:226,1,70,2|0,0:0|0:0,0:0:0:0:
125,201,77168,2,0,L|144:327,2,105,4|2|2,0:0|0:0|0:0,0:0:0:0:
185,133,77799,6,0,P|123:111|64:130,2,105,4|8|8,1:2|0:0|0:0,0:0:0:0:
233,210,78431,1,2,0:0:0:0:
278,130,78589,1,0,0:0:0:0:
278,130,78668,1,0,0:0:0:0:
278,130,78747,2,0,L|297:4,2,105,8|8|8,0:0|0:0|0:0,0:0:0:0:
316,212,79378,2,0,L|386:222,2,46.6666666666667,2|0|0,0:2|0:0|0:0,0:0:0:0:
313,273,79694,2,0,L|266:279,2,46.6666666666667,2|0|0,0:2|0:0|0:0,0:0:0:0:
328,332,80010,2,0,L|398:342,2,46.6666666666667,2|0|0,0:2|0:0|0:0,0:0:0:0:
274,360,80325,6,0,L|148:348,2,105,4|8|8,1:2|0:0|0:0,0:0:0:0:
242,273,80957,2,0,L|251:222,2,46.6666666666667,2|0|0,0:0|0:0|0:0,0:0:0:0:
199,229,81273,2,0,L|73:241,2,105,8|8|8,0:0|0:0|0:0,0:0:0:0:
146,154,81904,2,0,L|152:105,2,35,2|0|0,0:0|0:0|0:0,0:0:0:0:
59,123,82220,2,0,L|65:172,2,35,2|0|0,0:2|0:0|0:0,0:0:0:0:
34,34,82536,2,0,B|104:16|93:69|180:45,1,140,2|4,0:0|0:2,0:0:0:0:
169,47,84904,6,0,L|183:150,2,105,2|0|0,0:2|0:0|0:0,0:0:0:0:
141,331,86641,1,0,0:0:0:0:
141,331,87904,6,0,L|239:318,1,70,4|0,0:0|0:0,0:0:0:0:
210,321,88141,1,0,0:0:0:0:
210,321,88220,1,2,0:0:0:0:
293,358,88378,1,0,0:0:0:0:
339,279,88536,2,0,L|437:266,1,70,4|2,0:0|0:0,0:0:0:0:
452,189,88852,2,0,L|354:176,1,70,4|2,0:0|0:0,0:0:0:0:
292,198,89168,6,0,L|285:115,1,70,4|0,0:0|0:0,0:0:0:0:
286,128,89404,1,0,0:0:0:0:
286,128,89483,1,2,0:0:0:0:
245,46,89641,1,0,0:0:0:0:
191,119,89799,2,0,L|184:202,1,70,4|2,0:0|0:0,0:0:0:0:
96,213,90115,2,0,L|89:130,1,70,4|2,0:0|0:0,0:0:0:0:
32,71,90431,6,0,P|67:57|112:60,1,70,4|4,0:0|0:0,0:0:0:0:
184,88,90747,2,0,P|218:87|250:73,1,70,2|0,0:0|0:0,0:0:0:0:
320,15,91062,2,0,L|406:24,1,70,4|2,0:0|0:0,0:0:0:0:
439,99,91378,2,0,L|525:108,1,70,4|2,0:0|0:0,0:0:0:0:
468,188,91694,5,2,0:0:0:0:
379,165,91852,1,4,0:0:0:0:
379,165,91931,1,4,0:0:0:0:
379,165,92010,2,0,L|384:251,1,70,2|4,0:0|0:0,0:0:0:0:
461,280,92325,2,0,L|507:274,2,35,4|0|2,0:0|0:0|0:0,0:0:0:0:
380,324,92641,2,0,L|304:313,1,70,4|2,0:0|0:0,0:0:0:0:
227,276,92957,6,0,B|120:266|143:339|6:319,1,210,2|0,0:0|0:0,0:0:0:0:
7,231,93589,2,0,L|20:120,2,105,4|4|4,1:2|1:2|1:2,0:0:0:0:
88,271,94220,6,0,P|150:269|206:194,1,140,4|8,1:2|0:2,0:0:0:0:
185,124,94694,2,0,L|345:115,1,140,4|8,0:0|0:2,0:0:0:0:
395,57,95168,2,0,P|405:117|423:199,1,140,4|8,0:0|0:2,0:0:0:0:
464,274,95641,2,0,L|304:265,1,140,4|8,0:0|0:2,0:0:0:0:
324,266,96036,1,0,0:0:0:0:
324,266,96115,2,0,L|329:218,3,35,2|0|0|0,0:2|0:0|0:0|0:0,0:0:0:0:
334,185,96431,2,0,L|338:136,3,35,10|0|0|0,0:2|0:0|0:0|0:0,0:0:0:0:
342,104,96747,6,0,P|298:114|217:43,1,140,4|8,0:0|0:2,0:0:0:0:
146,16,97220,2,0,L|160:184,1,140,4|8,0:0|0:2,0:0:0:0:
134,244,97694,2,0,P|83:198|15:203,1,140,4|8,0:0|0:2,0:0:0:0:
33,293,98168,2,0,L|197:271,1,140,4|8,0:0|0:2,0:0:0:0:
171,274,98562,1,0,0:0:0:0:
171,274,98641,2,0,L|188:334,3,35,2|0|0|0,0:2|0:0|0:0|0:0,0:0:0:0:
223,326,98957,2,0,L|239:385,3,35,10|0|0|0,0:2|0:0|0:0|0:0,0:0:0:0:
277,369,99273,6,0,P|298:303|269:232,1,140,4|8,1:2|0:2,0:0:0:0:
203,180,99747,2,0,L|356:206,1,140,4|8,0:0|0:2,0:0:0:0:
324,113,100220,2,0,L|462:89,1,140,4|8,0:0|0:2,0:0:0:0:
499,173,100694,2,0,P|520:239|491:310,1,140,4|8,0:0|0:2,0:0:0:0:
496,303,101089,1,0,0:0:0:0:
496,303,101168,2,0,L|506:357,3,35,2|0|0|0,0:2|0:0|0:0|0:0,0:0:0:0:
457,335,101483,2,0,L|462:369,3,35,10|0|0|0,0:2|0:0|0:0|0:0,0:0:0:0:
416,366,101799,6,0,L|255:353,1,140,4|8,1:2|0:2,0:0:0:0:
234,273,102273,2,0,L|395:260,1,140,4|8,1:2|0:2,0:0:0:0:
427,187,102747,1,4,0:0:0:0:
337,176,102904,1,8,0:2:0:0:
337,176,102983,1,0,0:0:0:0:
337,176,103062,6,0,P|320:121|334:63,1,105,4|0,1:2|0:0,0:0:0:0:
349,34,103378,2,0,L|298:25,1,35,8|0,0:2|0:0,0:0:0:0:
269,18,103536,2,0,L|116:41,1,140,4|8,1:2|0:2,0:0:0:0:
40,20,104010,2,0,L|54:113,1,70,4|8,0:0|0:2,0:0:0:0:
130,131,104325,6,0,P|138:178|58:239,1,140,4|8,0:0|0:2,0:0:0:0:
20,166,104799,2,0,L|40:326,1,140,4|8,0:0|0:2,0:0:0:0:
117,349,105273,2,0,L|137:189,1,140,4|8,0:0|0:2,0:0:0:0:
216,169,105747,2,0,P|208:122|288:61,1,140,4|8,0:0|0:2,0:0:0:0:
268,61,106141,1,0,0:0:0:0:
268,61,106220,2,0,L|320:70,3,35,2|0|0|0,0:2|0:0|0:0|0:0,0:0:0:0:
348,74,106536,2,0,L|399:82,3,35,10|0|0|0,0:2|0:0|0:0|0:0,0:0:0:0:
428,80,106852,6,0,L|444:236,1,140,4|8,0:0|0:2,0:0:0:0:
497,291,107325,2,0,P|442:313|362:250,1,140,4|8,0:0|0:2,0:0:0:0:
300,223,107799,2,0,P|241:188|177:209,1,140,4|8,0:0|0:2,0:0:0:0:
86,195,108273,2,0,L|102:351,1,140,4|8,0:0|0:2,0:0:0:0:
100,334,108668,1,0,0:0:0:0:
100,334,108747,2,0,L|164:321,3,35,2|0|0|0,0:2|0:0|0:0|0:0,0:0:0:0:
178,316,109062,2,0,L|241:302,3,35,10|0|0|0,0:2|0:0|0:0|0:0,0:0:0:0:
257,297,109378,6,0,L|403:326,1,140,4|8,1:2|0:2,0:0:0:0:
468,271,109852,2,0,P|484:199|423:144,1,140,4|8,0:0|0:2,0:0:0:0:
357,177,110325,2,0,L|211:206,1,140,4|8,0:0|0:2,0:0:0:0:
146,151,110799,2,0,P|130:79|191:24,1,140,4|8,0:0|0:2,0:0:0:0:
168,31,111194,1,0,0:0:0:0:
168,31,111273,2,0,L|217:38,3,35,2|0|0|0,0:2|0:0|0:0|0:0,0:0:0:0:
248,45,111589,2,0,L|296:51,3,35,10|0|0|0,0:2|0:0|0:0|0:0,0:0:0:0:
327,55,111904,6,0,L|488:45,1,140,4|8,1:2|0:2,0:0:0:0:
447,135,112378,2,0,L|307:126,1,140,4|8,1:2|0:2,0:0:0:0:
215,121,112852,1,4,0:0:0:0:
258,200,113010,1,8,0:2:0:0:
258,200,113089,1,0,0:0:0:0:
258,200,113168,2,0,L|249:314,1,105,4|0,1:2|0:0,0:0:0:0:
225,343,113483,2,0,L|218:294,1,35,8|0,0:2|0:0,0:0:0:0:
204,265,113641,2,0,B|92:258|129:336|-5:321,1,210,4|4,1:2|0:0,0:0:0:0:
44,237,114273,1,8,0:2:0:0:
16,150,114431,5,4,0:2:0:0:
256,192,114510,12,0,120352,2:0:0:0:
