osu file format v14

[General]
AudioFilename: encounter.mp3
AudioLeadIn: 0
PreviewTime: 42431
Countdown: 0
SampleSet: None
StackLeniency: 0.4
Mode: 2
LetterboxInBreaks: 1
WidescreenStoryboard: 1

[Editor]
Bookmarks: 3273,8957,19378,41062,62641,103536
DistanceSpacing: 0.6
BeatDivisor: 4
GridSize: 4
TimelineZoom: 3.299999

[Metadata]
Title:encounter
TitleUnicode:encounter
Artist:Nekomata Master+
ArtistUnicode:猫叉Master+
Creator:Del
Version:Close encounter
Source:jubeat saucer fulfill
Tags:bms konami bemani
BeatmapID:1459971
BeatmapSetID:689702

[Difficulty]
HPDrainRate:7
CircleSize:4
OverallDifficulty:9.5
ApproachRate:9.5
SliderMultiplier:1.9
SliderTickRate:2

[Events]
//Background and Video events
0,0,"1920x1080.jpg",0,0
//Break Periods
//Storyboard Layer 0 (Background)
//Storyboard Layer 1 (Fail)
//Storyboard Layer 2 (Pass)
//Storyboard Layer 3 (Foreground)
//Storyboard Sound Samples

[TimingPoints]
747,315.789473684211,4,3,1,60,1,0
747,-100,4,3,1,60,0,0
22220,-100,4,3,1,60,0,0
42431,-100,4,3,1,60,0,0
60115,-100,4,3,1,60,0,0
94220,-76.9230769230769,4,3,1,80,0,1
114431,-100,4,2,1,40,0,0

[Colours]
Combo1 : 255,94,55
Combo2 : 173,255,95
Combo3 : 255,88,100
Combo4 : 17,254,176

[HitObjects]
220,196,747,5,0,0:0:0:0:
320,132,852,1,0,0:0:0:0:
120,100,1062,1,0,0:0:0:0:
292,316,1273,1,0,0:0:0:0:
208,316,1378,1,0,0:0:0:0:
292,228,1483,2,0,L|292:120,1,95
356,152,1694,2,0,L|356:44,1,95
140,84,2010,6,0,L|12:84,2,95
268,232,2483,1,0,0:0:0:0:
116,228,2641,1,0,0:0:0:0:
268,152,2799,1,0,0:0:0:0:
468,316,3273,6,0,L|344:312,1,95
324,312,3510,1,0,0:0:0:0:
276,312,3589,1,0,0:0:0:0:
404,168,3747,1,0,0:0:0:0:
276,184,3904,2,0,L|208:184,2,47.5
60,260,4220,2,0,L|60:132,1,95
212,316,4536,6,0,L|308:316,1,95
128,320,4852,2,0,L|64:244,2,95
260,120,5325,1,0,0:0:0:0:
468,272,5799,5,0,0:0:0:0:
340,160,5957,2,0,L|404:160,1,47.5
460,112,6115,1,0,0:0:0:0:
332,72,6273,1,0,0:0:0:0:
204,304,6431,1,0,0:0:0:0:
128,304,6510,1,0,0:0:0:0:
52,308,6589,1,0,0:0:0:0:
268,164,6747,1,0,0:0:0:0:
52,168,6904,1,0,0:0:0:0:
268,240,7062,6,0,L|388:240,1,95
236,72,7378,1,0,0:0:0:0:
364,84,7536,2,0,L|452:84,2,47.5
184,300,7852,1,0,0:0:0:0:
332,272,8010,2,0,L|436:272,1,95
112,172,8325,6,0,L|40:172,2,47.5
240,104,8641,1,0,0:0:0:0:
392,168,8799,2,0,L|464:168,2,47.5
264,264,9115,1,0,0:0:0:0:
48,288,9273,1,0,0:0:0:0:
132,236,9378,1,0,0:0:0:0:
48,204,9483,1,0,0:0:0:0:
212,88,9589,5,0,0:0:0:0:
340,88,9747,1,0,0:0:0:0:
468,288,9904,1,0,0:0:0:0:
316,332,10062,1,0,0:0:0:0:
468,220,10220,1,0,0:0:0:0:
340,68,10378,2,0,P|276:88|352:136,1,190
60,280,10852,5,0,0:0:0:0:
107,280,10930,1,0,0:0:0:0:
155,280,11009,1,0,0:0:0:0:
60,180,11168,1,0,0:0:0:0:
276,216,11325,2,0,L|352:216,1,47.5
320,136,11483,2,0,L|260:140,1,47.5
200,76,11641,1,0,0:0:0:0:
416,296,11799,2,0,L|476:296,2,47.5
200,220,12115,6,0,L|96:220,1,95
232,104,12431,1,0,0:0:0:0:
184,104,12509,1,0,0:0:0:0:
137,104,12588,1,0,0:0:0:0:
260,344,12747,1,0,0:0:0:0:
44,248,12904,1,0,0:0:0:0:
260,276,13062,1,0,0:0:0:0:
256,192,13220,1,0,0:0:0:0:
476,76,13378,6,0,L|384:76,1,47.5
352,72,13536,2,0,L|272:72,1,47.5
228,76,13694,1,0,0:0:0:0:
444,316,13852,1,0,0:0:0:0:
316,272,14010,1,0,0:0:0:0:
444,224,14168,1,0,0:0:0:0:
228,124,14325,2,0,P|188:140|248:192,1,142.5
324,88,14641,6,0,L|428:88,1,95
292,320,14957,2,0,L|188:316,1,95
416,184,15273,1,0,0:0:0:0:
200,148,15431,2,0,L|100:148,2,95
104,292,15904,6,0,L|196:292,1,47.5
228,296,16062,2,0,L|308:296,1,47.5
352,292,16220,1,0,0:0:0:0:
136,204,16378,2,0,L|60:204,1,47.5
92,124,16536,2,0,L|152:128,1,47.5
212,64,16694,1,0,0:0:0:0:
428,188,16852,1,0,0:0:0:0:
212,188,17010,1,0,0:0:0:0:
428,336,17168,5,0,0:0:0:0:
416,290,17246,1,0,0:0:0:0:
344,328,17325,1,0,0:0:0:0:
332,272,17404,1,0,0:0:0:0:
260,92,17483,2,0,L|288:200,1,95
412,32,17799,1,0,0:0:0:0:
196,160,17957,2,0,L|224:268,1,95
348,116,18273,1,0,0:0:0:0:
132,364,18431,6,0,L|40:364,1,47.5
248,216,18589,2,0,L|304:216,1,47.5
460,180,18747,1,0,0:0:0:0:
244,96,18904,1,0,0:0:0:0:
340,84,19062,2,0,L|396:80,2,47.5
120,160,19378,2,0,L|-16:160,1,95
244,280,19694,6,0,L|148:280,1,95
368,316,20010,1,0,0:0:0:0:
464,308,20168,1,0,0:0:0:0:
368,244,20325,1,0,0:0:0:0:
152,344,20483,2,0,L|56:344,2,95
308,328,20957,5,0,0:0:0:0:
80,112,21115,1,0,0:0:0:0:
308,128,21273,1,0,0:0:0:0:
92,324,21431,1,0,0:0:0:0:
308,264,21589,1,0,0:0:0:0:
353,265,21667,1,0,0:0:0:0:
356,224,21746,1,0,0:0:0:0:
308,208,21825,1,0,0:0:0:0:
152,104,21904,2,0,L|56:104,1,95
392,48,22220,6,0,L|492:48,2,95
112,96,22694,2,0,L|244:96,2,95
328,208,23168,2,0,L|204:208,2,95
112,304,23641,2,0,L|64:304,1,47.5
16,308,23799,1,0,0:0:0:0:
232,112,23957,1,0,0:0:0:0:
80,140,24115,2,0,L|-4:140,2,47.5
176,220,24431,2,0,L|276:220,1,95
52,364,24747,5,0,0:0:0:0:
45,318,24825,1,0,0:0:0:0:
71,279,24904,1,0,0:0:0:0:
117,269,24983,1,0,0:0:0:0:
212,136,25062,1,0,0:0:0:0:
60,108,25220,2,0,L|8:108,2,47.5
188,204,25536,1,0,0:0:0:0:
404,100,25694,5,0,0:0:0:0:
411,146,25772,1,0,0:0:0:0:
385,185,25851,1,0,0:0:0:0:
339,195,25930,1,0,0:0:0:0:
244,328,26009,1,0,0:0:0:0:
396,340,26168,5,0,0:0:0:0:
180,124,26325,1,0,0:0:0:0:
133,124,26403,1,0,0:0:0:0:
85,124,26482,1,0,0:0:0:0:
304,304,26641,2,0,P|360:284|272:232,1,190
176,288,27115,1,0,0:0:0:0:
392,328,27273,5,0,0:0:0:0:
456,336,27351,1,0,0:0:0:0:
392,264,27431,1,0,0:0:0:0:
456,260,27510,1,0,0:0:0:0:
392,200,27589,1,0,0:0:0:0:
120,192,27747,1,0,0:0:0:0:
168,148,27825,1,0,0:0:0:0:
236,140,27904,1,0,0:0:0:0:
190,103,27982,1,0,0:0:0:0:
120,72,28062,1,0,0:0:0:0:
392,232,28220,5,0,0:0:0:0:
456,232,28298,1,0,0:0:0:0:
392,172,28377,1,0,0:0:0:0:
456,164,28455,1,0,0:0:0:0:
392,112,28535,1,0,0:0:0:0:
176,328,28694,2,0,L|128:328,1,47.5
268,268,28852,1,0,0:0:0:0:
315,268,28930,1,0,0:0:0:0:
363,268,29009,1,0,0:0:0:0:
76,240,29168,2,0,P|24:208|100:124,1,190
176,160,29641,1,0,0:0:0:0:
392,280,29799,5,0,0:0:0:0:
368,238,29877,1,0,0:0:0:0:
312,208,29956,1,0,0:0:0:0:
252,196,30035,1,0,0:0:0:0:
308,140,30114,1,0,0:0:0:0:
40,108,30273,1,0,0:0:0:0:
39,156,30351,1,0,0:0:0:0:
58,199,30430,1,0,0:0:0:0:
94,230,30509,1,0,0:0:0:0:
139,243,30588,1,0,0:0:0:0:
356,288,30747,5,0,0:0:0:0:
140,324,30904,1,0,0:0:0:0:
268,116,31062,1,0,0:0:0:0:
140,68,31220,2,0,L|84:64,2,47.5
268,236,31536,1,0,0:0:0:0:
484,304,31694,2,0,L|484:240,1,47.5
412,204,31852,2,0,L|412:152,1,47.5
484,188,32010,2,0,L|484:136,1,47.5
344,328,32168,2,0,L|344:268,1,47.5
188,324,32325,5,0,0:0:0:0:
141,328,32403,1,0,0:0:0:0:
92,312,32482,1,0,0:0:0:0:
84,260,32561,1,0,0:0:0:0:
128,208,32640,1,0,0:0:0:0:
364,88,32799,5,0,0:0:0:0:
411,84,32877,1,0,0:0:0:0:
460,100,32956,1,0,0:0:0:0:
468,152,33035,1,0,0:0:0:0:
424,204,33114,1,0,0:0:0:0:
128,44,33273,5,0,0:0:0:0:
82,48,33351,1,0,0:0:0:0:
60,88,33430,1,0,0:0:0:0:
81,129,33509,1,0,0:0:0:0:
126,135,33588,1,0,0:0:0:0:
384,340,33747,5,0,0:0:0:0:
430,336,33825,1,0,0:0:0:0:
452,296,33904,1,0,0:0:0:0:
431,255,33983,1,0,0:0:0:0:
386,249,34062,1,0,0:0:0:0:
128,268,34220,6,0,L|292:272,1,142.5
200,120,34536,1,0,0:0:0:0:
416,156,34694,2,0,L|416:56,1,95
288,108,35010,1,0,0:0:0:0:
72,236,35168,5,0,0:0:0:0:
164,232,35325,1,0,0:0:0:0:
36,152,35483,1,0,0:0:0:0:
252,316,35641,2,0,L|88:320,1,142.5
180,168,35957,1,0,0:0:0:0:
396,176,36115,6,0,L|492:172,2,95
180,248,36589,1,0,0:0:0:0:
92,204,36747,1,0,0:0:0:0:
132,112,36904,1,0,0:0:0:0:
224,116,37062,1,0,0:0:0:0:
312,276,37168,1,0,0:0:0:0:
224,320,37273,1,0,0:0:0:0:
388,48,37378,6,0,P|420:64|172:264,1,665
300,196,38641,6,0,L|300:96,1,95
148,160,38957,1,0,0:0:0:0:
220,344,39036,2,0,L|292:344,1,47.5
268,272,39194,2,0,L|212:272,1,47.5
148,288,39352,2,0,L|80:288,2,47.5
244,152,39589,2,0,L|312:152,3,47.5
428,296,39904,5,0,0:0:0:0:
300,292,40115,1,0,0:0:0:0:
424,192,40325,1,0,0:0:0:0:
156,244,40536,1,0,0:0:0:0:
284,168,40747,2,0,P|332:156|352:76,1,126.666666666667
188,156,41168,2,0,P|140:144|120:64,1,126.666666666667
240,336,41483,5,0,0:0:0:0:
164,340,41589,1,0,0:0:0:0:
240,280,41694,1,0,0:0:0:0:
156,284,41799,2,0,L|96:284,1,47.5
248,76,41957,1,0,0:0:0:0:
384,84,42035,1,0,0:0:0:0:
244,216,42115,1,0,0:0:0:0:
180,216,42193,1,0,0:0:0:0:
116,144,42273,1,0,0:0:0:0:
179,148,42351,1,0,0:0:0:0:
420,308,42431,6,0,P|452:300|404:200,1,190
284,240,42904,2,0,P|252:232|300:132,1,190
140,268,43378,2,0,L|28:268,1,95
288,296,43694,2,0,L|396:296,1,95
432,284,43931,1,0,0:0:0:0:
292,216,44010,1,0,0:0:0:0:
76,316,44167,1,0,0:0:0:0:
292,140,44325,2,0,L|348:140,1,47.5
200,132,44483,2,0,L|136:132,1,47.5
236,56,44641,2,0,L|356:56,1,95
112,316,44957,6,0,P|80:308|128:208,1,190
272,244,45430,2,0,P|304:236|256:136,1,190
392,248,45904,2,0,L|392:348,1,95
128,176,46220,6,0,L|128:276,1,95
348,124,46536,1,0,0:0:0:0:
212,64,46615,1,0,0:0:0:0:
76,104,46694,1,0,0:0:0:0:
212,192,46773,1,0,0:0:0:0:
348,200,46852,2,0,L|400:200,1,47.5
256,140,47010,2,0,L|204:140,1,47.5
360,276,47168,2,0,L|424:276,1,47.5
408,212,47325,2,0,L|360:212,1,47.5
116,308,47483,6,0,L|16:308,1,95
68,236,47719,1,0,0:0:0:0:
208,164,47799,1,0,0:0:0:0:
344,100,47878,1,0,0:0:0:0:
480,168,47957,2,0,L|480:272,1,95
356,272,48273,1,0,0:0:0:0:
228,256,48431,1,0,0:0:0:0:
292,180,48510,1,0,0:0:0:0:
356,100,48589,1,0,0:0:0:0:
140,192,48747,6,0,L|40:192,1,95
92,112,48983,1,0,0:0:0:0:
228,56,49062,2,0,L|124:60,1,95
356,260,49378,1,0,0:0:0:0:
140,272,49536,1,0,0:0:0:0:
356,320,49694,1,0,0:0:0:0:
328,252,49773,1,0,0:0:0:0:
284,200,49852,1,0,0:0:0:0:
232,168,49931,1,0,0:0:0:0:
96,200,50010,6,0,P|56:192|104:96,1,190
312,312,50483,2,0,L|164:312,1,142.5
308,200,50799,2,0,L|356:112,1,95
224,144,51115,1,0,0:0:0:0:
440,200,51273,5,0,0:0:0:0:
484,188,51351,1,0,0:0:0:0:
504,146,51430,1,0,0:0:0:0:
484,105,51509,1,0,0:0:0:0:
440,93,51588,1,0,0:0:0:0:
224,280,51747,2,0,P|140:272|148:228,1,142.5
304,336,52062,2,0,L|388:284,1,95
385,188,52299,1,0,0:0:0:0:
220,128,52378,2,0,L|168:128,1,47.5
336,120,52536,6,0,L|432:116,1,95
412,304,52773,1,0,0:0:0:0:
364,308,52852,1,0,0:0:0:0:
236,256,53010,2,0,P|200:252|244:160,1,190
88,72,53483,2,0,L|84:172,1,95
264,260,53799,6,0,L|368:256,1,95
220,192,54036,1,0,0:0:0:0:
84,216,54115,1,0,0:0:0:0:
300,344,54272,1,0,0:0:0:0:
172,112,54431,2,0,L|72:116,1,95
124,136,54668,1,0,0:0:0:0:
200,248,54747,2,0,L|296:248,1,95
80,44,55062,6,0,L|276:44,1,190
448,320,55536,2,0,L|252:320,1,190
40,160,56010,2,0,L|40:256,1,95
192,88,56325,2,0,L|88:88,1,95
248,332,56641,5,0,0:0:0:0:
200,328,56719,1,0,0:0:0:0:
120,152,56799,2,0,L|184:148,1,47.5
240,156,56957,1,0,0:0:0:0:
456,208,57115,1,0,0:0:0:0:
200,212,57273,2,0,L|96:210,1,95
152,80,57510,1,0,0:0:0:0:
288,288,57589,6,0,L|392:286,1,95
324,160,57826,1,0,0:0:0:0:
264,160,57904,1,0,0:0:0:0:
480,120,58062,2,0,L|480:232,1,95
352,244,58378,1,0,0:0:0:0:
480,324,58536,2,0,L|368:324,1,95
240,212,58773,1,0,0:0:0:0:
100,104,58852,6,0,L|212:104,1,95
304,224,59089,1,0,0:0:0:0:
412,104,59168,2,0,L|300:104,1,95
100,320,59483,2,0,L|32:320,1,47.5
192,196,59641,1,0,0:0:0:0:
320,288,59799,1,0,0:0:0:0:
192,112,59957,2,0,L|256:112,1,47.5
100,72,60115,6,0,P|76:76|108:188,1,190
412,312,60589,2,0,P|436:308|404:196,1,190
280,180,61062,2,0,L|256:136,1,47.5
396,120,61220,2,0,L|420:76,1,47.5
280,344,61378,6,0,L|176:344,1,95
136,60,61615,1,0,0:0:0:0:
184,56,61694,2,0,L|244:56,1,47.5
92,276,61852,2,0,L|44:276,1,47.5
92,172,62010,2,0,L|156:172,1,47.5
356,264,62247,2,0,L|308:264,1,47.5
64,312,62483,2,0,L|112:316,1,47.5
252,96,62641,6,0,L|352:96,1,95
276,164,62878,2,0,L|380:164,1,95
228,324,63115,2,0,L|124:324,1,95
276,280,63352,2,0,L|328:280,2,47.5
416,112,63589,6,0,L|416:212,1,95
276,76,63825,2,0,L|276:180,1,95
132,116,64062,2,0,L|132:216,1,95
300,320,64299,6,0,L|356:320,1,47.5
344,256,64457,2,0,L|296:256,1,47.5
224,312,64615,2,0,L|164:312,2,47.5
296,140,64852,2,0,L|356:140,2,47.5
224,164,65089,1,0,0:0:0:0:
360,324,65168,6,0,L|472:324,1,95
232,88,65404,2,0,L|120:88,1,95
360,84,65641,2,0,L|424:84,1,47.5
268,248,65799,2,0,L|168:248,1,95
124,244,66036,1,0,0:0:0:0:
260,328,66115,6,0,L|260:224,1,95
316,224,66352,2,0,L|316:124,1,95
220,48,66589,1,0,0:0:0:0:
436,196,66747,2,0,L|436:292,1,95
372,296,66983,1,0,0:0:0:0:
236,276,67062,2,0,L|124:276,1,95
372,96,67378,2,0,L|432:96,2,47.5
112,196,67694,6,0,L|112:84,1,95
252,240,67931,2,0,L|352:236,1,95
208,328,68168,2,0,L|108:332,1,95
252,172,68404,2,0,L|252:120,1,47.5
392,160,68562,2,0,L|392:108,1,47.5
252,264,68720,6,0,L|252:204,1,47.5
112,292,68878,2,0,L|64:292,2,47.5
252,52,69115,2,0,L|304:52,1,47.5
160,232,69273,2,0,L|96:232,1,47.5
116,168,69431,2,0,L|176:168,1,47.5
372,240,69589,2,0,L|476:240,1,95
252,340,69904,2,0,L|148:340,1,95
376,96,70220,5,0,0:0:0:0:
80,96,70457,2,0,L|176:96,1,95
312,184,70694,1,0,0:0:0:0:
96,284,70852,2,0,L|56:188,1,95
276,312,71168,2,0,L|332:312,1,47.5
108,88,71404,2,0,L|60:92,1,47.5
404,88,71641,2,0,L|452:92,1,47.5
312,208,71799,6,0,L|288:152,1,47.5
152,184,71957,2,0,L|88:180,3,47.5
244,264,72273,2,0,L|244:156,1,95
384,312,72510,2,0,L|384:204,1,95
244,92,72747,6,0,L|136:88,1,95
56,316,72983,2,0,L|152:316,1,95
292,172,73220,1,0,0:0:0:0:
76,176,73378,1,0,0:0:0:0:
292,304,73536,2,0,L|292:252,1,47.5
152,64,73694,6,0,L|88:60,2,47.5
292,76,73931,2,0,L|344:76,2,47.5
152,196,74168,2,0,L|84:196,1,47.5
316,156,74325,6,0,L|364:156,1,47.5
412,268,74483,2,0,L|480:272,1,47.5
320,328,74641,1,0,0:0:0:0:
184,320,74719,1,0,0:0:0:0:
224,88,74798,1,0,0:0:0:0:
364,104,74878,1,0,0:0:0:0:
500,120,74956,1,0,0:0:0:0:
460,64,75036,1,0,0:0:0:0:
324,224,75115,1,0,0:0:0:0:
188,256,75194,1,0,0:0:0:0:
52,112,75273,6,0,L|160:112,1,95
220,148,75510,1,0,0:0:0:0:
408,300,75747,6,0,L|313:296,1,95
176,244,75983,2,0,L|52:240,1,95
220,108,76220,1,0,0:0:0:0:
448,96,76457,2,0,L|448:208,1,95
308,184,76694,2,0,L|188:184,1,95
140,72,76931,2,0,L|240:72,1,95
308,304,77168,5,0,0:0:0:0:
352,260,77246,1,0,0:0:0:0:
304,236,77325,1,0,0:0:0:0:
88,152,77483,1,0,0:0:0:0:
135,152,77562,1,0,0:0:0:0:
352,140,77720,1,0,0:0:0:0:
400,144,77799,5,0,0:0:0:0:
256,232,78036,2,0,L|208:236,1,47.5
432,312,78273,1,0,0:0:0:0:
216,176,78431,2,0,L|208:152,4,23.75
432,160,78747,6,0,L|432:52,1,95
256,348,78983,2,0,L|256:240,1,95
116,112,79220,1,0,0:0:0:0:
20,148,79378,2,0,L|40:68,1,63.3333333333333
52,212,79589,1,0,0:0:0:0:
216,136,79694,2,0,L|308:136,2,63.3333333333333
380,260,80010,2,0,L|288:260,2,63.3333333333333
216,224,80325,6,0,L|296:224,1,63.3333333333333
116,128,80536,2,0,L|40:128,2,63.3333333333333
280,116,80852,2,0,L|356:116,2,63.3333333333333
216,312,81168,1,0,0:0:0:0:
380,272,81273,2,0,L|300:272,1,63.3333333333333
480,64,81483,2,0,L|412:60,2,63.3333333333333
316,180,81799,1,0,0:0:0:0:
252,184,81904,5,0,0:0:0:0:
252,96,81983,1,0,0:0:0:0:
300,96,82062,1,0,0:0:0:0:
348,96,82141,1,0,0:0:0:0:
208,320,82220,2,0,L|140:320,1,47.5
160,248,82378,2,0,L|236:244,1,47.5
348,248,82536,2,0,L|456:248,1,95
224,124,82852,6,0,P|152:120|244:276,1,380
420,92,83799,1,0,0:0:0:0:
164,108,84115,1,0,0:0:0:0:
356,208,84431,2,0,L|244:208,1,95
132,212,84747,1,0,0:0:0:0:
348,92,84904,6,0,P|288:84|232:172,2,142.5
160,280,85694,1,0,0:0:0:0:
464,292,86010,1,0,0:0:0:0:
276,156,86325,2,0,L|152:156,1,95
400,80,86641,5,0,0:0:0:0:
490,85,86798,1,0,0:0:0:0:
496,168,86956,1,0,0:0:0:0:
404,172,87114,1,0,0:0:0:0:
188,192,87273,6,0,L|168:260,3,47.5
344,280,87589,2,0,L|324:348,3,47.5
52,264,87904,6,0,L|52:152,1,95
116,100,88141,1,0,0:0:0:0:
252,256,88220,2,0,L|252:144,1,95
468,264,88536,2,0,L|468:152,1,95
340,84,88852,2,0,L|224:84,1,95
396,328,89168,5,0,0:0:0:0:
180,272,89325,1,0,0:0:0:0:
116,276,89404,1,0,0:0:0:0:
52,276,89483,1,0,0:0:0:0:
148,180,89641,1,0,0:0:0:0:
212,172,89720,1,0,0:0:0:0:
276,168,89799,2,0,L|276:68,1,95
60,352,90115,2,0,L|176:352,1,95
372,216,90431,6,0,L|256:216,1,95
428,336,90747,2,0,L|432:224,1,95
216,112,91062,1,0,0:0:0:0:
368,112,91220,1,0,0:0:0:0:
216,60,91378,1,0,0:0:0:0:
368,40,91536,1,0,0:0:0:0:
80,304,91694,6,0,L|60:244,1,47.5
140,228,91852,2,0,L|160:168,1,47.5
80,88,92010,2,0,L|60:148,1,47.5
140,164,92168,2,0,L|160:224,1,47.5
292,140,92325,6,0,L|356:144,2,47.5
96,320,92562,2,0,L|32:324,2,47.5
236,320,92799,2,0,L|240:256,1,47.5
380,228,92957,2,0,L|456:228,1,47.5
288,228,93115,1,0,0:0:0:0:
224,200,93193,1,0,0:0:0:0:
292,76,93273,5,0,0:0:0:0:
356,76,93351,1,0,0:0:0:0:
296,136,93431,1,0,0:0:0:0:
232,132,93510,1,0,0:0:0:0:
368,232,93589,2,0,L|476:228,1,95
272,328,93825,2,0,L|132:328,1,95
316,192,94062,2,0,L|368:192,1,47.5
112,188,94220,6,0,L|20:188,1,61.7499971733095
48,120,94378,2,0,L|132:120,1,61.7499971733095
248,96,94536,2,0,L|248:168,1,61.7499971733095
72,328,94694,1,0,0:0:0:0:
124,297,94772,1,0,0:0:0:0:
144,240,94851,1,0,0:0:0:0:
123,183,94930,1,0,0:0:0:0:
71,152,95009,1,0,0:0:0:0:
308,240,95168,5,0,0:0:0:0:
251,220,95246,1,0,0:0:0:0:
226,165,95325,1,0,0:0:0:0:
249,110,95404,1,0,0:0:0:0:
308,56,95483,1,0,0:0:0:0:
72,336,95641,1,0,0:0:0:0:
129,316,95719,1,0,0:0:0:0:
154,261,95798,1,0,0:0:0:0:
131,206,95877,1,0,0:0:0:0:
72,132,95956,1,0,0:0:0:0:
252,104,96036,1,0,0:0:0:0:
432,196,96115,6,0,L|516:196,1,61.7499971733095
312,60,96273,2,0,L|232:60,1,61.7499971733095
432,280,96431,2,0,L|500:280,1,61.7499971733095
328,288,96589,1,0,0:0:0:0:
164,288,96668,1,0,0:0:0:0:
300,120,96747,6,0,L|396:124,1,61.7499971733095
300,44,96904,2,0,L|224:44,1,61.7499971733095
300,184,97062,1,0,0:0:0:0:
84,176,97220,2,0,L|-12:180,1,61.7499971733095
84,100,97377,2,0,L|160:100,1,61.7499971733095
84,240,97535,1,0,0:0:0:0:
300,272,97694,6,0,L|204:276,1,61.7499971733095
300,196,97851,2,0,L|376:196,1,61.7499971733095
300,336,98009,1,0,0:0:0:0:
84,212,98168,2,0,L|16:212,1,61.7499971733095
84,136,98325,2,0,L|152:136,1,61.7499971733095
288,120,98483,2,0,L|356:116,1,61.7499971733095
212,280,98641,6,0,L|136:280,1,61.7499971733095
332,228,98799,2,0,L|420:228,1,61.7499971733095
212,204,98957,2,0,L|140:204,1,61.7499971733095
148,128,99115,2,0,L|224:128,1,61.7499971733095
452,56,99273,5,0,0:0:0:0:
438,115,99351,1,0,0:0:0:0:
397,161,99430,1,0,0:0:0:0:
340,181,99509,1,0,0:0:0:0:
280,184,99589,1,0,0:0:0:0:
60,328,99747,1,0,0:0:0:0:
74,269,99825,1,0,0:0:0:0:
115,223,99904,1,0,0:0:0:0:
172,203,99983,1,0,0:0:0:0:
232,200,100063,1,0,0:0:0:0:
448,316,100220,6,0,L|448:236,1,61.7499971733095
308,100,100378,2,0,L|228:100,2,61.7499971733095
92,108,100694,2,0,L|20:108,1,61.7499971733095
28,48,100852,2,0,L|104:44,1,61.7499971733095
152,240,101010,2,0,L|72:240,1,61.7499971733095
228,200,101168,6,0,L|316:200,2,61.7499971733095
168,120,101404,2,0,L|92:120,2,61.7499971733095
228,60,101641,2,0,L|132:60,1,61.7499971733095
372,272,101799,2,0,L|472:180,2,123.499994346619
140,272,102273,2,0,L|44:188,2,123.499994346619
356,128,102747,1,0,0:0:0:0:
264,64,102904,1,0,0:0:0:0:
325,64,102982,1,0,0:0:0:0:
464,152,103062,6,0,P|464:228|328:328,1,246.999988693238
160,96,103536,2,0,P|160:172|296:272,1,246.999988693238
104,212,104010,2,0,L|104:336,1,123.499994346619
320,180,104325,6,0,L|424:184,1,61.7499971733095
320,108,104483,2,0,L|240:108,1,61.7499971733095
320,244,104641,1,0,0:0:0:0:
104,192,104799,2,0,L|20:188,1,61.7499971733095
180,272,104957,1,0,0:0:0:0:
316,276,105036,1,0,0:0:0:0:
452,280,105115,1,0,0:0:0:0:
236,172,105273,5,0,0:0:0:0:
176,128,105352,1,0,0:0:0:0:
252,96,105431,1,0,0:0:0:0:
328,96,105510,1,0,0:0:0:0:
252,32,105589,1,0,0:0:0:0:
468,212,105747,1,0,0:0:0:0:
332,268,105825,1,0,0:0:0:0:
196,276,105904,1,0,0:0:0:0:
60,288,105983,1,0,0:0:0:0:
56,200,106062,1,0,0:0:0:0:
236,160,106141,1,0,0:0:0:0:
416,96,106220,6,0,L|448:40,1,61.7499971733095
236,160,106378,2,0,L|204:104,1,61.7499971733095
344,276,106536,2,0,L|376:220,1,61.7499971733095
236,260,106694,1,0,0:0:0:0:
100,252,106773,1,0,0:0:0:0:
236,260,106852,5,0,0:0:0:0:
292,252,106930,1,0,0:0:0:0:
309,198,107009,1,0,0:0:0:0:
284,148,107088,1,0,0:0:0:0:
232,148,107167,1,0,0:0:0:0:
80,220,107325,1,0,0:0:0:0:
24,212,107403,1,0,0:0:0:0:
7,158,107482,1,0,0:0:0:0:
32,108,107561,1,0,0:0:0:0:
84,108,107640,1,0,0:0:0:0:
300,268,107799,6,0,L|396:268,1,61.7499971733095
424,168,107957,2,0,L|344:168,1,61.7499971733095
300,172,108115,1,0,0:0:0:0:
80,296,108273,2,0,L|12:296,1,61.7499971733095
24,240,108431,1,0,0:0:0:0:
64,200,108510,2,0,L|148:200,1,61.7499971733095
344,304,108747,5,0,0:0:0:0:
480,260,108825,1,0,0:0:0:0:
344,88,108904,1,0,0:0:0:0:
208,132,108982,1,0,0:0:0:0:
68,76,109062,1,0,0:0:0:0:
204,48,109141,1,0,0:0:0:0:
340,172,109220,1,0,0:0:0:0:
204,216,109299,1,0,0:0:0:0:
68,336,109378,6,0,L|-12:332,1,61.7499971733095
68,268,109536,2,0,L|96:212,1,61.7499971733095
36,160,109694,1,0,0:0:0:0:
252,296,109852,2,0,L|332:292,1,61.7499971733095
252,228,110010,2,0,L|224:172,1,61.7499971733095
284,120,110168,1,0,0:0:0:0:
164,92,110325,6,0,L|244:96,1,61.7499971733095
164,160,110483,2,0,L|136:216,1,61.7499971733095
196,268,110641,1,0,0:0:0:0:
412,284,110799,2,0,L|468:240,1,61.7499971733095
412,284,110957,2,0,L|363:322,1,61.7499971733095
408,212,111115,1,0,0:0:0:0:
192,108,111273,6,0,L|124:108,2,61.7499971733095
252,160,111510,2,0,L|320:160,2,61.7499971733095
192,232,111747,2,0,L|268:232,1,61.7499971733095
76,96,111904,6,0,L|76:224,1,123.499994346619
200,104,112220,1,0,0:0:0:0:
416,264,112378,2,0,L|416:136,1,123.499994346619
168,260,112852,1,0,0:0:0:0:
292,100,113010,1,0,0:0:0:0:
232,100,113089,1,0,0:0:0:0:
96,240,113168,6,0,P|28:168|116:52,1,246.999988693238
376,192,113641,2,0,P|444:232|360:348,1,246.999988693238
156,296,114115,1,0,0:0:0:0:
248,224,114273,2,0,L|248:156,1,61.7499971733095
84,368,114431,2,0,B|64:12|64:12|84:384,1,712.5
176,220,115694,5,0,0:0:0:0:
176,125,115851,1,0,0:0:0:0:
272,220,115931,1,0,0:0:0:0:
272,125,116088,1,0,0:0:0:0:
368,332,116168,1,0,0:0:0:0:
412,252,116325,2,0,L|348:252,1,47.5
268,292,116483,2,0,L|204:292,1,47.5
124,284,116641,1,0,0:0:0:0:
76,212,116799,2,0,L|76:148,1,47.5
216,108,116957,6,0,L|352:104,1,126.666666666667
468,256,117378,2,0,L|332:252,1,126.666666666667
72,216,117799,1,0,0:0:0:0:
244,164,118010,1,0,0:0:0:0:
72,184,118247,1,0,0:0:0:0:
124,296,118339,1,0,0:0:0:0:
252,320,118497,1,0,0:0:0:0:
348,236,118747,6,0,L|348:148,1,79.1666666666667
496,100,119062,1,0,0:0:0:0:
348,88,119247,1,0,0:0:0:0:
492,196,119424,1,0,0:0:0:0:
284,280,119641,2,0,L|132:280,2,126.666666666667
408,152,120214,1,0,0:0:0:0:
232,144,120332,1,0,0:0:0:0:
