osu file format v14

[General]
AudioFilename: audio.mp3
AudioLeadIn: 0
PreviewTime: 75668
Countdown: 0
SampleSet: Soft
StackLeniency: 0.7
Mode: 0
LetterboxInBreaks: 0
WidescreenStoryboard: 1

[Editor]
Bookmarks: 1453,10596,19739,28882,38025,56311,65453,72453,76882,95168,104311
DistanceSpacing: 0.8
BeatDivisor: 4
GridSize: 32
TimelineZoom: 2.4

[Metadata]
Title:chaos eater -IIDX edition-
TitleUnicode:chaos eater -IIDX edition-
Artist:Nekomata Master+
ArtistUnicode:猫叉Master+
Creator:pocket-
Version:NORMAL
Source:beatmania IIDX 23 copula
Tags:DanceDanceRevolution DDR 2014 GITADORA NEX+AGE NEXTAGE video game instrumental electronic bemani konami 佐藤直之 Naoyuki Sato hard step
BeatmapID:2797428
BeatmapSetID:1248923

[Difficulty]
HPDrainRate:3
CircleSize:3
OverallDifficulty:4
ApproachRate:6
SliderMultiplier:1.60000000596046
SliderTickRate:1

[Events]
//Background and Video events
0,0,"dwadawdwada.jpeg",0,0
//Break Periods
//Storyboard Layer 0 (Background)
//Storyboard Layer 1 (Fail)
//Storyboard Layer 2 (Pass)
//Storyboard Layer 3 (Foreground)
//Storyboard Layer 4 (Overlay)
//Storyboard Sound Samples

[TimingPoints]
351,285.714285714286,4,2,1,70,1,0
779,-200,4,2,1,70,0,0
9993,-200,4,2,1,5,0,0
10065,-200,4,2,1,70,0,0
10279,-200,4,2,1,5,0,0
10350,-200,4,2,1,70,0,0
10636,-200,4,2,1,70,0,0
13136,-200,4,2,1,5,0,0
13207,-200,4,2,1,70,0,0
19779,-153.846153846154,4,2,1,70,0,0
27208,-153.846153846154,4,2,3,70,0,0
27279,-153.846153846154,4,2,1,70,0,0
27493,-153.846153846154,4,1,3,70,0,0
27565,-153.846153846154,4,2,1,70,0,0
28529,-153.846153846154,4,2,1,5,0,0
28636,-153.846153846154,4,2,1,70,0,0
28707,-153.846153846154,4,2,1,5,0,0
28922,-153.846153846154,4,2,1,70,0,0
29136,-153.846153846154,4,2,1,5,0,0
29207,-153.846153846154,4,2,1,70,0,0
29707,-153.846153846154,4,2,1,5,0,0
29779,-153.846153846154,4,2,1,70,0,0
31422,-153.846153846154,4,2,1,5,0,0
31493,-153.846153846154,4,2,1,70,0,0
31993,-153.846153846154,4,2,1,5,0,0
32065,-153.846153846154,4,2,1,70,0,0
33708,-153.846153846154,4,2,1,5,0,0
33779,-153.846153846154,4,2,1,70,0,0
54636,-153.846153846154,4,1,1,70,0,0
54922,-153.846153846154,4,2,1,70,0,0
73922,-153.846153846154,4,2,1,85,0,0
76279,-153.846153846154,4,2,1,5,0,0
76350,-153.846153846154,4,2,1,40,0,0
76636,-153.846153846154,4,2,1,100,0,0
76922,-125,4,2,1,85,0,1
78851,-125,4,2,1,5,0,1
78922,-125,4,2,1,85,0,1
83422,-125,4,2,1,5,0,1
83493,-125,4,2,1,85,0,1
87993,-125,4,2,1,5,0,1
88065,-125,4,2,1,85,0,1
92422,-125,4,2,1,5,0,1
92493,-125,4,2,1,85,0,1
93708,-125,4,2,1,5,0,1
93922,-125,4,2,1,85,0,1
93993,-125,4,2,1,5,0,1
94065,-125,4,2,1,85,0,1
94136,-125,4,2,1,5,0,1
94350,-125,4,2,1,85,0,1
94422,-125,4,2,1,5,0,1
94493,-125,4,2,1,85,0,1
94565,-125,4,2,1,5,0,1
94636,-125,4,2,1,85,0,1
95172,-125,4,2,1,85,0,0
95208,-125,4,2,1,85,0,1
98279,-125,4,2,1,5,0,1
98350,-125,4,2,1,85,0,1
98565,-125,4,2,1,5,0,1
98636,-125,4,2,1,85,0,1
99279,-125,4,2,1,5,0,1
99351,-125,4,2,1,85,0,1
104279,-125,4,2,1,85,0,0
104351,-125,4,2,1,90,0,1
104779,-125,4,2,1,90,0,0
105208,-125,4,2,1,90,0,1
105636,-125,4,2,1,90,0,0
106065,-125,4,2,1,90,0,1
106493,-125,4,2,1,90,0,0
106922,-125,4,2,1,90,0,1
107351,-125,4,2,1,90,0,0
107779,-125,4,2,1,90,0,1
108351,-125,4,2,1,90,0,0
108636,-125,4,2,1,90,0,0
108922,-125,4,2,1,60,0,0
109779,-125,4,2,1,45,0,0
110922,-125,4,2,1,35,0,0
111779,-125,4,2,1,30,0,0

[Colours]
Combo1 : 190,114,231
Combo2 : 135,169,209
Combo3 : 133,133,211
Combo4 : 160,123,221

[HitObjects]
28,40,1493,6,0,L|-2:207,1,160.000000596046,4|8,1:2|0:1,0:0:0:0:
58,273,2351,1,0,0:0:0:0:
137,219,2636,2,0,L|304:189,1,160.000000596046,2|8,0:3|0:1,0:0:0:0:
382,57,3779,2,0,P|442:52|515:131,2,160.000000596046,0|8|2,3:0|0:1|0:3,0:0:0:0:
418,146,5208,1,0,3:0:0:0:
386,236,5493,1,8,0:1:0:0:
242,364,6065,6,0,L|79:340,1,160.000000596046,4|8,1:2|0:1,0:0:0:0:
32,257,6922,1,0,0:0:0:0:
98,187,7208,2,0,L|74:24,1,160.000000596046,2|8,0:3|0:1,0:0:0:0:
254,97,8351,2,0,P|313:100|393:27,2,160.000000596046,0|8|2,3:0|0:1|0:3,0:0:0:0:
202,178,9779,1,0,3:0:0:0:
269,246,10065,1,8,0:1:0:0:
471,355,10636,6,0,P|486:271|469:199,2,160.000000596046,14|10|0,0:1|0:1|0:0,0:0:0:0:
383,313,12065,1,0,0:0:0:0:
311,377,12351,2,0,B|249:365|249:365|218:333|218:333|163:323,1,160.000000596046,8|0,0:1|0:0,0:0:0:0:
85,374,13208,1,0,0:0:0:0:
34,292,13493,1,8,0:1:0:0:
197,190,14065,1,2,0:3:0:0:
278,241,14351,1,0,0:0:0:0:
329,159,14636,1,8,0:1:0:0:
186,29,15208,6,0,P|135:68|30:62,2,160.000000596046,4|10|2,3:2|0:1|0:3,0:0:0:0:
244,105,16636,1,8,0:0:0:0:
182,179,16922,2,0,B|155:258|155:258|212:321,1,160.000000596046,8|2,0:1|3:2,0:0:0:0:
283,372,17779,1,8,0:0:0:0:
367,325,18065,1,8,0:1:0:0:
491,200,18636,2,0,B|469:120|469:120|396:91|396:91|372:12,1,240.000000894069,2|8,0:3|0:3,0:0:0:0:
294,98,19779,6,0,P|185:94|127:9,2,207.999991253376,4|8|2,1:0|0:3|0:3,0:0:0:0:
370,27,21208,1,0,3:0:0:0:
465,68,21493,1,8,0:3:0:0:
384,259,22065,2,0,B|242:225|242:225|215:151,1,207.999991253376,2|8,3:0|0:3,0:0:0:0:
91,3,23208,2,0,B|13:78|13:78|42:181,1,207.999991253376,2|8,0:3|0:3,0:0:0:0:
93,374,24351,6,0,P|177:319|275:344,2,207.999991253376,2|8|2,1:3|0:3|0:3,0:0:0:0:
11,309,25779,1,0,3:0:0:0:
50,212,26065,1,8,0:3:0:0:
199,67,26636,6,0,P|263:113|394:95,2,207.999991253376,2|8|4,3:0|0:3|0:0,0:0:0:0:
128,144,28065,2,0,L|8:162,2,103.999995626688,4|4|8,0:0|0:0|0:3,0:0:0:0:
204,214,28922,5,4,1:0:0:0:
141,297,29208,2,0,P|195:318|304:232,1,207.999991253376,8|8,3:0|3:0,0:0:0:0:
271,136,30065,1,2,3:0:0:0:
346,63,30351,2,0,P|430:115|430:214,1,207.999991253376,8|8,3:0|3:0,0:0:0:0:
479,306,31208,5,2,3:0:0:0:
400,374,31493,2,0,L|296:353,1,103.999995626688,8|0,3:0|0:0,0:0:0:0:
234,270,32065,2,0,L|130:291,1,103.999995626688,8|2,3:0|3:0,0:0:0:0:
54,220,32636,2,0,B|16:98|16:98|81:30,1,207.999991253376,8|8,3:0|3:0,0:0:0:0:
153,104,33493,5,4,3:2:0:0:
240,45,33779,2,0,P|339:58|389:145,1,207.999991253376,8|8,3:0|3:0,0:0:0:0:
360,245,34636,1,2,3:0:0:0:
273,188,34922,2,0,P|174:187|106:272,1,207.999991253376,8|8,3:0|0:3,0:0:0:0:
17,316,35779,5,2,3:0:0:0:
96,384,36064,2,0,L|200:363,1,103.999995626688,8|0,3:0|0:0,0:0:0:0:
262,280,36636,2,0,L|366:301,1,103.999995626688,8|2,3:0|3:0,0:0:0:0:
442,230,37207,2,0,B|480:108|480:108|415:40,1,207.999991253376,8|8,3:0|3:0,0:0:0:0:
325,17,38065,5,4,1:0:0:0:
258,96,38351,2,0,P|168:150|57:134,1,207.999991253376,8|8,3:0|3:0,0:0:0:0:
6,57,39208,1,2,3:0:0:0:
97,8,39493,1,8,3:0:0:0:
198,190,40065,1,8,3:0:0:0:
130,269,40351,1,2,3:0:0:0:
182,358,40636,2,0,L|403:317,1,207.999991253376,8|8,3:0|3:0,0:0:0:0:
478,369,41493,1,2,3:0:0:0:
504,268,41779,1,8,3:0:0:0:
337,143,42351,1,8,3:0:0:0:
311,41,42636,6,0,P|406:68|434:164,1,207.999991253376,4|2,1:2|3:0,0:0:0:0:
370,247,43493,2,0,L|256:225,1,103.999995626688,8|0,3:0|3:0,0:0:0:0:
215,317,44065,2,0,L|9:348,1,207.999991253376,8|8,3:0|3:0,0:0:0:0:
33,246,44922,6,0,P|51:202|44:140,1,103.999995626688,2|8,3:0|3:0,0:0:0:0:
21,45,45493,1,0,0:0:0:0:
116,3,45779,1,8,3:0:0:0:
172,90,46065,2,0,L|329:111,2,155.999993440032,0|8|8,0:0|3:0|3:0,0:0:0:0:
98,163,47208,5,4,1:0:0:0:
142,256,47493,2,0,P|201:302|339:283,1,207.999991253376,8|8,3:0|3:0,0:0:0:0:
398,220,48351,1,2,3:0:0:0:
494,245,48636,1,8,3:0:0:0:
371,122,49208,1,8,3:0:0:0:
439,43,49493,1,2,3:0:0:0:
341,7,49779,2,0,P|275:11|175:107,1,207.999991253376,8|8,3:0|3:0,0:0:0:0:
79,129,50636,1,2,3:0:0:0:
8,59,50922,1,8,3:0:0:0:
52,227,51494,1,8,3:0:0:0:
15,324,51779,6,0,P|69:329|153:210,1,207.999991253376,4|0,1:2|0:0,0:0:0:0:
220,138,52636,2,0,B|269:128|269:128|333:162,1,103.999995626688,8|0,3:0|3:0,0:0:0:0:
365,245,53208,2,0,B|423:222|423:222|456:67,1,207.999991253376,8|8,3:0|3:0,0:0:0:0:
377,7,54065,5,2,3:0:0:0:
275,28,54351,2,2,L|169:49,1,103.999995626688,8|0,3:0|2:0,0:1:0:0:
111,132,54922,2,0,B|64:107|64:107|5:111,1,103.999995626688,8|0,3:0|0:0,0:0:0:0:
37,211,55493,2,0,P|53:279|47:373,2,155.999993440032,8|8|4,3:0|3:0|1:0,0:0:0:0:
172,47,56922,6,0,P|269:37|338:123,1,207.999991253376,8|0,3:0|0:0,0:0:0:0:
295,208,57779,1,0,3:0:0:0:
358,290,58065,2,0,B|413:300|413:300|467:266,2,103.999995626688,8|0|0,3:0|0:0|3:0,0:0:0:0:
169,377,59208,2,0,P|123:312|125:171,1,207.999991253376,8|2,3:0|0:2,0:0:0:0:
62,99,60065,1,2,3:2:0:0:
129,19,60351,1,8,3:0:0:0:
226,57,60636,1,2,0:0:0:0:
218,161,60922,5,4,3:2:0:0:
326,338,61493,2,0,P|384:345|480:235,1,207.999991253376,8|0,3:0|0:0,0:0:0:0:
405,170,62351,1,2,3:0:0:0:
474,92,62636,2,0,B|486:34|486:34|445:-8,2,103.999995626688,8|0|0,3:0|0:0|3:0,0:0:0:0:
319,231,63779,6,0,L|99:195,1,207.999991253376,8|0,3:0|0:0,0:0:0:0:
53,112,64636,2,0,L|273:76,1,207.999991253376,2|8,3:0|3:0,0:0:0:0:
341,15,65493,6,0,P|393:14|497:56,2,155.999993440032,4|0|4,1:0|3:0|3:2,0:0:0:0:
171,369,67779,2,0,P|119:370|15:328,2,155.999993440032,4|2|4,1:2|3:2|3:2,0:0:0:0:
366,197,69351,2,0,L|398:361,1,155.999993440032,8|8,3:0|3:0,0:0:0:0:
497,325,70065,6,0,L|514:213,1,103.999995626688,4|0,1:0|0:0,0:0:0:0:
481,180,70493,1,0,3:0:0:0:
377,62,70922,6,0,L|265:45,1,103.999995626688,4|0,3:2|0:0,0:0:0:0:
248,12,71350,1,0,3:0:0:0:
182,153,71779,6,0,L|70:170,1,103.999995626688,2|0,3:2|0:0,0:0:0:0:
33,142,72208,2,0,L|16:254,1,103.999995626688,0|8,3:0|3:0,0:0:0:0:
45,288,72636,5,4,3:2:0:0:
191,342,73065,1,4,3:2:0:0:
337,289,73493,1,4,3:2:0:0:
364,135,73922,1,4,3:2:0:0:
256,192,74351,12,0,76351,0:0:0:0:
126,122,76922,6,0,P|141:54|116:-14,2,128.000000476837,4|8|0,1:0|3:0|0:0,0:0:0:0:
60,200,77779,2,0,L|85:336,1,128.000000476837,8|0,3:0|0:0,0:0:0:0:
170,271,78351,2,0,P|227:262|373:386,1,256.000000953674,8|8,3:0|3:0,0:0:0:0:
453,316,79208,5,2,3:0:0:0:
413,221,79493,1,8,3:0:0:0:
489,152,79779,2,0,L|475:79,1,64.0000002384184
502,44,80065,1,8,3:0:0:0:
405,9,80351,6,0,P|334:12|278:63,1,128.000000476837,2|8,3:0|3:0,0:0:0:0:
323,141,80922,2,0,P|252:138|196:87,1,128.000000476837,2|8,3:0|3:0,0:0:0:0:
131,37,81493,6,0,B|68:28|68:28|14:70,2,128.000000476837,4|8|0,1:0|3:0|0:0,0:0:0:0:
101,135,82351,2,0,L|77:269,1,128.000000476837,8|0,3:0|0:0,0:0:0:0:
19,344,82922,2,0,P|122:366|204:248,1,256.000000953674,8|8,3:0|3:0,0:0:0:0:
285,194,83779,5,2,3:0:0:0:
217,116,84065,1,8,3:0:0:0:
279,34,84351,2,0,L|358:48,1,64.0000002384184
381,11,84636,1,8,3:0:0:0:
451,85,84922,5,2,3:0:0:0:
407,177,85208,2,0,L|421:256,1,64.0000002384184,8|8,3:0|3:0,0:0:0:0:
384,279,85493,1,0,0:0:0:0:
458,349,85779,1,8,3:0:0:0:
359,380,86065,6,0,P|304:350|241:348,1,128.000000476837,4|8,1:0|3:0,0:0:0:0:
142,376,86636,1,0,0:0:0:0:
78,295,86922,2,0,L|97:163,1,128.000000476837,8|0,3:0|0:0,0:0:0:0:
22,96,87493,2,0,B|124:21|124:21|250:67,1,256.000000953674,8|8,3:0|3:0,0:0:0:0:
332,10,88351,6,0,L|362:151,1,128.000000476837,2|8,3:0|3:0,0:0:0:0:
311,226,88922,2,0,L|378:244,1,64.0000002384184
394,289,89208,1,8,3:0:0:0:
324,362,89493,6,0,P|260:365|206:326,1,128.000000476837,2|8,3:0|3:0,0:0:0:0:
176,232,90065,2,0,P|112:229|58:268,1,128.000000476837,2|8,3:0|3:0,0:0:0:0:
12,353,90636,5,4,1:0:0:0:
46,153,91208,2,0,L|13:4,1,128.000000476837,8|0,3:0|0:0,0:0:0:0:
120,38,91779,6,0,P|174:37|256:69,1,128.000000476837,4|0,3:2|3:0,0:0:0:0:
305,142,92351,1,8,3:0:0:0:
292,191,92493,1,0,3:0:0:0:
330,339,92922,6,0,P|397:348|480:201,1,256.000000953674,4|8,3:2|3:0,0:0:0:0:
454,162,93636,1,0,3:0:0:0:
501,71,93922,6,0,L|481:3,1,64.0000002384184,0|4,3:0|3:2,0:0:0:0:
380,5,94351,1,0,3:0:0:0:
335,96,94636,2,0,L|321:165,1,64.0000002384184,8|0,3:0|3:0,0:0:0:0:
354,199,94922,1,8,3:0:0:0:
274,264,95208,6,0,B|126:250|187:351|32:336,1,256.000000953674,4|2,1:0|3:0,0:0:0:0:
2,240,96065,1,8,3:0:0:0:
91,190,96351,2,0,L|110:41,1,128.000000476837,2|8,3:0|3:0,0:0:0:0:
197,13,96922,2,0,L|214:88,1,64.0000002384184,2|0,3:0|0:0,0:0:0:0:
252,105,97208,1,8,3:0:0:0:
330,39,97493,6,0,P|387:36|469:86,1,128.000000476837,2|8,3:0|3:0,0:0:0:0:
502,154,98065,2,0,L|485:229,1,64.0000002384184,2|0,3:0|0:0,0:0:0:0:
447,246,98351,1,8,3:0:0:0:
473,344,98636,1,2,3:0:0:0:
374,371,98922,1,8,3:0:0:0:
349,326,99065,2,0,P|272:270|179:278,1,192.000000715255,8|8,3:0|3:0,0:0:0:0:
89,328,99779,5,4,3:2:0:0:
10,261,100065,2,0,B|-4:198|-4:198|50:142,1,128.000000476837,8|2,3:0|3:0,0:0:0:0:
77,117,100493,2,0,L|61:40,1,64.0000002384184,0|8,0:0|3:0,0:0:0:0:
157,10,100922,1,2,3:0:0:0:
235,75,101208,6,0,P|286:109|348:100,1,128.000000476837,8|2,3:0|3:0,0:0:0:0:
385,64,101636,2,0,L|402:-11,1,64.0000002384184,0|8,0:0|3:0,0:0:0:0:
489,50,102065,6,0,L|511:186,1,128.000000476837,2|8,3:0|3:0,0:0:0:0:
407,169,102636,2,0,L|429:305,1,128.000000476837,2|8,3:0|3:0,0:0:0:0:
325,288,103208,2,0,L|335:356,1,64.0000002384184,2|0,3:0|0:0,0:0:0:0:
376,381,103493,5,8,3:0:0:0:
232,348,103779,1,8,3:0:0:0:
88,315,104065,1,8,3:0:0:0:
18,239,104351,6,0,P|37:154|20:46,1,192.000000715255,4|4,1:2|3:2,0:0:0:0:
170,10,105208,2,0,P|151:95|168:203,1,192.000000715255,4|4,3:2|3:2,0:0:0:0:
302,267,106065,2,0,P|354:233|417:227,1,128.000000476837,4|8,3:2|3:0,0:0:0:0:
463,252,106493,1,4,3:2:0:0:
502,103,106922,2,0,P|449:68|386:62,1,128.000000476837,4|8,3:2|3:0,0:0:0:0:
341,87,107350,1,4,3:2:0:0:
205,14,107779,6,0,L|56:43,2,128.000000476837,4|8|0,3:2|3:0|3:0,0:0:0:0:
256,192,108636,12,0,111779,0:0:0:0:
