osu file format v14

[General]
AudioFilename: audio.mp3
AudioLeadIn: 0
PreviewTime: 75668
Countdown: 0
SampleSet: Soft
StackLeniency: 0.3
Mode: 0
LetterboxInBreaks: 0
WidescreenStoryboard: 1

[Editor]
Bookmarks: 1453,10596,19739,28882,38025,56311,65453,72453,76897,95168,104311
DistanceSpacing: 0.3
BeatDivisor: 4
GridSize: 4
TimelineZoom: 2.4

[Metadata]
Title:chaos eater -IIDX edition-
TitleUnicode:chaos eater -IIDX edition-
Artist:Nekomata Master+
ArtistUnicode:猫叉Master+
Creator:pocket-
Version:HUNGER
Source:beatmania IIDX 23 copula
Tags:DanceDanceRevolution DDR 2014 GITADORA NEX+AGE NEXTAGE video game instrumental electronic bemani konami 佐藤直之 Naoyuki Sato hard step
BeatmapID:2595779
BeatmapSetID:1248923

[Difficulty]
HPDrainRate:6
CircleSize:4
OverallDifficulty:9
ApproachRate:9.4
SliderMultiplier:2
SliderTickRate:1

[Events]
//Background and Video events
0,0,"dwadawdwada.jpeg",0,0
//Break Periods
//Storyboard Layer 0 (Background)
//Storyboard Layer 1 (Fail)
//Storyboard Layer 2 (Pass)
//Storyboard Layer 3 (Foreground)
//Storyboard Layer 4 (Overlay)
//Storyboard Sound Samples

[TimingPoints]
351,285.714285714286,4,2,1,70,1,0
779,-333.333333333333,4,2,1,70,0,0
2636,-166.666666666667,4,2,1,70,0,0
2922,-333.333333333333,4,2,1,70,0,0
5493,-166.666666666667,4,2,1,70,0,0
6636,-333.333333333334,4,2,1,70,0,0
7065,-166.666666666667,4,2,1,70,0,0
7493,-333.333333333334,4,2,1,70,0,0
9993,-333.333333333334,4,2,1,5,0,0
10065,-333.333333333334,4,2,1,70,0,0
10207,-166.666666666667,4,2,1,70,0,0
10279,-166.666666666667,4,2,1,5,0,0
10350,-166.666666666667,4,2,1,70,0,0
12065,-111.111111111111,4,2,1,70,0,0
13136,-111.111111111111,4,2,1,5,0,0
13207,-166.666666666666,4,2,1,70,0,0
14207,-111.111111111111,4,2,1,70,0,0
15065,-166.666666666666,4,2,1,70,0,0
15779,-333.333333333333,4,2,1,70,0,0
17493,-111.111111111111,4,2,1,70,0,0
18065,-333.333333333333,4,2,1,70,0,0
18636,-111.111111111111,4,2,1,70,0,0
18922,-166.666666666667,4,2,1,70,0,0
19493,-83.3333333333333,4,2,1,70,0,0
20350,-111.111111111111,4,2,1,70,0,0
27208,-111.111111111111,4,2,3,70,0,0
27279,-111.111111111111,4,2,1,70,0,0
27493,-111.111111111111,4,1,3,70,0,0
27565,-111.111111111111,4,2,1,70,0,0
27779,-166.666666666666,4,2,1,70,0,0
28493,-111.111111111111,4,2,1,70,0,0
28529,-111.111111111111,4,2,1,5,0,0
28636,-111.111111111111,4,2,1,70,0,0
28707,-111.111111111111,4,2,1,5,0,0
28922,-333.333333333333,4,2,1,70,0,0
29136,-333.333333333333,4,2,1,5,0,0
29207,-66.6666666666667,4,2,1,70,0,0
29493,-166.666666666667,4,2,1,70,0,0
29707,-166.666666666667,4,2,1,5,0,0
29779,-166.666666666667,4,2,1,70,0,0
30207,-111.111111111111,4,2,1,70,0,0
30493,-83.3333333333334,4,2,1,70,0,0
31207,-333.333333333333,4,2,1,70,0,0
31422,-333.333333333333,4,2,1,5,0,0
31493,-66.6666666666667,4,2,1,70,0,0
31779,-166.666666666667,4,2,1,70,0,0
31993,-166.666666666667,4,2,1,5,0,0
32065,-166.666666666667,4,2,1,70,0,0
32207,-83.3333333333333,4,2,1,70,0,0
32493,-66.6666666666667,4,2,1,70,0,0
32779,-83.3333333333333,4,2,1,70,0,0
33636,-333.333333333333,4,2,1,70,0,0
33708,-333.333333333333,4,2,1,5,0,0
33779,-66.6666666666667,4,2,1,70,0,0
34065,-111.111111111111,4,2,1,70,0,0
34493,-166.666666666666,4,2,1,70,0,0
34779,-111.111111111111,4,2,1,70,0,0
35065,-83.3333333333333,4,2,1,70,0,0
35779,-222.222222222222,4,2,1,70,0,0
36350,-66.6666666666667,4,2,1,70,0,0
36779,-111.111111111111,4,2,1,70,0,0
37065,-83.3333333333333,4,2,1,70,0,0
37493,-111.111111111111,4,2,1,70,0,0
37779,-250,4,2,1,70,0,0
38065,-50,4,2,1,70,0,0
54636,-50,4,1,1,70,0,0
54779,-50,4,2,3,70,0,0
54922,-50,4,2,1,70,0,0
55065,-40,4,2,1,70,0,0
56351,-500,4,2,1,70,0,0
59779,-125,4,2,1,70,0,0
60493,-250,4,2,1,70,0,0
60636,-500,4,2,1,70,0,0
63208,-1000,4,2,1,70,0,0
64207,-250,4,2,1,70,0,0
72493,-100,4,2,1,70,0,0
72636,-76.9230769230769,4,2,1,70,0,0
72922,-100,4,2,1,70,0,0
73065,-76.9230769230769,4,2,1,70,0,0
73350,-100,4,2,1,70,0,0
73493,-76.9230769230769,4,2,1,70,0,0
73779,-100,4,2,1,70,0,0
73922,-76.9230769230769,4,2,1,85,0,0
74207,-100,4,2,1,85,0,0
74351,-100,4,2,1,85,0,0
76279,-100,4,2,1,5,0,0
76350,-333.333333333333,4,2,1,40,0,0
76636,-333.333333333333,4,2,1,100,0,0
76922,-66.6666666666667,4,2,1,85,0,1
77207,-55.5555555555556,4,2,1,85,0,1
77565,-100,4,2,1,85,0,1
77922,-66.6666666666667,4,2,1,85,0,1
78779,-100,4,2,1,85,0,1
78851,-100,4,2,1,5,0,1
78922,-66.6666666666667,4,2,1,85,0,1
79065,-80,4,2,1,85,0,1
81493,-66.6666666666667,4,2,1,85,0,1
81779,-55.5555555555556,4,2,1,85,0,1
83350,-100,4,2,1,85,0,1
83422,-100,4,2,1,5,0,1
83493,-66.6666666666667,4,2,1,85,0,1
83636,-100,4,2,1,85,0,1
84065,-80,4,2,1,85,0,1
85207,-55.5555555555556,4,2,1,85,0,1
85636,-47.6190476190476,4,2,1,85,0,1
86065,-66.6666666666667,4,2,1,85,0,1
86350,-55.5555555555556,4,2,1,85,0,1
87922,-100,4,2,1,85,0,1
87993,-100,4,2,1,5,0,1
88065,-66.6666666666667,4,2,1,85,0,1
88207,-100,4,2,1,85,0,1
88636,-80,4,2,1,85,0,1
90636,-66.6666666666667,4,2,1,85,0,1
90922,-55.5555555555556,4,2,1,85,0,1
92350,-80,4,2,1,85,0,1
92422,-80,4,2,1,5,0,1
92493,-80,4,2,1,85,0,1
92636,-133.333333333333,4,2,1,85,0,1
92922,-80,4,2,1,85,0,1
93708,-80,4,2,1,5,0,1
93922,-66.6666666666667,4,2,1,85,0,1
93993,-66.6666666666667,4,2,1,5,0,1
94065,-66.6666666666667,4,2,1,85,0,1
94136,-66.6666666666667,4,2,1,5,0,1
94350,-57.1428571428571,4,2,1,85,0,1
94422,-57.1428571428571,4,2,1,5,0,1
94493,-57.1428571428571,4,2,1,85,0,1
94565,-57.1428571428571,4,2,1,5,0,1
94636,-57.1428571428571,4,2,1,85,0,1
95172,-80,4,2,1,85,0,0
95208,-80,4,2,1,85,0,1
97493,-133.333333333333,4,2,1,85,0,1
97779,-80,4,2,1,85,0,1
98279,-80,4,2,1,5,0,1
98350,-66.6666666666667,4,2,1,85,0,1
98565,-66.6666666666667,4,2,1,5,0,1
98636,-80,4,2,1,85,0,1
99279,-80,4,2,1,5,0,1
99351,-80,4,2,1,85,0,1
99493,-57.1428571428571,4,2,1,85,0,1
99779,-80,4,2,1,85,0,1
100922,-100,4,2,1,85,0,1
101207,-133.333333333333,4,2,1,85,0,1
102065,-100,4,2,1,85,0,1
102636,-80,4,2,1,85,0,1
103207,-66.6666666666667,4,2,1,85,0,1
104279,-66.6666666666667,4,2,1,85,0,0
104351,-333.333333333333,4,2,1,90,0,1
104565,-333.333333333333,4,2,1,90,0,0
104779,-200,4,2,1,90,0,1
104993,-200,4,2,1,90,0,0
105208,-142.857142857143,4,2,1,90,0,1
105422,-142.857142857143,4,2,1,90,0,0
105636,-111.111111111111,4,2,1,90,0,1
105851,-111.111111111111,4,2,1,90,0,0
106065,-90.9090909090909,4,2,1,90,0,1
106279,-90.9090909090909,4,2,1,90,0,0
106493,-76.9230769230769,4,2,1,90,0,1
106708,-76.9230769230769,4,2,1,90,0,0
106922,-66.6666666666667,4,2,1,90,0,1
107136,-66.6666666666667,4,2,1,90,0,0
107351,-58.8235294117647,4,2,1,90,0,1
107565,-58.8235294117647,4,2,1,90,0,0
107779,-76.9230769230769,4,2,1,90,0,1
107993,-76.9230769230769,4,2,1,90,0,0
108065,-111.111111111111,4,2,1,90,0,1
108279,-111.111111111111,4,2,1,90,0,0
108350,-333.333333333333,4,2,1,90,0,0
108636,-333.333333333333,4,2,1,90,0,0
108922,-333.333333333333,4,2,1,60,0,0
109779,-333.333333333333,4,2,1,45,0,0
110922,-333.333333333333,4,2,1,35,0,0
111779,-333.333333333333,4,2,1,30,0,0

[Colours]
Combo1 : 190,114,231
Combo2 : 135,169,209
Combo3 : 133,133,211
Combo4 : 160,123,221

[HitObjects]
31,331,779,6,0,L|36:308,1,14.9999995422364
49,242,922,6,0,L|79:235,1,29.9999990844727,8|0,0:1|0:0,0:0:0:0:
256,192,1208,1,4,0:0:0:0:
153,256,1351,6,0,L|176:251,1,14.9999995422364,8|0,0:1|0:0,0:0:0:0:
256,192,1493,5,4,1:2:0:0:
331,175,1636,1,0,0:0:0:0:
398,212,1779,1,0,0:0:0:0:
426,284,1922,1,0,0:0:0:0:
399,356,2065,6,0,P|370:339|353:308,1,59.9999981689454,8|0,0:1|0:0,0:0:0:0:
398,212,2493,1,8,0:1:0:0:
379,99,2636,6,0,L|396:17,1,59.9999981689454,2|0,0:3|0:0,0:0:0:0:
480,17,2922,2,0,L|520:8,1,29.9999990844727,0|0,3:0|0:0,0:0:0:0:
243,74,3208,6,0,L|312:58,1,59.9999981689454,8|0,0:1|0:0,0:0:0:0:
391,39,3636,1,0,3:0:0:0:
480,17,3779,6,0,L|520:8,3,29.9999990844727,0|0|0|0,3:0|0:0|0:0|0:0,0:0:0:0:
482,99,4351,6,0,P|465:125|464:161,1,59.9999981689454,8|0,0:1|0:0,0:0:0:0:
462,153,4779,1,8,0:1:0:0:
397,202,4922,2,0,P|400:232|423:261,1,59.9999981689454,2|0,0:3|3:0,0:0:0:0:
448,363,5493,6,0,P|419:355|398:335,1,59.9999981689454,8|0,0:1|0:0,0:0:0:0:
256,192,5779,6,0,L|287:198,1,29.9999990844727,4|0,0:0|0:0,0:0:0:0:
328,376,5922,2,0,L|296:369,1,29.9999990844727,0|0,3:0|0:0,0:0:0:0:
256,192,6065,5,4,1:2:0:0:
203,179,6208,1,0,0:0:0:0:
160,204,6351,1,0,0:0:0:0:
139,253,6493,1,0,0:0:0:0:
158,302,6636,6,0,L|149:342,2,29.9999990844727,8|0|0,0:1|0:0|0:0,0:0:0:0:
65,210,7065,1,8,0:1:0:0:
133,99,7208,6,0,L|116:17,1,59.9999981689454,2|0,0:3|0:0,0:0:0:0:
32,17,7493,2,0,L|-8:8,1,29.9999990844727,0|0,3:0|0:0,0:0:0:0:
269,74,7779,6,0,L|200:58,1,59.9999981689454,8|0,0:1|0:0,0:0:0:0:
121,40,8208,1,0,3:0:0:0:
32,17,8351,6,0,L|-8:8,3,29.9999990844727,0|0|0|0,3:0|0:0|0:0|0:0,0:0:0:0:
30,99,8922,6,0,P|47:125|48:161,1,59.9999981689454,8|0,0:1|0:0,0:0:0:0:
50,153,9351,1,8,0:1:0:0:
115,202,9493,1,2,0:3:0:0:
95,362,9779,6,0,P|86:343|85:315,1,44.999998626709,0|0,3:0|0:0,0:0:0:0:
161,320,10065,1,8,0:1:0:0:
9,298,10208,6,0,P|14:277|28:259,1,29.9999990844727,2|0,0:1|0:0,0:0:0:0:
196,336,10351,5,8,0:1:0:0:
226,336,10422,1,8,0:1:0:0:
256,336,10493,1,8,0:1:0:0:
286,336,10565,1,8,0:1:0:0:
316,336,10636,1,14,0:1:0:0:
417,362,10922,6,0,P|428:340|425:299,1,59.9999981689454
351,320,11208,1,10,0:1:0:0:
508,224,11493,5,0,0:1:0:0:
442,266,11636,2,0,P|422:232|439:146,1,119.999996337891,10|0,0:1|0:0,0:0:0:0:
500,8,12065,6,0,B|510:40|510:40|399:54|399:54|402:9,1,179.999994506836,0|8,0:0|0:1,0:0:0:0:
500,8,12493,6,0,B|496:51|496:51|490:58|490:58|485:118,2,89.9999972534181
313,73,12922,2,0,B|320:133|320:133|326:141|326:141|339:228,1,134.999995880127
343,193,13208,6,0,B|348:206|348:206|356:256,1,59.9999981689454
370,356,13493,1,8,0:1:0:0:
370,356,13636,1,0,0:0:0:0:
425,202,13779,6,0,B|430:215|430:215|438:265,1,59.9999981689454,0|8,0:0|0:1,0:0:0:0:
451,364,14065,1,2,0:3:0:0:
282,310,14208,6,0,P|266:294|246:284,2,44.999998626709
188,372,14493,2,0,P|186:349|177:329,2,44.999998626709,0|0|8,0:0|0:0|0:1,0:0:0:0:
76,360,14779,2,0,P|88:341|95:320,1,44.999998626709
256,192,14922,5,4,0:0:0:0:
73,217,15065,2,0,L|116:210,1,29.9999990844727
256,192,15208,5,4,3:2:0:0:
330,162,15351,1,0,0:0:0:0:
404,195,15493,1,8,0:0:0:0:
434,269,15636,1,8,0:0:0:0:
402,343,15779,6,0,P|368:317|360:297,1,59.9999981689454,10|8,0:1|0:0,0:0:0:0:
484,207,16208,1,10,0:1:0:0:
459,55,16351,1,2,0:3:0:0:
455,59,16636,5,8,0:0:0:0:
377,48,16779,1,8,0:0:0:0:
300,37,16922,2,0,L|264:32,3,29.9999990844727,8|0|8|0,0:1|0:0|0:0|0:0,0:0:0:0:
381,44,17493,6,0,B|387:91|387:91|382:87|382:87|402:165|402:165|397:161|397:161|406:229,1,179.999994506836,2|8,3:2|0:0,0:0:0:0:
354,119,17922,1,8,0:0:0:0:
199,70,18065,6,0,P|178:91|139:98,1,59.9999981689454,8|8,0:1|0:0,0:0:0:0:
120,72,18422,1,0,0:0:0:0:
115,71,18493,1,0,0:0:0:0:
110,70,18565,1,0,0:0:0:0:
105,69,18636,6,0,L|46:59,3,44.999998626709,2|0|0|0,0:3|0:0|0:0|0:0,0:0:0:0:
170,199,18922,2,0,L|137:172,3,29.9999990844727,10|0|8|0,0:0|0:0|0:0|0:0,0:0:0:0:
161,344,19208,2,0,L|146:304,1,29.9999990844727,10|0,0:0|0:0,0:0:0:0:
150,315,19351,1,0,3:0:0:0:
256,192,19493,6,0,B|309:202|309:202|317:210|317:210|405:230,1,119.999996337891,8|0,0:3|0:0,0:0:0:0:
306,348,19779,6,0,L|268:106,1,239.999992675781,4|0,1:0|0:0,0:0:0:0:
251,191,20208,1,0,0:0:0:0:
376,224,20351,6,0,P|423:187|467:192,2,89.9999972534181,8|0|0,0:3|0:0|0:0,0:0:0:0:
508,302,20779,2,0,P|461:339|417:334,2,89.9999972534181,0|2|0,0:0|0:3|0:0,0:0:0:0:
442,263,21208,1,0,3:0:0:0:
291,340,21493,6,0,L|223:332,1,44.999998626709,8|0,0:3|0:0,0:0:0:0:
171,323,21636,1,0,0:0:0:0:
188,203,21779,1,0,0:0:0:0:
308,220,21922,1,0,0:0:0:0:
299,342,22065,5,2,3:0:0:0:
118,271,22351,1,0,0:0:0:0:
128,77,22636,1,8,0:3:0:0:
313,29,22922,1,0,0:0:0:0:
418,189,23208,1,2,0:3:0:0:
340,171,23351,6,0,P|315:149|312:130,2,44.999998626709,0|0|0,0:0|0:0|3:0,0:0:0:0:
471,131,23636,2,0,P|490:121|512:123,2,44.999998626709,0|0|8,0:0|0:0|0:3,0:0:0:0:
443,267,23922,2,0,P|442:290|429:308,1,44.999998626709
429,307,24065,2,0,L|315:324,1,89.9999972534181
256,380,24351,6,0,P|254:324|139:270,1,179.999994506836,2|0,1:3|0:0,0:0:0:0:
91,310,24779,1,0,0:0:0:0:
163,354,24922,6,0,P|136:309|145:179,1,179.999994506836,8|0,0:3|0:0,0:0:0:0:
90,92,25351,1,0,0:0:0:0:
177,37,25493,5,2,0:3:0:0:
146,181,25779,1,0,3:0:0:0:
1,150,26065,6,0,L|-11:210,1,44.999998626709,8|0,0:3|0:0,0:0:0:0:
16,77,26208,1,0,0:0:0:0:
90,92,26351,1,0,0:0:0:0:
75,165,26493,1,0,0:0:0:0:
181,27,26636,6,0,B|305:4|279:98|308:204|486:317|666:0|443:-67|285:-26|235:130,1,674.999979400635,2|0,3:0|0:0,0:0:0:0:
249,177,27779,6,0,L|249:214,3,29.9999990844727,4|0|0|0,0:0|0:0|0:0|0:0,0:0:0:0:
263,177,28065,6,0,L|263:214,3,29.9999990844727,4|0|0|0,0:0|0:0|0:0|0:0,0:0:0:0:
256,192,28351,5,4,0:0:0:0:
324,269,28493,2,0,L|317:299,1,22.4999993133545,0|0,3:0|0:0,0:0:0:0:
189,332,28636,6,0,L|207:413,1,44.999998626709,8|0,0:3|0:0,0:0:0:0:
129,87,28922,6,0,L|75:75,1,44.999998626709,4|0,1:0|0:0,0:0:0:0:
210,59,29208,6,0,L|390:37,1,150.000005722046,8|0,3:0|0:0,0:0:0:0:
89,162,29493,6,0,L|-1:173,1,89.9999972534181
0,172,29779,1,8,3:0:0:0:
161,362,29922,6,0,P|177:333|179:303,1,59.9999981689454,0|2,0:0|3:0,0:0:0:0:
254,367,30208,6,0,P|270:338|268:279,1,89.9999972534181,0|8,0:0|3:0,0:0:0:0:
348,371,30493,6,0,P|364:342|366:312,1,59.9999981689454
273,203,30636,5,0,0:0:0:0:
258,203,30708,1,0,0:0:0:0:
245,209,30779,1,0,3:0:0:0:
365,309,30922,1,8,3:0:0:0:
507,247,31065,1,0,0:0:0:0:
383,87,31208,6,0,L|437:75,1,44.999998626709,2|0,3:0|0:0,0:0:0:0:
302,59,31493,6,0,L|122:37,1,150.000005722046,8|0,3:0|0:0,0:0:0:0:
423,162,31779,6,0,L|513:173,1,89.9999972534181
512,172,32065,1,8,3:0:0:0:
351,362,32208,5,0,0:0:0:0:
351,362,32279,2,0,P|335:333|333:303,1,59.9999981689454,0|2,0:0|3:0,0:0:0:0:
254,367,32493,5,0,0:0:0:0:
254,367,32565,2,0,P|238:338|241:291,1,75.0000028610231,0|8,0:0|3:0,0:0:0:0:
161,362,32779,5,0,0:0:0:0:
161,362,32851,2,0,P|145:333|143:303,1,59.9999981689454
166,148,33065,1,0,3:0:0:0:
100,240,33208,5,8,3:0:0:0:
83,215,33279,1,0,0:0:0:0:
58,198,33351,1,0,0:0:0:0:
29,190,33422,1,0,0:0:0:0:
0,194,33493,5,4,3:2:0:0:
114,83,33636,2,0,L|129:87,1,14.9999995422363
210,59,33779,6,0,L|390:37,1,150.000005722046,8|0,3:0|0:0,0:0:0:0:
89,162,34065,6,0,L|-1:173,2,89.9999972534181,0|0|8,0:0|0:0|3:0,0:0:0:0:
161,362,34493,6,0,P|177:333|179:303,1,59.9999981689454,0|2,0:0|3:0,0:0:0:0:
254,367,34779,6,0,P|270:338|268:279,1,89.9999972534181,0|8,0:0|3:0,0:0:0:0:
348,371,35065,6,0,P|364:342|366:312,1,59.9999981689454
245,209,35208,5,0,0:0:0:0:
365,309,35351,1,0,3:0:0:0:
507,247,35493,5,8,0:3:0:0:
488,221,35565,1,0,0:0:0:0:
495,191,35636,1,0,0:0:0:0:
476,167,35708,1,0,0:0:0:0:
484,137,35779,1,2,3:0:0:0:
426,77,35922,6,0,L|383:87,2,44.999998626709,0|8|0,0:0|3:0|0:0,0:0:0:0:
302,59,36351,6,0,L|122:37,2,150.000005722046,0|0|8,0:0|0:0|3:0,0:0:0:0:
174,150,36779,6,0,P|196:191|189:247,1,89.9999972534181,0|2,0:0|3:0,0:0:0:0:
343,239,37065,6,0,P|321:275|332:336,1,59.9999981689454
256,352,37208,5,8,3:0:0:0:
256,359,37279,1,0,0:0:0:0:
256,367,37351,1,0,0:0:0:0:
256,374,37422,1,0,0:0:0:0:
256,382,37493,2,0,L|189:369,1,44.999998626709
319,293,37636,2,0,L|386:280,1,44.999998626709,0|0,3:0|0:0,0:0:0:0:
195,234,37779,6,0,L|128:221,1,60,8|0,3:0|0:0,0:0:0:0:
0,192,38065,5,4,1:0:0:0:
30,265,38351,5,8,3:0:0:0:
103,295,38493,1,0,0:0:0:0:
176,265,38636,1,0,0:0:0:0:
103,89,38779,1,0,3:0:0:0:
206,192,38922,5,8,3:0:0:0:
176,119,39065,1,0,0:0:0:0:
0,192,39208,1,2,3:0:0:0:
31,119,39493,5,8,3:0:0:0:
103,295,39636,1,0,0:0:0:0:
30,265,39779,1,0,0:0:0:0:
206,192,39922,1,0,3:0:0:0:
176,265,40065,5,8,3:0:0:0:
176,119,40208,1,0,0:0:0:0:
103,295,40351,1,2,3:0:0:0:
30,265,40636,5,8,3:0:0:0:
0,192,40779,1,0,0:0:0:0:
103,89,40922,1,0,0:0:0:0:
31,119,41065,1,0,3:0:0:0:
103,295,41208,5,8,3:0:0:0:
176,265,41493,1,2,3:0:0:0:
206,192,41779,5,8,3:0:0:0:
103,89,41922,1,0,0:0:0:0:
176,119,42065,1,0,0:0:0:0:
0,192,42208,1,0,3:0:0:0:
176,265,42351,5,8,3:0:0:0:
256,0,42636,5,4,1:2:0:0:
256,76,42779,1,0,0:0:0:0:
256,88,42851,1,0,0:0:0:0:
256,101,42922,1,8,3:0:0:0:
256,113,42993,1,0,0:0:0:0:
256,126,43065,1,0,0:0:0:0:
256,138,43136,1,0,0:0:0:0:
256,151,43208,1,2,3:0:0:0:
332,96,43351,5,0,3:0:0:0:
408,76,43493,5,8,3:0:0:0:
408,88,43565,1,0,0:0:0:0:
408,101,43636,1,0,0:0:0:0:
408,113,43708,1,0,0:0:0:0:
408,126,43779,1,0,3:0:0:0:
484,96,43922,5,0,0:0:0:0:
484,108,43993,1,0,0:0:0:0:
484,121,44065,1,8,3:0:0:0:
408,76,44208,5,0,0:1:0:0:
332,96,44351,1,0,0:0:0:0:
256,76,44493,1,0,0:1:0:0:
256,0,44636,5,8,3:0:0:0:
256,0,44922,5,2,3:0:0:0:
256,76,45065,1,0,0:0:0:0:
256,88,45136,1,0,0:0:0:0:
256,101,45208,1,8,3:0:0:0:
256,113,45279,1,0,0:0:0:0:
256,126,45351,1,0,0:0:0:0:
256,138,45422,1,0,0:0:0:0:
256,151,45493,1,0,0:0:0:0:
180,96,45636,5,0,3:0:0:0:
104,76,45779,5,8,3:0:0:0:
104,88,45851,1,0,0:0:0:0:
104,101,45922,1,0,0:0:0:0:
28,96,46065,5,0,0:0:0:0:
28,108,46136,1,0,0:0:0:0:
28,121,46208,1,0,3:0:0:0:
104,76,46351,5,8,3:0:0:0:
180,96,46493,1,8,3:0:0:0:
256,76,46636,1,0,0:0:0:0:
332,96,46779,1,0,3:0:0:0:
408,76,46922,1,8,3:0:0:0:
484,96,47065,1,0,0:0:0:0:
512,192,47208,5,4,1:0:0:0:
482,265,47493,5,8,3:0:0:0:
409,295,47636,1,0,0:0:0:0:
336,265,47779,1,0,0:0:0:0:
409,89,47922,1,0,3:0:0:0:
306,192,48065,5,8,3:0:0:0:
336,119,48208,1,0,0:0:0:0:
512,192,48351,1,2,3:0:0:0:
481,119,48636,5,8,3:0:0:0:
409,295,48779,5,8,3:0:0:0:
482,265,48922,1,0,0:0:0:0:
306,192,49065,1,0,3:0:0:0:
336,265,49208,5,8,3:0:0:0:
336,119,49351,1,0,0:0:0:0:
409,295,49493,1,2,3:0:0:0:
482,265,49779,5,8,3:0:0:0:
409,89,49922,5,8,3:0:0:0:
512,192,50065,1,0,0:0:0:0:
481,119,50208,1,0,3:0:0:0:
409,295,50351,5,8,3:0:0:0:
336,265,50636,1,2,3:0:0:0:
306,192,50922,5,8,3:0:0:0:
409,89,51065,5,8,3:0:0:0:
336,119,51208,1,0,0:0:0:0:
512,192,51351,1,0,3:0:0:0:
336,265,51493,5,8,3:0:0:0:
256,384,51779,5,4,1:2:0:0:
256,308,51922,1,0,0:0:0:0:
256,295,51993,1,0,0:0:0:0:
256,283,52065,1,8,3:0:0:0:
256,270,52136,1,0,0:0:0:0:
256,258,52208,1,0,0:0:0:0:
256,245,52279,1,0,0:0:0:0:
256,233,52351,1,0,0:0:0:0:
180,288,52493,5,0,3:0:0:0:
104,308,52636,5,8,3:0:0:0:
104,296,52708,1,0,0:0:0:0:
104,284,52779,6,2,L|104:68,1,200,0|0,0:0|3:0,0:1:0:0:
28,288,53065,2,2,L|28:72,1,200,0|8,0:0|3:0,0:1:0:0:
104,308,53351,5,0,0:0:0:0:
180,288,53493,1,0,0:0:0:0:
256,308,53636,1,0,3:0:0:0:
256,384,53779,5,8,3:0:0:0:
256,384,54065,5,2,3:0:0:0:
256,308,54208,1,0,0:0:0:0:
256,295,54279,1,0,0:0:0:0:
256,283,54351,6,2,L|256:67,1,200,8|0,3:0|0:0,0:1:0:0:
332,288,54636,2,2,L|332:72,2,200,0|0|8,2:0|3:0|3:0,0:0:0:0:
433,60,55065,6,2,L|407:309,1,250,2|0,3:0|0:0,0:1:0:0:
509,40,55351,2,2,L|483:289,1,250,0|8,3:0|3:0,0:1:0:0:
407,308,55636,5,0,0:0:0:0:
332,288,55779,1,2,3:0:0:0:
256,308,55922,1,8,3:0:0:0:
256,383,56065,5,0,3:0:0:0:
256,308,56351,5,4,1:0:0:0:
256,383,56636,5,2,3:0:0:0:
181,369,56779,1,0,0:0:0:0:
53,217,56922,1,8,3:0:0:0:
105,349,57065,1,0,0:0:0:0:
194,235,57208,1,0,0:0:0:0:
116,269,57351,1,0,0:0:0:0:
256,383,57493,1,0,0:0:0:0:
331,369,57636,1,0,0:0:0:0:
459,217,57779,1,0,3:0:0:0:
407,349,57922,1,0,0:0:0:0:
256,192,58065,6,0,L|256:168,3,20,8|0|0|0,3:0|0:0|0:0|0:0,0:0:0:0:
256,76,58636,5,0,3:0:0:0:
256,1,58922,5,2,3:0:0:0:
181,13,59065,1,0,0:0:0:0:
155,169,59208,1,8,3:0:0:0:
133,76,59351,1,0,0:0:0:0:
40,98,59493,1,2,3:0:0:0:
57,172,59636,1,0,0:0:0:0:
33,330,59779,5,2,0:2:0:0:
2,260,59922,2,0,L|49:252,1,40
180,308,60065,1,2,3:2:0:0:
134,370,60208,2,0,L|103:333,1,40
87,193,60351,1,8,3:0:0:0:
163,201,60493,6,0,L|146:245,1,40,0|2,3:0|0:0,0:0:0:0:
256,308,60922,5,4,3:2:0:0:
256,383,61208,5,2,3:0:0:0:
331,369,61351,1,0,0:0:0:0:
494,340,61493,1,8,3:0:0:0:
406,324,61636,1,0,0:0:0:0:
388,173,61779,1,2,3:0:0:0:
432,244,61922,1,0,0:0:0:0:
303,159,62065,1,0,0:0:0:0:
307,81,62208,1,0,0:0:0:0:
500,207,62351,1,2,3:0:0:0:
432,244,62494,1,0,0:0:0:0:
445,11,62637,1,8,3:0:0:0:
510,53,62779,1,0,3:0:0:0:
256,91,63208,6,2,L|256:76,1,15,0|0,3:0|0:0,0:1:0:0:
256,1,63493,5,2,3:0:0:0:
181,13,63636,1,0,0:0:0:0:
155,169,63779,1,8,3:0:0:0:
133,76,63922,1,0,0:0:0:0:
40,98,64065,1,2,3:0:0:0:
57,172,64208,2,0,L|50:200,1,20
12,359,64351,5,0,0:0:0:0:
23,364,64422,1,0,0:0:0:0:
35,367,64493,1,0,0:0:0:0:
47,367,64565,1,0,0:0:0:0:
59,365,64636,1,2,3:0:0:0:
71,359,64708,1,0,0:0:0:0:
81,352,64779,1,0,0:0:0:0:
88,342,64851,1,0,0:0:0:0:
94,331,64922,1,0,0:0:0:0:
167,301,65065,1,0,3:0:0:0:
0,253,65208,5,8,3:0:0:0:
228,365,65493,5,4,1:0:0:0:
119,81,65922,5,0,3:0:0:0:
420,128,66351,5,4,3:2:0:0:
167,301,66636,5,0,0:0:0:0:
205,60,66779,1,0,0:0:0:0:
394,214,66922,1,0,0:0:0:0:
177,222,67065,5,0,0:0:0:0:
269,108,67208,1,0,0:0:0:0:
321,245,67351,1,0,3:0:0:0:
256,192,67493,5,8,3:0:0:0:
91,255,67779,5,4,1:2:0:0:
283,18,68208,5,2,3:2:0:0:
392,302,68636,5,4,3:2:0:0:
117,169,68922,5,0,0:0:0:0:
344,82,69065,1,0,0:0:0:0:
306,323,69208,1,0,0:0:0:0:
190,139,69351,5,8,3:0:0:0:
334,161,69493,1,0,0:0:0:0:
242,275,69636,1,0,3:0:0:0:
256,192,69779,5,8,3:0:0:0:
8,321,70065,5,4,1:0:0:0:
68,368,70208,1,0,0:0:0:0:
138,339,70351,1,0,0:0:0:0:
8,321,70493,5,0,3:0:0:0:
98,333,70636,1,0,0:0:0:0:
153,261,70779,1,0,0:0:0:0:
150,256,70922,5,4,3:2:0:0:
255,279,71065,1,0,0:0:0:0:
287,383,71208,1,0,0:0:0:0:
150,256,71351,5,0,3:0:0:0:
277,237,71493,1,0,0:0:0:0:
355,341,71636,1,0,0:0:0:0:
150,256,71779,5,2,3:2:0:0:
285,182,71922,1,0,0:0:0:0:
417,267,72065,1,0,0:0:0:0:
150,256,72208,5,0,3:0:0:0:
272,105,72351,1,0,0:0:0:0:
463,135,72493,2,0,L|512:141,1,50,8|0,3:0|0:0,0:0:0:0:
242,24,72636,6,0,L|435:54,1,194.999991073609,4|0,3:2|0:0,0:0:0:0:
264,154,72922,2,0,L|272:104,1,50,8|0,3:0|0:0,0:0:0:0:
172,67,73065,6,0,L|142:259,1,194.999991073609,4|0,3:2|0:0,0:0:0:0:
273,237,73351,2,0,L|223:229,1,50,8|0,3:0|0:0,0:0:0:0:
185,330,73493,6,0,L|377:359,1,194.999991073609,4|0,3:2|0:0,0:0:0:0:
355,229,73779,2,0,L|347:279,1,50,8|0,3:0|0:0,0:0:0:0:
448,317,73922,6,0,L|477:124,1,194.999991073609,4|0,3:2|0:0,0:0:0:0:
347,147,74208,2,0,L|397:155,1,50,8|0,3:0|0:0,0:0:0:0:
256,116,74351,6,0,B|354:125|388:265|247:333|166:250|183:174|183:174|204:28|-13:-66|-154:175|10:311|121:253|121:253|77:245|64:206|64:206|47:159|0:152|0:152|256:192,1,1350,4|0,1:0|0:0,0:0:0:0:
256,116,76351,2,0,L|256:99,3,14.9999995422363,0|0|0|0,3:0|3:0|3:0|3:0,0:0:0:0:
256,0,76636,5,8,1:3:0:0:
193,356,76922,6,0,B|148:364|121:331|121:331|88:300|32:325,1,150.000005722046,4|0,1:0|0:0,0:0:0:0:
349,222,77208,6,0,B|298:208|265:246|265:246|225:293|148:255,1,179.999994506836,8|0,3:0|0:0,0:0:0:0:
486,310,77493,6,0,B|459:310|442:296|442:296|416:278|384:291,1,89.9999972534181
329,308,77636,1,0,0:0:0:0:
327,320,77708,1,0,0:0:0:0:
336,328,77779,1,8,3:0:0:0:
508,234,77922,1,0,0:0:0:0:
506,228,78208,5,0,0:0:0:0:
439,174,78351,1,8,3:0:0:0:
477,20,78493,1,0,0:0:0:0:
428,89,78636,1,0,0:0:0:0:
442,168,78779,6,0,L|380:157,1,50
136,112,78922,2,0,P|171:115|211:83,1,75.0000028610231,8|0,3:0|0:0,0:0:0:0:
339,239,79065,2,0,P|306:190|197:190,2,125,0|2|0,0:0|3:0|0:0,0:0:0:0:
238,381,79493,6,0,P|258:331|242:231,1,125,8|0,3:0|0:0,0:0:0:0:
227,369,79779,5,0,0:0:0:0:
243,321,79851,1,0,0:0:0:0:
239,272,79922,1,0,0:0:0:0:
144,308,80065,1,8,3:0:0:0:
217,357,80208,5,0,0:0:0:0:
230,319,80279,1,0,0:0:0:0:
226,279,80351,1,2,3:0:0:0:
152,304,80493,5,0,0:0:0:0:
76,260,80636,1,8,3:0:0:0:
49,145,80779,1,8,3:0:0:0:
98,1,80922,5,2,3:0:0:0:
56,147,81065,6,0,P|73:122|72:76,1,62.5,0|0,3:0|0:0,0:0:0:0:
193,28,81208,1,8,3:0:0:0:
370,67,81351,1,0,0:0:0:0:
439,136,81493,6,0,B|402:153|403:198|403:198|384:153|319:157,1,150.000005722046,4|0,1:0|0:0,0:0:0:0:
199,30,81779,6,0,B|194:82|247:99|247:99|183:92|160:165,1,179.999994506836,8|0,3:0|0:0,0:0:0:0:
8,215,82065,6,0,B|30:217|43:194|43:194|39:222|72:238,1,89.9999972534181
15,292,82208,1,0,0:0:0:0:
14,304,82279,1,0,0:0:0:0:
20,313,82351,1,8,3:0:0:0:
93,116,82493,1,0,0:0:0:0:
90,123,82779,5,0,0:0:0:0:
175,142,82922,1,8,3:0:0:0:
193,303,83065,1,0,0:0:0:0:
219,219,83208,1,0,0:0:0:0:
179,148,83351,6,0,L|248:135,1,50
247,53,83493,2,0,L|317:81,1,75.0000028610231,8|0,3:0|0:0,0:0:0:0:
377,19,83636,2,0,L|428:118,2,100,0|2|0,0:0|3:0|0:0,0:0:0:0:
489,235,84065,6,0,P|438:200|341:223,1,125,8|0,3:0|0:0,0:0:0:0:
476,240,84351,5,0,0:0:0:0:
435,212,84422,1,0,0:0:0:0:
386,213,84493,1,0,0:0:0:0:
412,286,84636,1,8,3:0:0:0:
340,375,84779,5,0,0:0:0:0:
334,315,84851,1,0,0:0:0:0:
294,270,84922,1,2,3:0:0:0:
256,351,85065,1,0,0:0:0:0:
0,321,85208,6,0,L|209:345,1,179.999994506836,8|8,3:0|3:0,0:0:0:0:
87,366,85493,1,2,3:0:0:0:
8,234,85636,6,0,L|217:258,2,209.999993591309,0|8|0,3:0|3:0|0:0,0:0:0:0:
117,37,86065,6,0,B|129:82|89:103|89:103|36:103|33:48,1,150.000005722046,4|0,1:0|0:0,0:0:0:0:
278,172,86351,6,0,B|302:126|256:90|256:90|194:97|195:157,1,179.999994506836,8|0,3:0|0:0,0:0:0:0:
499,77,86636,6,0,B|489:105|468:113|468:113|444:112|414:82,1,89.9999972534181
439,17,86779,1,0,0:0:0:0:
429,7,86851,1,0,0:0:0:0:
417,4,86922,1,8,3:0:0:0:
365,146,87065,1,0,0:0:0:0:
369,152,87351,5,0,0:0:0:0:
448,192,87493,1,8,3:0:0:0:
480,358,87636,1,0,0:0:0:0:
490,269,87779,1,0,0:0:0:0:
452,198,87922,6,0,L|388:207,1,50
152,242,88065,2,0,P|188:232|208:168,1,75.0000028610231,8|0,3:0|0:0,0:0:0:0:
280,171,88208,2,0,P|308:224|297:288,2,100,0|2|0,0:0|3:0|0:0,0:0:0:0:
21,362,88636,6,0,P|60:324|146:336,1,125,8|0,3:0|0:0,0:0:0:0:
33,366,88922,5,0,0:0:0:0:
69,333,88993,1,0,0:0:0:0:
118,335,89065,1,0,0:0:0:0:
202,358,89208,1,8,3:0:0:0:
43,371,89351,5,0,0:0:0:0:
72,345,89422,1,0,0:0:0:0:
111,346,89493,1,2,3:0:0:0:
199,369,89636,5,0,0:0:0:0:
311,268,89779,1,8,3:0:0:0:
267,82,89922,1,8,3:0:0:0:
68,36,90065,5,2,3:0:0:0:
261,84,90208,6,0,P|246:111|250:153,1,62.5,0|0,3:0|0:0,0:0:0:0:
323,176,90351,1,8,3:0:0:0:
431,119,90493,1,0,0:0:0:0:
342,14,90636,6,0,B|409:21|409:21|417:32|417:32|523:45,1,150.000005722046,4|0,1:0|0:0,0:0:0:0:
251,146,90922,6,0,B|328:136|328:136|336:125|336:125|442:112,1,179.999994506836
74,40,91208,6,0,B|114:44|114:44|118:49|118:49|174:56,1,89.9999972534181,8|0,3:0|0:0,0:0:0:0:
236,35,91351,1,0,0:0:0:0:
231,19,91422,1,0,0:0:0:0:
222,5,91493,1,0,0:0:0:0:
2,87,91636,1,0,0:0:0:0:
184,237,91779,5,4,3:2:0:0:
28,161,91922,5,0,0:0:0:0:
98,211,92065,1,0,3:0:0:0:
79,376,92208,1,0,0:0:0:0:
119,298,92351,2,0,L|54:289,1,62.5,8|0,3:0|0:0,0:0:0:0:
80,369,92493,5,0,3:0:0:0:
226,384,92636,6,0,P|201:358|195:310,1,75.0000028610231
498,364,92922,6,0,B|392:338|392:338|373:311|373:311|230:277,2,250,4|0|8,3:2|0:0|3:0,0:0:0:0:
482,273,93636,2,0,L|463:187,1,62.5,0|0,3:0|0:0,0:0:0:0:
466,204,93922,6,0,L|380:183,1,75.0000028610231,0|0,3:0|0:0,0:0:0:0:
177,144,94065,2,0,L|158:230,1,75.0000028610231,4|0,3:2|0:0,0:0:0:0:
159,226,94351,6,0,L|245:205,1,87.500000834465,0|0,3:0|0:0,0:0:0:0:
512,133,94493,2,0,L|489:36,1,87.500000834465
421,4,94636,5,8,3:0:0:0:
391,274,94779,1,0,3:0:0:0:
421,4,94922,1,8,3:0:0:0:
391,274,95065,1,0,3:0:0:0:
404,86,95208,5,4,1:0:0:0:
415,193,95351,1,0,0:0:0:0:
404,86,95493,1,8,3:0:0:0:
415,193,95636,1,0,0:0:0:0:
390,120,95779,5,2,3:0:0:0:
327,75,95922,1,0,0:0:0:0:
250,75,96065,1,8,3:0:0:0:
188,120,96208,1,0,0:0:0:0:
81,50,96351,5,2,3:0:0:0:
65,51,96422,1,0,0:0:0:0:
50,47,96493,1,0,0:0:0:0:
36,40,96565,1,0,0:0:0:0:
25,29,96636,1,8,3:0:0:0:
159,43,96779,1,0,0:0:0:0:
79,152,96922,6,0,P|92:182|76:235,1,62.5,2|0,3:0|0:0,0:0:0:0:
117,189,97065,2,0,P|107:220|61:250,1,62.5
0,326,97208,6,0,L|62:320,3,62.5,8|0|0|0,3:0|0:0|0:0|0:0,0:0:0:0:
137,313,97493,2,0,L|183:308,3,37.5000014305115,2|0|0|0,3:0|0:0|0:0|0:0,0:0:0:0:
250,304,97779,2,0,L|312:298,3,62.5,8|0|0|0,3:0|0:0|0:0|0:0,0:0:0:0:
512,335,98065,6,0,P|427:341|415:256,1,187.5,2|0,3:0|0:0,0:0:0:0:
506,242,98351,2,0,P|518:341|418:346,1,225.000008583069,8|0,3:0|0:0,0:0:0:0:
321,297,98636,5,2,3:0:0:0:
174,308,98779,2,0,P|160:282|166:235,1,62.5
160,249,98922,1,8,3:0:0:0:
63,225,99065,5,8,3:0:0:0:
63,225,99136,2,0,P|17:266|0:326,1,125
0,326,99351,1,0,3:0:0:0:
244,263,99493,6,0,B|252:184|252:184|260:175|260:175|269:92,1,175.00000166893,8|0,3:0|0:0,0:0:0:0:
37,144,99779,6,0,B|-8:214|93:207|118:105|95:28|13:4,1,250,4|8,3:2|3:0,0:0:0:0:
176,40,100208,1,0,0:0:0:0:
178,47,100279,1,0,0:0:0:0:
181,54,100351,6,0,P|211:30|256:29,3,62.5,2|0|0|0,3:0|0:0|0:0|0:0,0:0:0:0:
281,169,100636,2,0,P|275:131|296:91,3,62.5,8|0|0|0,3:0|0:0|0:0|0:0,0:0:0:0:
417,138,100922,6,0,P|381:124|358:90,3,50,2|0|0|0,3:0|0:0|0:0|0:0,0:0:0:0:
453,32,101208,6,0,P|435:52|396:57,3,37.5000014305115,8|0|0|0,3:0|0:0|0:0|0:0,0:0:0:0:
497,192,101493,5,2,3:0:0:0:
496,201,101565,1,0,0:0:0:0:
495,210,101636,1,0,0:0:0:0:
493,219,101708,1,0,0:0:0:0:
490,228,101779,1,8,3:0:0:0:
436,296,101922,2,0,L|446:362,1,37.5000014305115
313,362,102065,6,0,P|330:325|313:264,2,66.6666666666667,2|0|0,3:0|0:0|0:0,0:0:0:0:
149,318,102351,2,0,L|249:306,1,100,8|0,3:0|0:0,0:0:0:0:
379,235,102636,6,0,P|396:198|372:115,2,83.3333333333333,2|0|0,3:0|0:0|0:0,0:0:0:0:
173,186,102922,2,0,L|298:171,1,125,8|0,3:0|0:0,0:0:0:0:
452,95,103208,6,0,P|469:58|440:-42,2,100.000003814697,2|0|0,3:0|0:0|0:0,0:0:0:0:
178,48,103493,6,0,L|252:38,1,75.0000028610231,8|0,3:0|0:0,0:0:0:0:
343,24,103636,1,0,3:0:0:0:
103,100,103779,6,0,L|209:144,1,75.0000028610231,8|0,3:0|0:0,0:0:0:0:
298,171,103922,1,0,3:0:0:0:
12,107,104065,6,0,L|81:198,1,75.0000028610231,8|0,3:0|0:0,0:0:0:0:
166,289,104208,1,0,3:0:0:0:
5,353,104351,6,0,B|6:346|-1:341|-1:341|8:342|18:333,1,29.9999990844727,4|0,1:2|0:0,0:0:0:0:
84,365,104636,1,0,3:0:0:0:
66,234,104779,6,0,B|74:225|67:211|67:211|79:222|94:214,1,50,4|0,3:2|0:0,0:0:0:0:
121,290,105065,1,8,3:0:0:0:
166,143,105208,6,0,B|181:137|181:115|181:115|190:137|214:137,1,69.9999978637696,4|0,3:2|0:0,0:0:0:0:
205,239,105493,1,0,3:0:0:0:
335,90,105636,6,0,B|357:95|370:70|370:70|366:100|387:108,1,89.9999972534181,4|0,3:2|0:0,0:0:0:0:
332,239,105922,1,8,3:0:0:0:
463,217,106065,6,0,B|487:232|515:215|515:215|493:243|510:263,1,110.000003356934,4|0,3:2|0:0,0:0:0:0:
364,363,106351,1,8,3:0:0:0:
313,168,106493,6,0,B|328:199|368:197|368:197|328:213|334:244,1,129.999994049073,4|0,3:2|0:0,0:0:0:0:
169,231,106779,1,8,3:0:0:0:
212,34,106922,6,0,B|209:74|250:95|250:95|201:89|188:122,1,150.000005722046,4|0,3:2|0:0,0:0:0:0:
41,41,107208,1,8,3:0:0:0:
336,63,107351,6,0,B|333:108|379:132|379:132|323:125|309:164,1,170.000003242493,4|0,3:2|0:0,0:0:0:0:
47,42,107636,1,8,3:0:0:0:
126,21,107779,6,0,B|124:55|159:74|159:74|116:68|105:98,1,129.999994049073,4|0,3:2|0:0,0:0:0:0:
313,168,108065,6,0,B|323:189|351:188|351:188|323:199|327:220,1,89.9999972534181,8|0,3:0|0:0,0:0:0:0:
459,148,108351,6,0,B|464:152|472:148|472:148|467:156|469:169,1,29.9999990844727,0|0,3:0|3:0,0:0:0:0:
512,78,108636,5,14,3:0:0:0:
256,192,108708,12,0,111779,0:0:0:0:
