osu file format v14

[General]
AudioFilename: audio.mp3
AudioLeadIn: 0
PreviewTime: 75668
Countdown: 0
SampleSet: Soft
StackLeniency: 0.7
Mode: 0
LetterboxInBreaks: 0
WidescreenStoryboard: 1

[Editor]
Bookmarks: 1453,10596,19739,28882,38025,56311,65453,72453,76882,95168,104311
DistanceSpacing: 1.3
BeatDivisor: 4
GridSize: 32
TimelineZoom: 2.4

[Metadata]
Title:chaos eater -IIDX edition-
TitleUnicode:chaos eater -IIDX edition-
Artist:Nekomata Master+
ArtistUnicode:猫叉Master+
Creator:pocket-
Version:EASY
Source:beatmania IIDX 23 copula
Tags:DanceDanceRevolution DDR 2014 GITADORA NEX+AGE NEXTAGE video game instrumental electronic bemani konami 佐藤直之 Naoyuki Sato hard step
BeatmapID:3822594
BeatmapSetID:1248923

[Difficulty]
HPDrainRate:2
CircleSize:2
OverallDifficulty:2
ApproachRate:4
SliderMultiplier:0.90000000596046
SliderTickRate:1

[Events]
//Background and Video events
0,0,"dwadawdwada.jpeg",0,0
//Break Periods
//Storyboard Layer 0 (Background)
//Storyboard Layer 1 (Fail)
//Storyboard Layer 2 (Pass)
//Storyboard Layer 3 (Foreground)
//Storyboard Layer 4 (Overlay)
//Storyboard Sound Samples

[TimingPoints]
351,285.714285714286,4,2,1,70,1,0
779,-125,4,2,1,70,0,0
9993,-125,4,2,1,5,0,0
10065,-125,4,2,1,70,0,0
10279,-125,4,2,1,5,0,0
10350,-125,4,2,1,70,0,0
13136,-125,4,2,1,5,0,0
13207,-125,4,2,1,70,0,0
28529,-125,4,2,1,5,0,0
28636,-125,4,2,1,70,0,0
28707,-125,4,2,1,5,0,0
28922,-125,4,2,1,70,0,0
29136,-125,4,2,1,5,0,0
29207,-125,4,2,1,70,0,0
29707,-125,4,2,1,5,0,0
29779,-125,4,2,1,70,0,0
31422,-125,4,2,1,5,0,0
31493,-125,4,2,1,70,0,0
31993,-125,4,2,1,5,0,0
32065,-125,4,2,1,70,0,0
33708,-125,4,2,1,5,0,0
33779,-125,4,2,1,70,0,0
54636,-125,4,1,1,70,0,0
54779,-125,4,2,3,70,0,0
54922,-125,4,2,1,70,0,0
73922,-125,4,2,1,85,0,0
76279,-125,4,2,1,5,0,0
76350,-125,4,2,1,40,0,0
76636,-125,4,2,1,100,0,0
76922,-100,4,2,1,85,0,1
78851,-100,4,2,1,5,0,1
78922,-100,4,2,1,85,0,1
83422,-100,4,2,1,5,0,1
83493,-100,4,2,1,85,0,1
87993,-100,4,2,1,5,0,1
88065,-100,4,2,1,85,0,1
92422,-100,4,2,1,5,0,1
92493,-100,4,2,1,85,0,1
93708,-100,4,2,1,5,0,1
93922,-100,4,2,1,85,0,1
93993,-100,4,2,1,5,0,1
94065,-100,4,2,1,85,0,1
94136,-100,4,2,1,5,0,1
94350,-100,4,2,1,85,0,1
94422,-100,4,2,1,5,0,1
94493,-100,4,2,1,85,0,1
94565,-100,4,2,1,5,0,1
94636,-100,4,2,1,85,0,1
95172,-100,4,2,1,85,0,0
95208,-100,4,2,1,85,0,1
98279,-100,4,2,1,5,0,1
98350,-100,4,2,1,85,0,1
98565,-100,4,2,1,5,0,1
98636,-100,4,2,1,85,0,1
99279,-100,4,2,1,5,0,1
99351,-100,4,2,1,85,0,1
104279,-100,4,2,1,85,0,0
104351,-100,4,2,1,90,0,1
104779,-100,4,2,1,90,0,0
105208,-100,4,2,1,90,0,1
106065,-100,4,2,1,90,0,0
106493,-100,4,2,1,90,0,1
107351,-100,4,2,1,90,0,0
107779,-100,4,2,1,90,0,1
108351,-100,4,2,1,90,0,0
108636,-100,4,2,1,90,0,0
108922,-100,4,2,1,60,0,0
109779,-100,4,2,1,45,0,0
110922,-100,4,2,1,35,0,0
111779,-100,4,2,1,30,0,0

[Colours]
Combo1 : 190,114,231
Combo2 : 135,169,209
Combo3 : 133,133,211
Combo4 : 160,123,221

[HitObjects]
476,330,1493,6,0,P|456:278|461:188,1,144.000000953674,4|8,1:2|0:1,0:0:0:0:
361,31,2636,2,0,P|306:23|234:79,1,144.000000953674,2|8,0:3|0:1,0:0:0:0:
141,233,3779,2,0,L|-10:255,2,144.000000953674,0|8|2,3:0|0:1|0:3,0:0:0:0:
197,307,5208,1,0,3:0:0:0:
138,379,5493,1,8,0:1:0:0:
313,312,6065,6,0,P|365:273|456:279,1,144.000000953674,4|8,1:2|0:1,0:0:0:0:
490,91,7208,2,0,L|337:118,1,144.000000953674,2|8,0:3|0:1,0:0:0:0:
183,26,8351,2,0,L|156:179,2,144.000000953674,0|8|2,3:0|0:1|0:3,0:0:0:0:
91,5,9779,1,0,3:0:0:0:
40,83,10065,2,0,P|29:122|28:163,1,72.0000004768368,8|8,0:1|0:1,0:0:0:0:
71,235,10636,6,0,P|89:314|92:388,2,144.000000953674,14|10|0,0:1|0:1|0:0,0:0:0:0:
222,124,12351,2,0,P|279:129|331:199,1,144.000000953674,8|0,0:1|0:0,0:0:0:0:
282,374,13493,1,8,0:1:0:0:
460,317,14065,2,0,L|447:241,2,72.0000004768368,2|0|8,0:3|0:0|0:1,0:0:0:0:
377,361,14922,1,4,0:0:0:0:
318,287,15208,6,0,P|246:285|193:341,1,144.000000953674,4|10,3:2|0:1,0:0:0:0:
54,357,16351,1,2,0:3:0:0:
20,217,16922,2,0,P|90:204|162:193,1,144.000000953674,8|2,0:1|3:2,0:0:0:0:
122,55,18065,1,8,0:1:0:0:
261,90,18636,2,0,B|387:71|334:152|474:131,1,216.00000143051,2|8,0:3|0:3,0:0:0:0:
501,218,19779,6,0,P|509:285|470:353,2,144.000000953674,4|8|2,1:0|0:3|0:3,0:0:0:0:
331,159,21493,2,0,P|344:210|346:306,1,144.000000953674,8|2,0:3|3:0,0:0:0:0:
173,371,22636,1,8,0:3:0:0:
62,219,23208,1,2,0:3:0:0:
175,70,23779,2,0,L|188:-15,1,72.0000004768368,8|0,0:3|0:0,0:0:0:0:
275,28,24351,6,0,P|311:50|340:147,1,144.000000953674,2|8,1:3|0:3,0:0:0:0:
481,266,25493,2,0,P|444:288|415:385,1,144.000000953674,2|8,0:3|0:3,0:0:0:0:
256,192,26636,12,0,28351,1:0:0:0:
81,38,29493,6,0,L|64:125,1,72.0000004768368,0|8,0:0|3:0,0:0:0:0:
130,178,30065,2,0,L|157:330,1,144.000000953674,2|0,3:0|0:0,0:0:0:0:
298,198,31208,1,2,3:0:0:0:
371,254,31493,1,8,3:0:0:0:
376,347,31779,2,0,P|423:375|518:362,2,144.000000953674,0|2|0,0:0|3:0|0:0,0:0:0:0:
489,195,33493,6,0,B|472:126|472:126|427:127|393:98,1,144.000000953674,4|0,3:2|0:0,0:0:0:0:
317,143,34351,1,8,3:0:0:0:
262,67,34636,2,0,P|219:43|117:58,1,144.000000953674,2|0,3:0|0:0,0:0:0:0:
21,206,35779,2,0,P|45:249|30:351,1,144.000000953674,2|0,3:0|0:0,0:0:0:0:
219,381,36922,1,2,3:0:0:0:
351,248,37493,2,0,L|422:260,2,72.0000004768368,0|8|4,0:0|3:0|1:0,0:0:0:0:
301,167,38351,6,0,L|271:16,1,144.000000953674,8|8,3:0|3:0,0:0:0:0:
93,79,39493,2,0,L|63:230,1,144.000000953674,8|8,3:0|3:0,0:0:0:0:
211,336,40636,2,0,P|282:332|339:373,1,144.000000953674,8|8,3:0|3:0,0:0:0:0:
485,255,41779,1,8,3:0:0:0:
462,68,42351,2,0,P|445:30|411:5,1,72.0000004768368,8|4,3:0|1:2,0:0:0:0:
328,12,42922,6,0,L|354:166,2,144.000000953674,8|8|8,3:0|3:0|3:0,0:0:0:0:
112,192,44922,1,2,3:0:0:0:
33,141,45208,2,0,L|59:-13,2,144.000000953674,8|8|8,3:0|3:0|3:0,0:0:0:0:
134,298,46922,2,0,P|114:327|108:363,1,72.0000004768368,8|4,3:0|1:0,0:0:0:0:
201,364,47493,6,0,P|251:348|347:341,1,144.000000953674,8|8,3:0|3:0,0:0:0:0:
474,207,48636,2,0,P|438:160|348:160,1,144.000000953674,8|8,3:0|3:0,0:0:0:0:
170,146,49779,2,0,L|143:4,2,144.000000953674,8|8|8,3:0|3:0|3:0,0:0:0:0:
344,231,51493,2,0,L|330:301,1,72.0000004768368,8|4,3:0|1:2,0:0:0:0:
254,357,52065,6,0,P|202:365|112:317,2,144.000000953674,8|8|8,3:0|3:0|3:0,0:0:0:0:
457,162,54065,1,2,3:0:0:0:
414,75,54351,2,2,P|362:67|272:115,2,144.000000953674,8|8|8,3:0|3:0|3:0,0:1:0:0:
468,254,56065,2,0,L|455:330,1,72.0000004768368,0|4,3:0|1:0,0:0:0:0:
278,264,56922,6,0,L|48:294,1,216.00000143051,8|0,3:0|3:0,0:0:0:0:
19,209,58065,2,0,P|60:166|151:168,1,144.000000953674,8|0,3:0|3:0,0:0:0:0:
267,24,59208,2,0,L|481:56,1,216.00000143051,8|2,3:0|3:2,0:0:0:0:
504,146,60351,1,8,3:0:0:0:
317,162,60922,5,4,3:2:0:0:
188,26,61493,2,0,P|100:18|4:104,1,216.00000143051,8|2,3:0|3:0,0:0:0:0:
71,164,62636,2,0,B|54:204|54:204|85:305,1,144.000000953674,8|0,3:0|3:0,0:0:0:0:
258,368,63779,6,0,P|303:314|453:291,1,216.00000143051,8|2,3:0|3:0,0:0:0:0:
497,108,65208,1,8,3:0:0:0:
432,37,65493,6,0,P|383:33|325:13,2,108.000000715255,4|0|4,1:0|3:0|3:2,0:0:0:0:
80,347,67779,2,0,P|129:351|187:371,2,108.000000715255,4|2|4,1:2|3:2|3:2,0:0:0:0:
234,171,69351,2,0,L|214:57,1,108.000000715255,8|8,3:0|3:0,0:0:0:0:
130,22,70065,6,0,P|96:59|86:124,1,108.000000715255,4|0,1:0|3:0,0:0:0:0:
17,237,70922,2,0,P|53:277|63:330,1,108.000000715255,4|0,3:2|3:0,0:0:0:0:
194,377,71779,2,0,B|239:349|239:349|303:360,1,108.000000715255,2|0,3:2|3:0,0:0:0:0:
388,255,72636,5,4,3:2:0:0:
299,145,73065,1,4,3:2:0:0:
381,31,73493,1,4,3:2:0:0:
508,91,73922,1,4,3:2:0:0:
256,192,74351,12,4,76351,1:0:0:0:
452,345,77493,6,0,P|419:331|353:329,1,90.000000596046,0|8,0:0|3:0,0:0:0:0:
304,260,78065,1,0,0:0:0:0:
228,308,78351,2,0,B|156:362|156:362|58:332,1,180.000001192092,8|8,3:0|3:0,0:0:0:0:
24,257,79208,2,0,P|36:220|34:162,1,90.000000596046,2|8,3:0|3:0,0:0:0:0:
12,82,79779,1,0,0:0:0:0:
86,30,80065,1,8,3:0:0:0:
149,94,80351,2,0,P|205:129|326:105,1,180.000001192092,2|2,3:0|3:0,0:0:0:0:
477,39,81493,6,0,B|499:79|499:79|493:132,1,90.000000596046,4|8,1:0|3:0,0:0:0:0:
408,152,82065,2,0,B|386:192|386:192|392:245,1,90.000000596046,0|8,0:0|3:0,0:0:0:0:
451,303,82636,2,0,P|411:347|284:334,1,180.000001192092
226,289,83493,1,8,3:0:0:0:
236,199,83779,1,2,3:0:0:0:
109,70,84351,2,0,L|21:90,2,90.000000596046,0|8|2,0:0|3:0|3:0,0:0:0:0:
171,5,85208,2,0,B|261:21|261:21|253:71|287:113,1,180.000001192092,8|8,3:0|3:0,0:0:0:0:
350,161,86065,6,0,L|332:259,1,90.000000596046,4|8,1:0|3:0,0:0:0:0:
247,275,86636,2,0,L|265:373,2,90.000000596046,0|8|0,0:0|3:0|0:0,0:0:0:0:
194,203,87493,2,0,P|112:168|23:175,1,180.000001192092,8|8,3:0|3:0,0:0:0:0:
3,86,88351,1,2,3:0:0:0:
65,22,88636,1,8,3:0:0:0:
230,92,89208,1,8,3:0:0:0:
293,29,89493,2,0,B|364:84|364:84|348:181,1,180.000001192092,2|2,3:0|3:0,0:0:0:0:
299,346,90636,6,0,P|186:372|38:189,2,360.000002384184,4|4|4,1:0|3:2|3:2,0:0:0:0:
415,210,93493,2,0,L|399:114,1,90.000000596046,8|0,3:0|0:0,0:0:0:0:
325,67,94065,2,0,P|264:95|188:88,2,135.000000894069,4|8|8,3:2|0:3|3:0,0:0:0:0:
397,13,95208,6,0,P|449:24|505:130,1,180.000001192092,4|2,1:0|3:0,0:0:0:0:
397,273,96351,2,0,B|320:319|320:319|224:296,1,180.000001192092,2|2,3:0|3:0,0:0:0:0:
133,147,97493,2,0,L|36:168,1,90.000000596046,2|8,3:0|3:0,0:0:0:0:
24,254,98065,2,0,L|121:275,1,90.000000596046,2|8,3:0|3:0,0:0:0:0:
146,356,98636,1,2,3:0:0:0:
225,194,99208,1,0,0:0:0:0:
119,48,99779,6,0,P|83:36|14:32,2,90.000000596046,4|8|2,3:2|3:0|3:0,0:0:0:0:
289,106,100922,2,0,P|325:94|394:90,2,90.000000596046,2|8|2,3:0|3:0|3:0,0:0:0:0:
185,253,102065,1,2,3:0:0:0:
324,366,102636,1,2,3:0:0:0:
471,263,103208,2,0,P|460:201|470:126,2,135.000000894069,2|8|8,3:0|3:0|3:0,0:0:0:0:
405,324,104351,6,0,P|348:323|280:277,1,135.000000894069,4|4,1:2|3:2,0:0:0:0:
195,179,105208,2,0,P|138:180|70:226,2,135.000000894069,4|4|4,3:2|3:2|3:2,0:0:0:0:
280,74,106493,2,0,L|426:96,2,135.000000894069,4|4|4,3:2|3:2|3:2,0:0:0:0:
158,14,107779,2,0,L|66:31,2,90.000000596046,4|8|0,3:2|3:0|3:0,0:0:0:0:
256,192,108636,12,0,111779,0:0:0:0:
