osu file format v14

[General]
AudioFilename: audio.mp3
AudioLeadIn: 0
PreviewTime: 75668
Countdown: 0
SampleSet: Soft
StackLeniency: 0.5
Mode: 0
LetterboxInBreaks: 0
WidescreenStoryboard: 1

[Editor]
Bookmarks: 1453,10596,19739,26025,28882,38025,56311,65453,72453,76882,95168,104311
DistanceSpacing: 0.4
BeatDivisor: 4
GridSize: 4
TimelineZoom: 2.4

[Metadata]
Title:chaos eater -IIDX edition-
TitleUnicode:chaos eater -IIDX edition-
Artist:Nekomata Master+
ArtistUnicode:猫叉Master+
Creator:pocket-
Version:ANOTHER
Source:beatmania IIDX 23 copula
Tags:DanceDanceRevolution DDR 2014 GITADORA NEX+AGE NEXTAGE video game instrumental electronic bemani konami 佐藤直之 Naoyuki Sato hard step
BeatmapID:2599165
BeatmapSetID:1248923

[Difficulty]
HPDrainRate:5
CircleSize:4
OverallDifficulty:8
ApproachRate:9
SliderMultiplier:1.8
SliderTickRate:1

[Events]
//Background and Video events
0,0,"dwadawdwada.jpeg",0,0
//Break Periods
//Storyboard Layer 0 (Background)
//Storyboard Layer 1 (Fail)
//Storyboard Layer 2 (Pass)
//Storyboard Layer 3 (Foreground)
//Storyboard Layer 4 (Overlay)
//Storyboard Sound Samples

[TimingPoints]
351,285.714285714286,4,2,1,70,1,0
779,-333.333333333333,4,2,1,70,0,0
1207,-166.666666666667,4,2,1,70,0,0
2636,-166.666666666667,4,2,1,70,0,0
2922,-333.333333333333,4,2,1,70,0,0
5422,-333.333333333333,4,2,1,70,0,0
5493,-166.666666666667,4,2,1,70,0,0
6636,-111.111111111111,4,2,1,70,0,0
7207,-166.666666666667,4,2,1,70,0,0
7493,-333.333333333334,4,2,1,70,0,0
9779,-166.666666666667,4,2,1,70,0,0
9993,-166.666666666667,4,2,1,5,0,0
10065,-83.3333333333333,4,2,1,70,0,0
10279,-83.3333333333333,4,2,1,5,0,0
10350,-111.111111111111,4,2,1,70,0,0
10636,-166.666666666666,4,2,1,70,0,0
11207,-111.111111111111,4,2,1,70,0,0
11422,-111.111111111111,4,2,1,70,0,0
11493,-111.111111111111,4,2,1,70,0,0
12065,-111.111111111111,4,2,1,70,0,0
12279,-111.111111111111,4,2,1,70,0,0
12350,-111.111111111111,4,2,1,70,0,0
12922,-83.3333333333333,4,2,1,70,0,0
13136,-111.111111111111,4,2,1,5,0,0
13207,-166.666666666666,4,2,1,70,0,0
14207,-111.111111111111,4,2,1,70,0,0
14922,-166.666666666667,4,2,1,70,0,0
15065,-111.111111111111,4,2,1,70,0,0
15779,-166.666666666667,4,2,1,70,0,0
16922,-111.111111111111,4,2,1,70,0,0
17493,-83.3333333333333,4,2,1,70,0,0
17707,-83.3333333333333,4,2,1,70,0,0
17779,-111.111111111111,4,2,1,70,0,0
18065,-333.333333333333,4,2,1,70,0,0
18636,-111.111111111111,4,2,1,70,0,0
18922,-166.666666666667,4,2,1,70,0,0
19493,-83.3333333333333,4,2,1,70,0,0
19565,-83.3333333333333,4,2,1,70,0,0
19779,-83.3333333333333,4,2,1,70,0,0
21636,-111.111111111111,4,2,1,70,0,0
22065,-83.3333333333333,4,2,1,70,0,0
22279,-83.3333333333333,4,2,1,5,0,0
22350,-83.3333333333333,4,2,1,70,0,0
22565,-83.3333333333333,4,2,1,5,0,0
22636,-83.3333333333333,4,2,1,70,0,0
22850,-83.3333333333333,4,2,1,5,0,0
22922,-83.3333333333333,4,2,1,70,0,0
23136,-83.3333333333333,4,2,1,5,0,0
23207,-111.111111111111,4,2,1,70,0,0
26136,-111.111111111111,4,2,1,70,0,0
26207,-111.111111111111,4,2,1,70,0,0
26636,-166.666666666666,4,2,1,70,0,0
27208,-166.666666666666,4,2,1,70,0,0
27493,-166.666666666666,4,1,3,70,0,0
27565,-166.666666666666,4,2,1,70,0,0
28529,-166.666666666666,4,2,1,5,0,0
28636,-166.666666666666,4,2,1,70,0,0
28707,-166.666666666666,4,2,1,5,0,0
28922,-333.333333333333,4,2,1,70,0,0
29136,-333.333333333333,4,2,1,5,0,0
29207,-66.6666666666667,4,2,1,70,0,0
29493,-166.666666666667,4,2,1,70,0,0
29707,-166.666666666667,4,2,1,5,0,0
29779,-166.666666666667,4,2,1,70,0,0
30207,-111.111111111111,4,2,1,70,0,0
30493,-83.3333333333334,4,2,1,70,0,0
30636,-166.666666666667,4,2,1,70,0,0
31207,-200,4,2,1,70,0,0
31422,-200,4,2,1,5,0,0
31493,-66.6666666666667,4,2,1,70,0,0
31779,-166.666666666667,4,2,1,70,0,0
31993,-166.666666666667,4,2,1,5,0,0
32065,-166.666666666667,4,2,1,70,0,0
32207,-83.3333333333333,4,2,1,70,0,0
32493,-55.5555555555556,4,2,1,70,0,0
32779,-83.3333333333333,4,2,1,70,0,0
33636,-333.333333333333,4,2,1,70,0,0
33708,-333.333333333333,4,2,1,5,0,0
33779,-66.6666666666667,4,2,1,70,0,0
34065,-111.111111111111,4,2,1,70,0,0
34493,-166.666666666666,4,2,1,70,0,0
34779,-111.111111111111,4,2,1,70,0,0
35065,-83.3333333333333,4,2,1,70,0,0
35779,-222.222222222222,4,2,1,70,0,0
36350,-66.6666666666667,4,2,1,70,0,0
36779,-166.666666666666,4,2,1,70,0,0
37065,-111.111111111111,4,2,1,70,0,0
37493,-111.111111111111,4,2,1,70,0,0
37779,-50,4,2,1,70,0,0
37993,-50,4,2,1,70,0,0
38065,-100,4,2,1,70,0,0
44207,-200,4,2,1,70,0,0
44922,-100,4,2,1,70,0,0
46636,-200,4,2,1,70,0,0
47207,-100,4,2,1,70,0,0
47779,-76.9230769230769,4,2,1,70,0,0
48065,-100,4,2,1,70,0,0
48922,-76.9230769230769,4,2,1,70,0,0
49207,-100,4,2,1,70,0,0
50065,-76.9230769230769,4,2,1,70,0,0
50350,-100,4,2,1,70,0,0
52779,-66.6666666666667,4,2,1,70,0,0
53351,-200,4,2,1,70,0,0
54065,-100,4,2,1,70,0,0
54636,-100,4,1,1,70,0,0
54779,-100,4,2,3,70,0,0
54922,-100,4,2,1,70,0,0
55065,-66.6666666666667,4,2,1,70,0,0
56350,-111.111111111111,4,2,1,70,0,0
56922,-83.3333333333333,4,2,1,70,0,0
57207,-111.111111111111,4,2,1,70,0,0
57779,-83.3333333333333,4,2,1,70,0,0
58065,-166.666666666667,4,2,1,70,0,0
58922,-111.111111111111,4,2,1,70,0,0
59207,-83.3333333333334,4,2,1,70,0,0
59493,-111.111111111111,4,2,1,70,0,0
61493,-83.3333333333333,4,2,1,70,0,0
61779,-111.111111111111,4,2,1,70,0,0
62350,-83.3333333333333,4,2,1,70,0,0
62636,-166.666666666666,4,2,1,70,0,0
63207,-111.111111111111,4,2,1,70,0,0
63779,-83.3333333333333,4,2,1,70,0,0
64065,-111.111111111111,4,2,1,70,0,0
64207,-166.666666666667,4,2,1,70,0,0
64922,-111.111111111111,4,2,1,70,0,0
65493,-250,4,2,1,70,0,0
66350,-125,4,2,1,70,0,0
67779,-166.666666666667,4,2,1,70,0,0
68636,-83.3333333333333,4,2,1,70,0,0
72493,-100,4,2,1,70,0,0
72636,-76.9230769230769,4,2,1,70,0,0
72850,-76.9230769230769,4,2,1,70,0,0
72922,-100,4,2,1,70,0,0
73065,-76.9230769230769,4,2,1,70,0,0
73279,-76.9230769230769,4,2,1,70,0,0
73350,-100,4,2,1,70,0,0
73493,-76.9230769230769,4,2,1,70,0,0
73707,-76.9230769230769,4,2,1,70,0,0
73779,-100,4,2,1,70,0,0
73922,-76.9230769230769,4,2,1,85,0,0
74207,-100,4,2,1,85,0,0
74350,-100,4,2,1,85,0,0
76279,-100,4,2,1,5,0,0
76350,-133.333333333333,4,2,1,40,0,0
76636,-333.333333333333,4,2,1,100,0,0
76922,-66.6666666666667,4,2,1,85,0,1
77207,-55.5555555555556,4,2,1,85,0,1
77565,-100,4,2,1,85,0,1
77922,-66.6666666666667,4,2,1,85,0,1
78779,-100,4,2,1,85,0,1
78850,-100,4,2,1,5,0,1
78922,-66.6666666666667,4,2,1,85,0,1
79065,-80,4,2,1,85,0,1
80850,-80,4,2,1,85,0,1
80922,-80,4,2,1,85,0,1
81493,-66.6666666666667,4,2,1,85,0,1
81779,-55.5555555555556,4,2,1,85,0,1
82136,-100,4,2,1,85,0,1
83350,-100,4,2,1,85,0,1
83422,-100,4,2,1,5,0,1
83493,-66.6666666666667,4,2,1,85,0,1
83636,-100,4,2,1,85,0,1
84065,-80,4,2,1,85,0,1
84779,-66.6666666666667,4,2,1,85,0,1
85207,-55.5555555555556,4,2,1,85,0,1
85636,-47.6190476190476,4,2,1,85,0,1
86065,-66.6666666666667,4,2,1,85,0,1
86350,-55.5555555555556,4,2,1,85,0,1
86707,-100,4,2,1,85,0,1
87922,-100,4,2,1,85,0,1
87993,-100,4,2,1,5,0,1
88065,-66.6666666666667,4,2,1,85,0,1
88207,-100,4,2,1,85,0,1
88636,-80,4,2,1,85,0,1
89993,-80,4,2,1,85,0,1
90065,-80,4,2,1,85,0,1
90636,-66.6666666666667,4,2,1,85,0,1
90922,-55.5555555555556,4,2,1,85,0,1
91279,-100,4,2,1,85,0,1
91779,-66.6666666666667,4,2,1,85,0,1
91993,-66.6666666666667,4,2,1,85,0,1
92065,-250,4,2,1,85,0,1
92279,-250,4,2,1,85,0,1
92350,-250,4,2,1,85,0,1
92422,-250,4,2,1,5,0,1
92493,-250,4,2,1,85,0,1
92922,-80,4,2,1,85,0,1
93708,-80,4,2,1,5,0,1
93922,-66.6666666666667,4,2,1,85,0,1
93993,-66.6666666666667,4,2,1,5,0,1
94065,-66.6666666666667,4,2,1,85,0,1
94136,-66.6666666666667,4,2,1,5,0,1
94350,-57.1428571428571,4,2,1,85,0,1
94422,-57.1428571428571,4,2,1,5,0,1
94493,-57.1428571428571,4,2,1,85,0,1
94565,-57.1428571428571,4,2,1,5,0,1
94636,-57.1428571428571,4,2,1,85,0,1
95172,-80,4,2,1,85,0,0
95208,-80,4,2,1,85,0,1
97208,-133.333333333333,4,2,1,85,0,1
97779,-80,4,2,1,85,0,1
98279,-80,4,2,1,5,0,1
98350,-57.1428571428571,4,2,1,85,0,1
98565,-57.1428571428571,4,2,1,5,0,1
98636,-100,4,2,1,85,0,1
98922,-80,4,2,1,85,0,1
99279,-80,4,2,1,5,0,1
99351,-80,4,2,1,85,0,1
99493,-57.1428571428571,4,2,1,85,0,1
99779,-80,4,2,1,85,0,1
99993,-80,4,2,1,85,0,1
100065,-80,4,2,1,85,0,1
100922,-100,4,2,1,85,0,1
101207,-133.333333333333,4,2,1,85,0,1
101493,-200,4,2,1,85,0,1
102065,-100,4,2,1,85,0,1
102636,-80,4,2,1,85,0,1
103207,-66.6666666666667,4,2,1,85,0,1
103779,-57.1428571428571,4,2,1,85,0,1
104065,-50,4,2,1,85,0,1
104279,-66.6666666666667,4,2,1,85,0,0
104351,-333.333333333333,4,2,1,90,0,1
104779,-200,4,2,1,90,0,1
105208,-142.857142857143,4,2,1,90,0,1
105636,-111.111111111111,4,2,1,90,0,1
106065,-90.9090909090909,4,2,1,90,0,1
106279,-90.9090909090909,4,2,1,90,0,0
106493,-76.9230769230769,4,2,1,90,0,1
106708,-76.9230769230769,4,2,1,90,0,0
106922,-66.6666666666667,4,2,1,90,0,1
107136,-66.6666666666667,4,2,1,90,0,0
107351,-58.8235294117647,4,2,1,90,0,1
107565,-58.8235294117647,4,2,1,90,0,0
107779,-76.9230769230769,4,2,1,90,0,1
107993,-76.9230769230769,4,2,1,90,0,0
108065,-111.111111111111,4,2,1,90,0,1
108279,-111.111111111111,4,2,1,90,0,0
108351,-333.333333333333,4,2,1,90,0,0
108636,-333.333333333333,4,2,1,90,0,0
108922,-333.333333333333,4,2,1,60,0,0
109779,-333.333333333333,4,2,1,45,0,0
110922,-333.333333333333,4,2,1,35,0,0
111779,-333.333333333333,4,2,1,30,0,0

[Colours]
Combo1 : 190,114,231
Combo2 : 135,169,209
Combo3 : 133,133,211
Combo4 : 160,123,221

[HitObjects]
88,86,779,6,0,L|84:111,2,13.4999995880127,0|0|8,0:0|0:0|0:1,0:0:0:0:
170,63,1208,6,0,L|162:107,1,26.9999991760254,4|0,0:0|0:0,0:0:0:0:
165,89,1351,1,8,0:1:0:0:
256,192,1493,6,0,L|200:200,3,53.9999983520508,4|0|0|0,1:2|0:0|0:0|0:0,0:0:0:0:
149,260,2065,2,0,P|108:262|69:208,1,107.999996704102,8|0,0:1|0:0,0:0:0:0:
69,213,2493,1,8,0:1:0:0:
240,272,2636,6,0,L|231:325,1,53.9999983520508,2|0,0:3|0:0,0:0:0:0:
319,261,2922,2,0,L|314:287,1,26.9999991760254,0|0,3:0|0:0,0:0:0:0:
441,375,3208,2,0,L|499:365,1,53.9999983520508,8|0,0:1|0:0,0:0:0:0:
402,251,3636,1,0,3:0:0:0:
402,251,3779,6,0,L|397:277,3,26.9999991760254,0|0|0|0,3:0|0:0|0:0|0:0,0:0:0:0:
512,209,4351,2,0,L|502:150,1,53.9999983520508,8|0,0:1|0:0,0:0:0:0:
489,78,4779,2,0,L|484:48,1,26.9999991760254,8|2,0:1|0:3,0:0:0:0:
426,179,5208,6,0,L|385:172,1,40.4999987640381,0|0,3:0|0:0,0:0:0:0:
386,172,5493,1,8,0:1:0:0:
341,64,5779,6,0,L|348:108,1,26.9999991760254,4|0,0:0|0:0,0:0:0:0:
345,90,5922,1,0,3:0:0:0:
256,192,6065,6,0,L|311:200,3,53.9999983520508,4|0|0|0,1:2|0:0|0:0|0:0,0:0:0:0:
166,62,6636,2,0,L|85:50,2,80.9999975280763,8|0|0,0:1|0:0|0:0,0:0:0:0:
211,127,7065,1,8,0:1:0:0:
138,225,7208,6,0,L|146:172,1,53.9999983520508,2|0,0:3|0:0,0:0:0:0:
279,55,7493,2,0,L|276:82,1,26.9999991760254,0|0,3:0|0:0,0:0:0:0:
340,173,7779,2,0,L|402:163,1,53.9999983520508,8|0,0:1|0:0,0:0:0:0:
393,165,8208,1,0,3:0:0:0:
474,154,8351,6,0,L|505:149,3,26.9999991760254,0|0|0|0,3:0|0:0|0:0|0:0,0:0:0:0:
371,251,8922,2,0,L|361:311,1,53.9999983520508,8|0,0:1|0:0,0:0:0:0:
441,305,9351,2,0,L|445:274,1,26.9999991760254,8|2,0:1|0:3,0:0:0:0:
293,355,9779,6,0,P|255:356|218:321,1,80.9999975280763,0|0,3:0|0:0,0:0:0:0:
148,260,10065,6,0,P|68:261|34:334,1,161.999995056153,8|0,0:1|0:0,0:0:0:0:
99,365,10351,6,0,P|109:348|110:328,3,40.4999987640381,8|8|8|8,0:1|0:1|0:1|0:1,0:0:0:0:
0,183,10636,6,0,L|7:126,2,53.9999983520508,14|0|0,0:1|0:0|0:0,0:0:0:0:
47,247,11065,1,0,0:0:0:0:
206,129,11208,6,0,L|85:143,1,121.499996292114,10|0,0:1|0:0,0:0:0:0:
85,143,11493,1,0,0:1:0:0:
150,58,11636,6,0,L|65:68,2,80.9999975280763,10|0|0,0:1|0:0|0:0,0:0:0:0:
371,54,12065,6,0,B|426:61|426:61|351:67,1,121.499996292114
287,107,12351,1,8,0:1:0:0:
228,47,12493,2,0,B|238:26|238:26|320:16,2,80.9999975280763
287,107,12922,6,0,B|305:119|305:119|293:176|293:176|288:179|288:179|276:235|276:235|296:253,1,161.999995056153
290,247,13208,2,0,B|297:243|297:243|303:216|303:216|281:193,1,53.9999983520508
242,329,13493,1,8,0:1:0:0:
242,329,13636,1,0,0:0:0:0:
381,270,13779,2,0,B|388:266|388:266|394:239|394:239|372:216,1,53.9999983520508,0|8,0:0|0:1,0:0:0:0:
333,352,14065,1,2,0:3:0:0:
333,352,14208,6,0,P|352:355|370:365,2,40.4999987640381
381,225,14493,2,0,P|368:240|350:250,2,40.4999987640381,0|0|8,0:0|0:0|0:1,0:0:0:0:
466,330,14779,2,0,P|458:311|459:291,1,40.4999987640381
505,222,14922,6,0,L|509:191,2,26.9999991760254,4|0|0,0:0|0:0|0:0,0:0:0:0:
404,50,15208,6,0,P|402:94|428:129,1,80.9999975280763,4|0,3:2|0:0,0:0:0:0:
482,30,15493,2,0,P|502:64|499:103,1,80.9999975280763,8|8,0:0|0:0,0:0:0:0:
421,123,15779,6,0,P|371:91|310:98,1,107.999996704102,10|8,0:1|0:0,0:0:0:0:
249,129,16208,6,0,L|242:71,1,53.9999983520508,10|2,0:1|0:3,0:0:0:0:
28,18,16636,2,0,L|21:76,1,53.9999983520508,8|8,0:0|0:0,0:0:0:0:
89,111,16922,2,0,L|169:101,3,80.9999975280763,8|0|8|0,0:1|0:0|0:0|0:0,0:0:0:0:
131,29,17493,6,0,B|121:41|121:41|106:163|106:163|118:188,1,161.999995056153,2|0,3:2|0:0,0:0:0:0:
116,184,17779,2,0,B|52:192|52:192|31:206,1,80.9999975280763,8|8,0:0|0:0,0:0:0:0:
8,344,18065,2,0,L|0:384,1,40.4999987640381,8|0,0:1|0:0,0:0:0:0:
21,371,18351,2,0,L|34:355,3,13.4999995880127,8|0|0|0,0:0|0:0|0:0|0:0,0:0:0:0:
78,269,18636,2,0,L|128:259,3,40.4999987640381,2|0|0|0,0:3|0:0|0:0|0:0,0:0:0:0:
192,215,18922,2,0,L|237:240,3,26.9999991760254,10|0|8|0,0:0|0:0|0:0|0:0,0:0:0:0:
291,215,19208,6,0,L|318:286,1,53.9999983520508,10|0,0:0|3:0,0:0:0:0:
446,360,19493,6,0,L|498:370,1,53.9999983520508,8|0,0:3|0:0,0:0:0:0:
366,372,19779,6,0,B|353:301|426:261|388:310|492:270|442:166,1,215.999993408203,4|0,1:0|0:0,0:0:0:0:
452,193,20208,1,0,0:0:0:0:
347,81,20351,2,0,P|412:159|510:130,1,215.999993408203,8|0,0:3|0:0,0:0:0:0:
499,38,20779,2,0,P|456:6|403:9,1,107.999996704102,0|2,0:0|0:3,0:0:0:0:
434,82,21208,5,0,3:0:0:0:
379,251,21493,1,8,0:3:0:0:
265,167,21636,2,0,L|345:177,2,80.9999975280763
34,99,22065,6,0,B|88:115|124:68|93:80|133:26|193:57,1,161.999995056153,2|0,3:0|0:0,0:0:0:0:
174,45,22351,2,0,B|175:101|231:121|210:95|274:116|263:183,1,161.999995056153
268,161,22636,2,0,B|214:179|213:238|231:211|230:278|164:288,1,161.999995056153,8|0,0:3|0:0,0:0:0:0:
186,286,22922,2,0,B|151:241|94:258|127:266|62:286|32:226,1,161.999995056153
46,237,23208,1,2,0:3:0:0:
34,99,23351,6,0,L|28:53,2,40.4999987640381,0|0|0,0:0|0:0|3:0,0:0:0:0:
132,135,23636,2,0,L|95:163,2,40.4999987640381,0|0|8,0:0|0:0|0:3,0:0:0:0:
115,33,23922,2,0,L|157:50,1,40.4999987640381
226,16,24065,2,0,L|238:116,1,80.9999975280763
415,99,24351,6,0,P|368:161|291:157,1,161.999995056153,2|0,1:3|0:0,0:0:0:0:
332,83,24779,1,0,0:0:0:0:
226,16,24922,1,8,0:3:0:0:
485,53,25208,1,0,0:0:0:0:
485,53,25351,1,0,0:0:0:0:
415,99,25493,5,2,0:3:0:0:
386,199,25779,1,0,3:0:0:0:
430,333,26065,2,0,L|477:324,1,40.4999987640381,8|0,0:3|0:0,0:0:0:0:
512,259,26208,1,0,0:0:0:0:
391,202,26351,1,0,0:0:0:0:
300,238,26493,1,0,0:0:0:0:
278,312,26636,6,0,L|291:382,1,53.9999983520508,2|0,3:0|0:0,0:0:0:0:
94,334,26922,2,0,L|23:347,1,53.9999983520508
72,150,27208,2,0,L|58:79,1,53.9999983520508,8|0,0:3|0:0,0:0:0:0:
256,128,27493,2,0,L|326:114,1,53.9999983520508,0|0,3:0|0:0,0:0:0:0:
203,301,27779,5,4,0:0:0:0:
104,259,28065,1,4,0:0:0:0:
146,160,28351,1,4,0:0:0:0:
245,202,28493,1,0,3:0:0:0:
175,231,28636,5,8,0:3:0:0:
233,59,28922,6,0,L|278:50,1,40.4999987640381,4|0,1:0|0:0,0:0:0:0:
329,0,29208,2,0,P|376:38|358:137,1,135.000005149842,8|0,3:0|0:0,0:0:0:0:
461,202,29493,2,0,P|490:199|517:176,1,53.9999983520508,0|0,0:0|3:0,0:0:0:0:
461,125,29779,1,8,3:0:0:0:
512,330,29922,6,0,L|502:400,1,53.9999983520508,0|2,0:0|3:0,0:0:0:0:
436,293,30208,2,0,L|422:384,1,80.9999975280763,0|8,0:0|3:0,0:0:0:0:
360,256,30493,1,0,0:0:0:0:
223,323,30636,5,0,0:0:0:0:
256,333,30708,1,0,0:0:0:0:
288,323,30779,1,0,3:0:0:0:
256,192,30922,2,0,L|256:264,1,53.9999983520508,8|0,3:0|0:0,0:0:0:0:
333,128,31208,6,0,P|342:110|341:81,1,45,2|0,3:0|0:0,0:0:0:0:
202,16,31493,2,0,P|164:67|185:148,1,135.000005149842,8|0,3:0|0:0,0:0:0:0:
110,180,31779,2,0,L|36:166,2,53.9999983520508,0|0|8,0:0|3:0|3:0,0:0:0:0:
0,330,32208,5,0,0:0:0:0:
0,330,32279,2,0,L|10:400,1,53.9999983520508,0|2,0:0|3:0,0:0:0:0:
76,293,32493,1,0,0:0:0:0:
76,293,32565,2,0,L|89:384,1,80.9999975280763,0|8,0:0|3:0,0:0:0:0:
152,256,32779,1,0,0:0:0:0:
152,256,32851,2,0,L|162:327,1,53.9999983520508
173,384,33065,1,0,3:0:0:0:
256,246,33208,1,8,3:0:0:0:
256,232,33279,1,0,0:0:0:0:
256,219,33351,1,0,0:0:0:0:
256,205,33422,1,0,0:0:0:0:
256,192,33493,6,0,P|309:200|355:159,1,107.999996704102,4|0,3:2|0:0,0:0:0:0:
304,8,33779,2,0,L|437:24,1,135.000005149842,8|0,3:0|0:0,0:0:0:0:
402,97,34065,2,0,L|321:87,1,80.9999975280763,0|0,0:0|3:0,0:0:0:0:
462,158,34351,1,8,3:0:0:0:
512,330,34493,6,0,L|502:400,1,53.9999983520508,0|2,0:0|3:0,0:0:0:0:
436,293,34779,2,0,L|422:384,1,80.9999975280763,0|8,0:0|3:0,0:0:0:0:
360,256,35065,1,0,0:0:0:0:
209,330,35208,6,0,P|256:353|313:309,1,107.999996704102,0|0,0:0|3:0,0:0:0:0:
280,187,35493,1,8,0:3:0:0:
268,180,35564,1,0,0:0:0:0:
254,178,35635,1,0,0:0:0:0:
241,179,35707,1,0,0:0:0:0:
229,184,35779,6,0,L|237:135,1,40.4999987640381,2|0,3:0|0:0,0:0:0:0:
86,0,36065,1,8,3:0:0:0:
128,81,36208,1,0,0:0:0:0:
0,141,36351,2,0,P|59:139|125:184,1,135.000005149842,0|0,0:0|3:0,0:0:0:0:
121,178,36636,1,8,3:0:0:0:
0,330,36779,6,0,L|10:400,1,53.9999983520508,0|2,0:0|3:0,0:0:0:0:
76,293,37065,2,0,L|90:384,1,80.9999975280763,0|8,0:0|3:0,0:0:0:0:
152,256,37351,1,0,0:0:0:0:
256,384,37493,6,0,L|256:304,1,80.9999975280763,0|0,0:0|3:0,0:0:0:0:
259,134,37779,6,0,P|256:222|254:134,1,270,8|0,3:0|0:0,0:0:0:0:
325,66,38065,6,0,P|331:126|387:246,1,180,4|8,1:0|3:0,0:0:0:0:
438,180,38493,1,0,0:0:0:0:
480,52,38636,2,0,P|437:47|386:12,2,90,0|0|8,0:0|3:0|3:0,0:0:0:0:
378,234,39065,1,0,0:0:0:0:
378,234,39208,6,0,P|322:209|190:197,1,180,2|8,3:0|3:0,0:0:0:0:
222,275,39636,1,0,0:0:0:0:
312,375,39779,2,0,P|338:340|393:314,2,90,0|0|8,0:0|3:0|3:0,0:0:0:0:
204,196,40208,1,0,0:0:0:0:
204,196,40351,6,0,P|252:161|329:52,1,180,2|8,3:0|3:0,0:0:0:0:
246,40,40779,1,0,0:0:0:0:
114,67,40922,2,0,P|131:107|126:168,1,90,0|0,0:0|3:0,0:0:0:0:
37,84,41208,2,0,P|36:128|54:169,1,90,8|0,3:0|0:0,0:0:0:0:
26,376,41493,5,2,3:0:0:0:
6,298,41779,1,8,3:0:0:0:
84,318,42065,1,0,0:0:0:0:
39,331,42208,5,0,3:0:0:0:
147,366,42351,1,8,3:0:0:0:
256,192,42636,5,4,1:2:0:0:
323,149,42779,2,0,P|334:172|331:201,1,45
294,261,42922,2,0,P|269:271|241:266,1,45,8|0,3:0|0:0,0:0:0:0:
214,343,43065,2,0,P|192:339|172:329,2,45,0|0|2,0:0|0:0|3:0,0:0:0:0:
217,122,43351,6,0,P|242:112|270:117,1,45,0|0,3:0|0:0,0:0:0:0:
312,46,43493,2,0,P|334:51|353:64,2,45,8|0|0,3:0|0:0|0:0,0:0:0:0:
118,108,43779,6,0,P|108:128|104:150,1,45,0|0,3:0|0:0,0:0:0:0:
177,193,43922,2,0,P|178:215|189:235,1,45
256,192,44065,1,8,3:0:0:0:
234,383,44208,6,0,L|279:383,3,45,0|0|0|8,0:1|0:0|0:1|3:0,0:0:0:0:
256,192,44922,5,2,3:0:0:0:
189,235,45065,2,0,P|177:211|181:183,1,45
217,122,45208,2,0,P|242:112|270:117,1,45,8|0,3:0|0:0,0:0:0:0:
312,46,45351,2,0,P|334:51|353:64,2,45
294,261,45636,6,0,P|269:271|241:266,1,45,0|0,3:0|0:0,0:0:0:0:
199,337,45779,2,0,P|177:332|158:319,2,45,8|0|0,3:0|0:0|0:0,0:0:0:0:
399,129,46065,6,0,P|410:148|414:170,2,45,0|0|0,0:0|0:0|3:0,0:0:0:0:
112,254,46351,2,0,P|101:235|97:213,1,45,8|0,3:0|0:0,0:0:0:0:
256,192,46493,1,8,3:0:0:0:
216,122,46636,6,0,P|237:112|259:113,1,45,0|0,0:0|3:0,0:0:0:0:
251,270,46922,2,0,P|273:270|294:261,1,45,8|0,3:0|0:0,0:0:0:0:
88,80,47208,6,0,P|163:75|271:123,1,180,4|8,1:0|3:0,0:0:0:0:
227,7,47636,1,0,0:0:0:0:
332,85,47779,2,0,P|348:123|285:180,2,116.999994644165,0|0|8,0:0|3:0|3:0,0:0:0:0:
144,244,48208,1,0,0:0:0:0:
144,244,48351,6,0,P|102:180|89:63,1,180,2|8,3:0|3:0,0:0:0:0:
11,159,48779,1,8,3:0:0:0:
26,30,48922,2,0,P|50:-4|131:22,2,116.999994644165,0|0|8,0:0|3:0|3:0,0:0:0:0:
258,112,49351,1,0,0:0:0:0:
258,112,49493,6,0,P|224:180|128:249,1,180,2|8,3:0|3:0,0:0:0:0:
250,269,49922,1,8,3:0:0:0:
135,325,50065,2,0,P|93:320|75:237,1,116.999994644165,0|0,0:0|3:0,0:0:0:0:
116,163,50351,2,0,P|141:195|137:259,1,90,8|0,3:0|0:0,0:0:0:0:
486,376,50636,5,2,3:0:0:0:
506,298,50922,5,8,3:0:0:0:
428,318,51065,1,8,3:0:0:0:
473,331,51351,5,0,3:0:0:0:
365,366,51493,1,8,3:0:0:0:
256,192,51779,5,4,1:2:0:0:
254,114,51922,2,0,P|276:114|296:124,1,45
303,253,52065,2,0,P|285:266|263:270,1,45,8|0,3:0|0:0,0:0:0:0:
181,169,52208,2,0,P|188:148|204:132,1,45
352,69,52351,6,0,P|371:80|385:98,2,45,0|0|0,0:0|0:0|3:0,0:0:0:0:
159,314,52636,2,0,P|140:303|126:285,1,45,8|0,3:0|0:0,0:0:0:0:
23,149,52779,6,2,P|20:216|43:279,1,135.000005149842,0|0,0:0|3:0,0:1:0:0:
486,235,53065,2,2,P|489:168|466:106,1,135.000005149842,0|8,0:0|3:0,0:1:0:0:
279,383,53351,6,0,L|224:383,3,45,0|0|0|8,0:0|0:0|3:0|3:0,0:0:0:0:
256,192,54065,5,2,3:0:0:0:
296,124,54208,2,0,P|276:113|253:113,1,45
225,32,54351,6,2,P|183:46|150:76,1,90,8|0,3:0|0:0,0:1:0:0:
285,350,54636,2,2,P|327:336|361:307,2,90,0|0|8,2:0|3:0|3:0,0:0:0:0:
492,178,55065,6,2,P|486:245|454:304,1,135.000005149842,2|0,3:0|0:0,0:1:0:0:
57,78,55351,2,2,P|25:137|19:204,1,135.000005149842,0|8,3:0|3:0,0:1:0:0:
322,147,55636,5,0,0:0:0:0:
189,236,55779,1,2,3:0:0:0:
300,258,55922,1,8,3:0:0:0:
211,125,56065,1,0,3:0:0:0:
256,192,56351,5,4,1:0:0:0:
33,305,56636,6,0,P|21:339|19:396,1,80.9999975280763,2|0,3:0|0:0,0:0:0:0:
112,271,56922,1,8,3:0:0:0:
142,372,57065,1,0,0:0:0:0:
190,249,57208,2,0,P|213:276|261:306,1,80.9999975280763
258,177,57493,2,0,P|284:200|314:249,1,80.9999975280763
390,154,57779,1,0,3:0:0:0:
385,259,57922,1,0,0:0:0:0:
492,258,58065,2,0,P|467:295|446:306,3,53.9999983520508,8|0|0|0,3:0|0:0|0:0|0:0,0:0:0:0:
512,384,58636,5,0,3:0:0:0:
385,259,58922,6,0,P|346:240|289:237,1,80.9999975280763,2|0,3:0|0:0,0:0:0:0:
370,141,59208,1,8,3:0:0:0:
267,160,59351,1,0,0:0:0:0:
275,55,59493,2,0,P|230:74|203:107,1,80.9999975280763,2|0,3:0|0:0,0:0:0:0:
51,323,59779,6,0,L|138:306,1,80.9999975280763,2|0,0:2|0:0,0:0:0:0:
82,76,60065,2,0,L|2:91,1,80.9999975280763,2|0,3:2|0:0,0:0:0:0:
35,246,60351,6,0,L|114:230,1,80.9999975280763,8|0,3:0|3:0,0:0:0:0:
98,153,60636,2,0,L|18:168,1,80.9999975280763,2|0,0:0|0:0,0:0:0:0:
0,384,60922,5,4,3:2:0:0:
194,251,61208,6,0,P|209:288|215:328,1,80.9999975280763,2|0,3:0|0:0,0:0:0:0:
301,117,61493,1,8,3:0:0:0:
275,221,61636,1,0,0:0:0:0:
452,76,61779,2,0,P|420:99|373:112,1,80.9999975280763,2|0,3:0|0:0,0:0:0:0:
412,0,62065,2,0,P|373:11|340:35,1,80.9999975280763
510,138,62351,1,2,3:0:0:0:
484,241,62493,1,0,0:0:0:0:
452,76,62636,1,8,3:0:0:0:
380,111,62779,2,0,P|387:139|408:166,2,53.9999983520508,0|0|0,3:0|0:0|0:0,0:0:0:0:
512,0,63208,5,0,3:0:0:0:
331,208,63493,6,0,P|285:189|233:188,1,80.9999975280763,2|0,3:0|0:0,0:0:0:0:
300,78,63779,1,8,3:0:0:0:
202,116,63922,1,0,0:0:0:0:
168,12,64065,2,0,P|140:41|126:79,1,80.9999975280763,2|0,3:0|0:0,0:0:0:0:
16,177,64351,6,0,L|8:220,3,26.9999991760254
29,98,64636,2,0,L|37:55,3,26.9999991760254,2|0|0|0,3:0|0:0|0:0|0:0,0:0:0:0:
38,210,64922,2,0,L|51:299,1,80.9999975280763,0|0,0:0|3:0,0:0:0:0:
0,0,65208,5,8,3:0:0:0:
34,72,65493,6,0,P|72:76|94:101,1,72,4|0,1:0|0:0,0:0:0:0:
143,13,65922,2,0,P|169:40|170:73,1,72,0|0,3:0|0:0,0:0:0:0:
266,45,66351,6,0,P|263:86|232:108,1,72,4|0,3:2|0:0,0:0:0:0:
358,376,66636,5,0,0:0:0:0:
341,242,66779,1,0,0:0:0:0:
301,314,66922,1,0,0:0:0:0:
421,257,67065,1,0,0:0:0:0:
432,340,67208,1,0,0:0:0:0:
358,376,67351,5,0,3:0:0:0:
256,192,67493,1,8,3:0:0:0:
494,83,67779,6,0,P|478:133|435:165,1,107.999996704102,4|0,1:2|0:0,0:0:0:0:
383,0,68208,2,0,P|403:49|391:100,1,107.999996704102,2|0,3:2|0:0,0:0:0:0:
243,6,68636,6,0,P|290:30|314:77,1,107.999996704102,4|0,3:2|0:0,0:0:0:0:
196,248,68922,5,0,0:0:0:0:
237,113,69065,1,0,0:0:0:0:
332,216,69208,1,0,0:0:0:0:
255,192,69351,1,8,3:0:0:0:
201,359,69493,5,0,0:0:0:0:
311,359,69636,1,0,3:0:0:0:
255,192,69779,1,8,3:0:0:0:
376,29,70065,6,0,P|429:38|478:63,2,107.999996704102,4|0|0,1:0|0:0|0:0,0:0:0:0:
456,141,70493,2,0,P|403:131|354:107,2,107.999996704102,0|0|0,3:0|0:0|0:0,0:0:0:0:
262,22,70922,6,0,L|277:148,1,107.999996704102,4|0,3:2|0:0,0:0:0:0:
181,31,71208,1,0,0:0:0:0:
181,31,71351,2,0,L|194:139,2,107.999996704102,0|0|0,3:0|0:0|0:0,0:0:0:0:
62,222,71779,6,0,L|205:252,2,107.999996704102,2|0|0,3:2|0:0|0:0,0:0:0:0:
100,39,72208,2,0,L|112:146,1,107.999996704102,0|0,3:0|0:0,0:0:0:0:
199,366,72493,6,0,L|210:308,1,45,8|0,3:0|0:0,0:0:0:0:
391,271,72636,2,0,B|394:300|417:316|417:316|366:371|321:350|300:314,1,175.499991966248,4|0,3:2|0:0,0:0:0:0:
313,331,72922,2,0,L|302:273,1,45,8|0,3:0|0:0,0:0:0:0:
115,232,73065,6,0,B|112:261|88:277|88:277|139:332|184:311|205:275,1,175.499991966248,4|0,3:2|0:0,0:0:0:0:
193,292,73351,2,0,L|204:234,1,45,8|0,3:0|0:0,0:0:0:0:
409,146,73493,6,0,B|412:175|435:191|435:191|384:246|339:225|318:189,1,175.499991966248,4|0,3:2|0:0,0:0:0:0:
331,206,73779,2,0,L|320:148,1,45,8|0,3:0|0:0,0:0:0:0:
333,31,73922,6,0,P|409:9|467:153,1,233.999989288331,4|8,3:2|3:0,0:0:0:0:
478,339,74351,6,0,B|486:372|486:372|528:293|459:246|459:246|464:240|464:240|456:241|456:241|441:236|441:236|438:278|389:292|389:292|394:280|394:280|345:245|362:172|405:146|453:155|453:155|447:149|447:149|474:146|474:146|444:104|370:113|366:145|366:145|331:211|241:223|175:171|218:76|288:108|288:108|290:117|290:117|292:110|292:110|363:143|450:102|446:-1|343:-18|325:50,1,1215,4|0,1:0|0:0,0:0:0:0:
338,108,76351,6,0,P|354:107|370:100,1,33.7500012874604,0|0,3:0|3:0,0:0:0:0:
175,53,76493,2,0,P|159:51|144:44,1,33.7500012874604,0|0,3:0|3:0,0:0:0:0:
256,0,76636,5,8,1:3:0:0:
100,287,76922,6,0,B|113:300|113:300|92:341|42:358|-14:317,1,135.000005149842,4|0,1:0|0:0,0:0:0:0:
244,252,77208,6,0,B|259:236|259:236|234:190|177:170|113:217,1,161.999995056153,8|0,3:0|0:0,0:0:0:0:
382,300,77493,6,0,B|392:312|392:312|378:330|350:338|325:324,1,80.9999975280763
244,252,77636,6,0,L|251:301,3,30,0|0|0|8,0:0|0:0|0:0|3:0,0:0:0:0:
258,377,77922,1,0,0:0:0:0:
322,118,78208,5,0,0:0:0:0:
421,193,78351,1,8,3:0:0:0:
410,103,78493,1,0,0:0:0:0:
335,203,78636,1,0,0:0:0:0:
335,203,78779,6,0,L|339:247,1,45
480,374,78922,2,0,L|492:264,1,67.5000025749207,8|0,3:0|0:0,0:0:0:0:
413,273,79065,2,0,L|400:384,2,112.5,0|2|0,0:0|3:0|0:0,0:0:0:0:
388,117,79493,6,0,P|441:127|485:87,1,112.5,8|0,3:0|0:0,0:0:0:0:
388,117,79779,6,0,P|420:112|437:93,2,56.25
452,0,80065,1,8,3:0:0:0:
388,117,80208,6,0,P|409:92|410:67,1,56.25
333,58,80351,1,2,3:0:0:0:
248,90,80493,1,0,0:0:0:0:
229,226,80636,1,8,3:0:0:0:
229,226,80779,2,0,L|217:116,1,56.25,8|0,3:0|0:0,0:0:0:0:
169,30,80922,5,2,3:0:0:0:
169,30,81065,2,0,L|157:140,1,56.25,0|0,3:0|0:0,0:0:0:0:
111,146,81208,2,0,P|59:156|12:104,1,112.5,8|0,3:0|0:0,0:0:0:0:
169,30,81493,6,0,B|189:57|189:57|65:29,1,135.000005149842,4|0,1:0|0:0,0:0:0:0:
321,144,81779,6,0,B|351:103|351:103|170:143,1,161.999995056153,8|0,3:0|0:0,0:0:0:0:
457,46,82065,6,0,B|472:66|472:66|381:46,1,80.9999975280763
348,15,82208,2,0,L|296:27,3,30,0|0|0|8,0:0|0:0|0:0|3:0,0:0:0:0:
507,134,82493,1,0,0:0:0:0:
471,304,82779,5,0,0:0:0:0:
403,193,82922,1,8,3:0:0:0:
491,213,83065,1,0,0:0:0:0:
395,282,83208,1,0,0:0:0:0:
395,282,83351,6,0,L|351:278,1,45
298,365,83493,2,0,L|261:308,1,67.5000025749208,8|0,3:0|0:0,0:0:0:0:
167,328,83636,2,0,L|180:229,2,90,0|2|0,0:0|3:0|0:0,0:0:0:0:
99,190,84065,6,0,P|61:232|-8:224,1,112.5,8|0,3:0|0:0,0:0:0:0:
99,190,84351,6,0,P|72:189|44:158,2,56.25
103,113,84636,1,8,3:0:0:0:
228,203,84779,6,0,P|200:223|159:217,2,67.5000025749208,0|0|2,0:0|0:0|3:0,0:0:0:0:
177,97,85065,1,0,0:0:0:0:
343,165,85208,6,0,P|337:199|272:220,1,80.9999975280763,8|0,3:0|0:0,0:0:0:0:
224,37,85351,1,8,3:0:0:0:
224,37,85636,6,0,L|322:50,1,94.499997116089,0|0,3:0|0:0,0:0:0:0:
512,72,85779,1,8,3:0:0:0:
432,55,86065,6,0,B|398:62|393:103|393:103|416:146|468:121,1,135.000005149842,4|0,1:0|0:0,0:0:0:0:
300,223,86351,6,0,B|257:218|252:172|252:172|278:123|336:155,1,161.999995056153,8|0,3:0|0:0,0:0:0:0:
126,24,86636,6,0,B|110:48|112:65|112:65|123:85|144:96,1,80.9999975280763
201,44,86779,2,0,L|234:49,3,30,0|0|0|8,0:0|0:0|0:0|3:0,0:0:0:0:
38,21,87065,1,0,0:0:0:0:
18,234,87351,5,0,0:0:0:0:
78,138,87493,1,8,3:0:0:0:
1,152,87636,1,0,0:0:0:0:
101,223,87779,1,0,0:0:0:0:
101,223,87922,6,0,L|168:216,1,45
207,384,88065,2,0,L|119:376,1,67.5000025749208,8|0,3:0|0:0,0:0:0:0:
132,298,88208,2,0,L|221:306,2,90,0|2|0,0:0|3:0|0:0,0:0:0:0:
328,359,88636,6,0,P|373:317|442:334,1,112.5,8|0,3:0|0:0,0:0:0:0:
328,359,88922,6,0,P|330:326|348:303,2,56.25
499,331,89208,1,8,3:0:0:0:
328,359,89351,6,0,P|308:332|307:303,1,56.25
272,238,89493,1,2,3:0:0:0:
291,148,89636,1,0,0:0:0:0:
390,98,89779,1,8,3:0:0:0:
390,98,89922,2,0,L|398:161,1,56.25,8|0,3:0|0:0,0:0:0:0:
483,248,90065,5,2,3:0:0:0:
483,248,90208,2,0,L|491:185,1,56.25,0|0,3:0|0:0,0:0:0:0:
512,41,90351,2,0,P|469:-1|402:9,1,112.5,8|0,3:0|0:0,0:0:0:0:
390,98,90636,6,0,B|373:107|377:130|377:130|423:87|487:117,1,135.000005149842,4|0,1:0|0:0,0:0:0:0:
243,54,90922,6,0,B|219:45|224:11|224:11|248:38|296:57|353:23,1,161.999995056153
60,143,91208,6,0,B|52:150|54:163|54:163|78:141|118:157,1,80.9999975280763,8|0,3:0|0:0,0:0:0:0:
223,139,91351,6,0,L|184:132,3,30
147,53,91636,1,0,0:0:0:0:
60,143,91779,6,0,P|118:135|178:275,1,202.500007724762,4|0,3:2|0:0,0:0:0:0:
136,306,92065,6,0,L|142:362,1,54,0|0,3:0|0:0,0:0:0:0:
141,359,92351,5,8,3:0:0:0:
99,228,92493,1,0,3:0:0:0:
7,330,92636,2,0,L|44:334,1,36
243,354,92922,6,0,B|258:289|320:263|388:308|388:308|376:367,2,225,4|0|8,3:2|0:0|3:0,0:0:0:0:
468,318,93636,1,0,3:0:0:0:
468,318,93922,5,0,3:0:0:0:
325,142,94065,1,4,3:2:0:0:
325,142,94351,5,0,3:0:0:0:
244,353,94493,1,0,0:0:0:0:
353,214,94636,5,8,3:0:0:0:
336,327,94779,1,0,3:0:0:0:
288,262,94922,1,8,3:0:0:0:
401,279,95065,1,0,3:0:0:0:
203,158,95208,6,0,P|152:133|97:133,1,112.5,4|0,1:0|0:0,0:0:0:0:
14,319,95493,2,0,P|69:318|119:294,1,112.5,8|0,3:0|0:0,0:0:0:0:
25,176,95779,2,0,L|-1:59,1,112.5,2|0,3:0|0:0,0:0:0:0:
208,262,96065,2,0,L|182:379,1,112.5,8|0,3:0|0:0,0:0:0:0:
284,120,96351,5,2,3:0:0:0:
297,116,96422,1,0,0:0:0:0:
311,113,96493,1,0,0:0:0:0:
324,110,96565,1,0,0:0:0:0:
338,106,96636,1,8,3:0:0:0:
246,38,96779,1,0,0:0:0:0:
373,194,96922,1,2,3:0:0:0:
231,179,97065,1,0,0:0:0:0:
387,52,97208,2,0,L|394:9,3,33.7500012874604,8|0|0|0,3:0|0:0|0:0|0:0,0:0:0:0:
474,193,97493,6,0,L|486:252,3,33.7500012874604,2|0|0|0,3:0|0:0|0:0|0:0,0:0:0:0:
422,277,97779,1,8,3:0:0:0:
418,290,97850,1,0,0:0:0:0:
415,304,97921,1,0,0:0:0:0:
412,317,97993,1,0,0:0:0:0:
408,331,98065,2,0,P|363:349|342:287,1,112.5,2|0,3:0|0:0,0:0:0:0:
480,354,98351,2,0,P|411:310|236:303,1,236.250002253056,8|0,3:0|0:0,0:0:0:0:
260,296,98636,5,2,3:0:0:0:
69,335,98779,1,0,0:0:0:0:
69,335,98851,1,0,0:0:0:0:
69,335,98922,2,0,B|35:369|35:369|141:355,1,112.5,8|8,3:0|3:0,0:0:0:0:
189,232,99208,2,0,L|174:362,1,112.5,0|0,0:0|3:0,0:0:0:0:
62,203,99493,6,0,B|13:251|13:251|165:231,1,157.500001502037,8|0,3:0|0:0,0:0:0:0:
191,115,99779,6,0,P|125:138|59:44,1,168.75,4|0,3:2|0:0,0:0:0:0:
58,76,100065,1,8,3:0:0:0:
152,6,100208,2,0,P|146:44|134:60,1,56.25
255,67,100351,5,2,3:0:0:0:
268,65,100422,1,0,0:0:0:0:
282,64,100493,1,0,0:0:0:0:
296,62,100565,1,0,0:0:0:0:
292,34,100636,2,0,L|356:77,3,56.25,8|0|0|0,3:0|0:0|0:0|0:0,0:0:0:0:
419,5,100922,2,0,L|440:79,3,45,2|0|0|0,3:0|0:0|0:0|0:0,0:0:0:0:
510,85,101208,2,0,L|492:125,3,33.7500012874604,8|0|0|0,3:0|0:0|0:0|0:0,0:0:0:0:
512,195,101493,1,2,3:0:0:0:
501,203,101564,1,0,0:0:0:0:
490,211,101635,1,0,0:0:0:0:
478,219,101707,1,0,0:0:0:0:
494,254,101779,2,0,L|440:240,1,45,8|0,3:0|0:0,0:0:0:0:
300,374,102065,6,0,P|333:373|363:344,2,60,2|0|0,3:0|0:0|0:0,0:0:0:0:
206,232,102351,2,0,L|195:131,1,90,8|0,3:0|0:0,0:0:0:0:
210,310,102636,6,0,P|177:309|139:274,2,75,2|0|0,3:0|0:0|0:0,0:0:0:0:
329,170,102922,2,0,L|345:20,1,112.5,8|0,3:0|0:0,0:0:0:0:
319,249,103208,6,0,P|354:250|397:204,2,90.0000034332277,2|0|0,3:0|0:0|0:0,0:0:0:0:
207,155,103493,6,0,B|151:148|151:148|127:156|127:156|64:149,1,135.000005149842,8|0,3:0|3:0,0:0:0:0:
319,114,103779,6,0,B|384:106|384:106|418:116|418:116|491:105,1,157.500001502037,8|0,3:0|3:0,0:0:0:0:
191,65,104065,6,0,B|143:56|143:56|61:66|61:66|1:55,1,180,8|0,3:0|3:0,0:0:0:0:
341,22,104351,6,0,L|372:18,2,26.9999991760254,4|0|0,1:2|0:0|3:0,0:0:0:0:
175,46,104779,6,0,L|117:38,2,45,4|0|8,3:2|0:0|3:0,0:0:0:0:
352,99,105208,6,0,L|438:87,2,62.9999980773926,4|0|0,3:2|0:0|3:0,0:0:0:0:
166,125,105636,6,0,L|79:113,2,80.9999975280763,4|0|8,3:2|0:0|3:0,0:0:0:0:
388,173,106065,6,0,L|370:310,1,99.0000030212403,4|0,3:2|0:0,0:0:0:0:
375,271,106351,1,8,3:0:0:0:
122,196,106493,6,0,L|139:333,1,116.999994644165,4|0,3:2|0:0,0:0:0:0:
136,312,106779,1,8,3:0:0:0:
465,203,106922,6,0,L|447:340,1,135.000005149842,4|0,3:2|0:0,0:0:0:0:
447,336,107208,1,8,3:0:0:0:
45,230,107351,6,0,L|68:409,1,153.000002918243,4|0,3:2|0:0,0:0:0:0:
64,381,107636,1,8,3:0:0:0:
309,332,107779,6,0,L|192:317,1,116.999994644165,4|0,3:2|0:0,0:0:0:0:
215,197,108065,6,0,L|294:186,1,80.9999975280763,8|0,3:0|0:0,0:0:0:0:
268,90,108351,6,0,L|241:86,1,26.9999991760254,0|0,3:0|3:0,0:0:0:0:
256,10,108636,5,14,3:0:0:0:
256,192,108708,12,0,111779,0:0:0:0:
