osu file format v14

[General]
AudioFilename: audio.mp3
AudioLeadIn: 0
PreviewTime: 76882
Countdown: 0
SampleSet: Normal
StackLeniency: 0.7
Mode: 2
LetterboxInBreaks: 0
WidescreenStoryboard: 0

[Editor]
Bookmarks: 10667,19810,28953,38096,56382,76953
DistanceSpacing: 1
BeatDivisor: 4
GridSize: 4
TimelineZoom: 1.8

[Metadata]
Title:chaos eater -IIDX edition-
TitleUnicode:chaos eater -IIDX edition-
Artist:Nekomata Master+
ArtistUnicode:猫叉Master+
Creator:Spectator
Version:Ultra
Source:beatmania IIDX 23 copula
Tags:Electronic Instrumental Video Game Bunnrei Chara Ster -Plus- osu_gangster Jemzuu AJamez Lacrima Myle -Rustyy International Cup CTBI CIC vii Finals No Mod NM DDR DanceDanceRevolution GITADORA NEX+AGE
BeatmapID:3155847
BeatmapSetID:1543977

[Difficulty]
HPDrainRate:5
CircleSize:4.6
OverallDifficulty:9.8
ApproachRate:9.8
SliderMultiplier:1.9
SliderTickRate:2

[Events]
//Background and Video events
0,0,"chaos eater.jpg",0,0
//Break Periods
//Storyboard Layer 0 (Background)
//Storyboard Layer 1 (Fail)
//Storyboard Layer 2 (Pass)
//Storyboard Layer 3 (Foreground)
//Storyboard Layer 4 (Overlay)
//Storyboard Sound Samples

[TimingPoints]
382,285.714285714286,4,1,2,55,1,0
2096,-38.4615384615385,4,1,2,55,0,0
4382,-1000,4,1,2,55,0,0
5810,-100,4,1,2,55,0,0
6096,-38.4615384615385,4,1,2,55,0,0
6667,-38.4615384615385,4,1,25,55,0,0
6739,-38.4615384615385,4,1,2,55,0,0
8953,-1000,4,1,2,55,0,0
9524,-100,4,1,2,55,0,0
10667,-100,4,1,2,55,0,0
10989,-100,4,1,2,10,0,0
11024,-100,4,1,2,55,0,0
11560,-100,4,1,2,10,0,0
11595,-100,4,1,2,55,0,0
12132,-100,4,1,2,10,0,0
12167,-100,4,1,2,55,0,0
12560,-100,4,1,2,10,0,0
12595,-100,4,1,2,55,0,0
12703,-100,4,1,2,10,0,0
12738,-100,4,1,2,55,0,0
12846,-100,4,1,2,10,0,0
12881,-100,4,1,2,55,0,0
12989,-100,4,1,2,25,0,0
13239,-100,4,1,2,55,0,0
13274,-100,4,1,2,25,0,0
13524,-100,4,1,2,55,0,0
13846,-100,4,1,2,10,0,0
13882,-100,4,1,2,55,0,0
15239,-100,4,1,4,55,0,0
17096,-100,4,1,4,55,0,0
17132,-100,4,1,4,10,0,0
17239,-100,4,1,4,55,0,0
17275,-100,4,1,4,10,0,0
17382,-100,4,1,4,55,0,0
17418,-100,4,1,4,10,0,0
17524,-100,4,1,4,55,0,0
18524,-100,4,1,1,55,0,0
19810,-100,4,1,1,65,0,0
20953,-100,4,1,9,75,0,0
21024,-100,4,1,1,65,0,0
22096,-100,4,1,9,75,0,0
22167,-100,4,1,1,65,0,0
23239,-100,4,1,9,75,0,0
23310,-100,4,1,1,65,0,0
24382,-100,4,1,9,75,0,0
24453,-100,4,1,1,65,0,0
25524,-100,4,1,9,75,0,0
25595,-100,4,1,1,65,0,0
26667,-100,4,1,9,75,0,0
26738,-100,4,1,1,65,0,0
28953,-100,4,1,21,80,0,1
29096,-100,4,1,1,80,0,0
38382,-62.5,4,1,1,80,0,0
38953,-100,4,1,1,80,0,0
39524,-62.5,4,1,1,80,0,0
40096,-100,4,1,1,80,0,0
40667,-62.5,4,1,1,80,0,0
41239,-100,4,1,1,80,0,0
46953,-90.9090909090909,4,1,1,80,0,0
47239,-100,4,1,1,80,0,0
56382,-100,4,1,10,70,0,0
64382,-100,4,1,1,70,0,0
65524,-100,4,1,1,70,0,0
66667,-100,4,1,10,70,0,0
67382,-100,4,1,1,70,0,0
68953,-100,4,1,10,70,0,0
69382,-100,4,1,1,70,0,0
70096,-100,4,1,1,70,0,1
70167,-100,4,1,1,70,0,0
70953,-100,4,1,1,70,0,1
71024,-100,4,1,1,70,0,0
71810,-100,4,1,1,75,0,1
71882,-100,4,1,1,75,0,0
72667,-100,4,1,1,80,0,1
72739,-100,4,1,1,80,0,0
73524,-100,4,1,1,85,0,1
73596,-100,4,1,1,85,0,0
74382,-100,4,1,20,85,0,1
74453,-100,4,1,1,85,0,0
76382,-100,4,1,77,60,0,0
76667,-100,4,1,1,85,0,0
76953,-100,4,1,1,90,0,1
79239,-100,4,1,1,90,0,1
79382,-83.3333333333333,4,1,66,90,0,1
79453,-83.3333333333333,4,1,1,90,0,1
79667,-100,4,1,1,90,0,1
79810,-83.3333333333333,4,1,66,90,0,1
79882,-83.3333333333333,4,1,1,90,0,1
80096,-100,4,1,1,90,0,1
80239,-83.3333333333333,4,1,66,90,0,1
80310,-83.3333333333333,4,1,1,90,0,1
80524,-100,4,1,1,90,0,1
80667,-83.3333333333333,4,1,66,90,0,1
80739,-83.3333333333333,4,1,1,90,0,1
80953,-100,4,1,1,90,0,1
83953,-100,4,1,66,90,0,1
84024,-100,4,1,1,90,0,1
84382,-100,4,1,66,90,0,1
84453,-100,4,1,1,90,0,1
88524,-83.3333333333333,4,1,66,90,0,1
88596,-83.3333333333333,4,1,1,90,0,1
88810,-100,4,1,1,90,0,1
88953,-83.3333333333333,4,1,66,90,0,1
89024,-83.3333333333333,4,1,1,90,0,1
89239,-100,4,1,1,90,0,1
89382,-83.3333333333333,4,1,66,90,0,1
89453,-83.3333333333333,4,1,1,90,0,1
89667,-100,4,1,1,90,0,1
89810,-83.3333333333333,4,1,66,90,0,1
89882,-83.3333333333333,4,1,1,90,0,1
89953,-100,4,1,1,90,0,1
95132,-100,4,1,1,10,0,1
95239,-100,4,1,66,90,0,0
95310,-100,4,1,1,90,0,0
104382,-100,4,1,1,90,0,1
104524,-100,4,1,66,90,0,1
104596,-100,4,1,1,90,0,1
104953,-100,4,1,66,90,0,1
105025,-100,4,1,1,90,0,1
105167,-100,4,1,1,90,0,0
105239,-100,4,1,1,90,0,1
105382,-100,4,1,66,90,0,1
105454,-100,4,1,1,90,0,1
105810,-100,4,1,66,90,0,1
105882,-100,4,1,1,90,0,1
106024,-100,4,1,1,90,0,0
106096,-100,4,1,1,90,0,1
106239,-100,4,1,66,90,0,1
106311,-100,4,1,1,90,0,1
106667,-100,4,1,66,90,0,1
106739,-100,4,1,1,90,0,1
106882,-100,4,1,1,90,0,0
106953,-100,4,1,1,90,0,1
107096,-100,4,1,66,90,0,1
107168,-100,4,1,1,90,0,1
107524,-100,4,1,66,90,0,1
107596,-100,4,1,1,90,0,1
107810,-100,4,1,1,90,0,0
108667,-100,4,1,22,90,0,1
108810,-100,4,1,1,65,0,0

[Colours]
Combo1 : 128,128,128
Combo2 : 192,192,192

[HitObjects]
158,49,810,6,0,L|155:122,1,47.5
308,148,953,2,0,L|403:137,2,95,8|0|0,0:0|0:0|0:0,0:0:0:0:
156,118,1382,1,8,0:0:0:0:
430,268,1524,5,10,1:3:0:0:
157,239,1667,1,0,0:0:0:0:
285,216,1810,1,2,0:0:0:0:
157,239,1953,1,0,0:0:0:0:
439,352,2096,2,0,B|307:142|307:142|283:262|308:387|308:387|175:170,1,740.999966079714,10|8,0:0|0:0,0:0:0:0:
435,78,2667,5,2,0:0:0:0:
307,101,2810,1,0,0:0:0:0:
435,78,2953,1,10,1:3:0:0:
307,101,3096,1,0,0:0:0:0:
49,343,3239,2,0,B|65:204|49:95|49:95|65:194|49:348|49:348|202:112,1,740.999966079714,10|0,0:0|0:0,0:0:0:0:
321,147,3810,5,10,0:3:0:0:
321,147,3953,1,0,0:0:0:0:
179,147,4096,1,2,0:0:0:0:
179,147,4239,1,0,0:0:0:0:
459,145,4382,2,0,L|458:176,1,28.5,10|8,0:0|0:0,0:0:0:0:
365,174,4953,5,0,0:0:0:0:
365,174,5096,1,0,0:0:0:0:
460,172,5239,1,8,0:3:0:0:
460,172,5382,1,0,0:0:0:0:
179,147,5524,1,8,0:0:0:0:
179,147,5667,1,0,0:0:0:0:
333,147,5810,2,0,L|336:73,1,47.5,2|2,0:2|0:2,0:0:0:0:
179,147,5953,2,0,L|176:73,1,47.5,2|2,0:2|0:2,0:0:0:0:
433,346,6096,6,0,B|186:347|186:347|186:346|186:346|173:241|186:99|186:99|186:99|186:99|213:226|185:345|185:345|185:346|185:346|186:346|186:346|332:146|332:146|332:146|332:146|186:345|186:345|186:346|186:346|332:147|332:147|332:146|332:146|349:263|332:394,1,1728.99992085266,2|8,0:2|0:0,0:0:0:0:
77,78,7239,5,2,0:0:0:0:
205,101,7382,1,0,0:0:0:0:
77,78,7525,1,10,0:3:0:0:
205,101,7668,1,0,0:0:0:0:
465,346,7810,2,0,B|333:136|333:136|309:256|334:381|334:381|201:164,1,740.999966079714,10|0,0:0|0:0,0:0:0:0:
300,172,8382,5,10,0:3:0:0:
300,172,8525,1,0,0:0:0:0:
205,170,8668,1,2,0:0:0:0:
205,170,8811,1,0,0:0:0:0:
300,172,8953,2,0,L|299:203,1,28.5,10|8,0:0|0:0,0:0:0:0:
160,201,9524,5,0,0:0:0:0:
160,201,9667,1,0,0:0:0:0:
300,199,9810,1,8,0:3:0:0:
300,199,9953,1,0,0:0:0:0:
43,201,10096,1,8,0:0:0:0:
43,201,10239,1,0,0:0:0:0:
299,81,10382,2,0,L|226:83,1,47.5,8|8,0:0|0:0,0:0:0:0:
40,77,10524,2,0,L|113:79,1,47.5,8|8,0:0|0:0,0:0:0:0:
255,82,10667,6,0,L|255:216,1,95,4|0,0:0|0:0,0:0:0:0:
394,175,10953,2,0,L|364:175,1,23.75
499,176,11096,1,0,0:0:0:0:
372,257,11239,6,0,L|482:259,1,95,8|0,0:0|0:0,0:0:0:0:
205,180,11524,2,0,L|175:180,1,23.75
308,181,11667,1,8,0:0:0:0:
181,262,11810,6,0,L|291:264,1,95
38,183,12096,2,0,L|8:183,1,23.75,8|0,0:3|0:0,0:0:0:0:
141,184,12239,1,0,0:0:0:0:
404,185,12382,5,8,0:0:0:0:
300,114,12524,2,0,L|329:114,1,23.75
207,92,12667,2,0,L|183:92,1,23.75
298,24,12810,2,0,L|327:24,1,23.75
70,134,12953,5,0,0:0:0:0:
34,134,12989,1,0,0:0:0:0:
70,134,13024,1,0,0:0:0:0:
34,134,13060,1,0,0:0:0:0:
70,134,13096,1,0,0:0:0:0:
170,199,13239,1,0,0:0:0:0:
152,199,13275,1,0,0:0:0:0:
170,199,13310,1,0,0:0:0:0:
152,199,13346,1,0,0:0:0:0:
170,199,13382,1,0,0:0:0:0:
453,199,13524,5,8,0:0:0:0:
452,114,13667,1,0,0:0:0:0:
349,113,13810,2,0,L|319:113,1,23.75
452,114,13953,1,8,0:0:0:0:
106,107,14096,5,0,0:0:0:0:
212,155,14239,2,0,L|140:155,1,47.5
361,200,14382,1,0,0:0:0:0:
255,248,14525,6,0,L|327:248,1,47.5
105,212,14667,1,0,0:0:0:0:
212,155,14810,6,0,L|212:233,1,47.5
431,258,14953,1,2,0:2:0:0:
211,279,15096,6,2,L|144:280,1,47.5,2|2,0:2|0:2,0:2:0:0:
347,278,15239,1,4,0:0:0:0:
111,120,15382,5,0,0:0:0:0:
215,115,15524,1,8,0:0:0:0:
466,112,15667,1,8,0:0:0:0:
215,194,15810,1,8,0:0:0:0:
329,192,15953,1,0,0:0:0:0:
215,194,16096,1,8,0:0:0:0:
466,188,16239,1,8,0:0:0:0:
215,194,16382,5,0,0:0:0:0:
205,289,16524,1,8,0:0:0:0:
341,192,16667,1,8,0:0:0:0:
331,287,16809,1,8,0:0:0:0:
466,188,16953,1,8,0:0:0:0:
183,63,17096,2,0,L|211:63,1,23.75,2|0,0:0|0:0,0:0:0:0:
329,63,17239,2,0,L|301:63,1,23.75,2|0,0:0|0:0,0:0:0:0:
183,63,17382,2,0,L|211:63,1,23.75,2|0,0:0|0:0,0:0:0:0:
457,60,17524,5,2,0:0:0:0:
457,60,17667,1,8,0:0:0:0:
184,144,17810,1,8,0:0:0:0:
304,146,17953,1,8,0:0:0:0:
55,60,18096,1,0,0:0:0:0:
55,60,18239,1,0,0:0:0:0:
328,144,18382,1,8,0:0:0:0:
208,146,18525,5,0,0:0:0:0:
366,217,18596,1,0,0:0:0:0:
208,232,18667,1,2,0:0:0:0:
156,251,18739,1,0,0:0:0:0:
208,232,18810,1,0,0:0:0:0:
367,299,18882,1,0,0:0:0:0:
209,323,18953,1,2,0:0:0:0:
157,342,19024,1,0,0:0:0:0:
157,342,19096,1,0,0:0:0:0:
209,323,19167,1,0,0:0:0:0:
482,182,19239,5,2,0:0:0:0:
358,177,19382,1,8,0:3:0:0:
40,181,19524,1,8,0:0:0:0:
297,270,19810,6,0,L|288:167,1,95,4|0,0:0|0:0,0:0:0:0:
203,154,20096,2,0,L|194:51,1,95
457,108,20382,1,8,0:0:0:0:
313,230,20524,6,0,L|322:127,1,95
407,114,20810,2,0,L|416:11,1,95,0|2,0:0|0:0,0:0:0:0:
329,14,21096,1,0,0:2:0:0:
109,114,21239,2,0,L|100:11,1,95,8|0,0:3|0:0,0:0:0:0:
401,186,21524,5,8,0:0:0:0:
109,112,21667,1,2,0:2:0:0:
239,113,21810,1,2,0:2:0:0:
109,112,21953,1,2,0:2:0:0:
309,230,22096,6,0,L|318:127,1,95,10|0,0:1|0:0,0:0:0:0:
403,114,22382,2,0,L|412:11,1,95
203,230,22667,6,0,L|194:127,1,95,8|0,0:0|0:0,0:0:0:0:
464,169,22953,1,0,0:0:0:0:
336,169,23096,1,0,0:0:0:0:
52,214,23239,5,2,0:0:0:0:
162,211,23382,2,0,L|108:211,1,47.5
256,266,23524,1,8,0:3:0:0:
366,263,23667,2,0,L|312:263,1,47.5
117,364,23810,6,0,L|117:299,1,47.5,8|0,0:0|0:0,0:0:0:0:
259,182,23953,2,0,L|203:181,1,47.5
373,79,24096,1,0,0:0:0:0:
257,77,24239,1,0,0:0:0:0:
460,73,24382,6,0,L|466:190,1,95,10|0,0:1|0:0,0:0:0:0:
259,217,24667,1,0,0:0:0:0:
370,215,24810,1,0,0:0:0:0:
52,73,24953,6,0,L|46:190,1,95,8|0,0:0|0:0,0:0:0:0:
258,138,25238,1,0,0:0:0:0:
389,136,25381,1,0,0:0:0:0:
52,73,25524,6,0,L|46:190,1,95,2|0,0:0|0:0,0:0:0:0:
253,217,25810,1,8,0:3:0:0:
142,215,25952,1,0,0:0:0:0:
459,158,26096,5,8,0:0:0:0:
263,273,26239,1,2,0:2:0:0:
247,158,26382,1,2,0:2:0:0:
52,158,26524,1,2,0:2:0:0:
258,220,26667,5,10,0:1:0:0:
274,335,26810,1,0,0:0:0:0:
120,131,26953,1,0,0:0:0:0:
136,246,27096,1,0,0:0:0:0:
37,212,27239,5,8,0:0:0:0:
32,189,27274,1,0,0:0:0:0:
27,165,27310,1,0,0:0:0:0:
200,158,27382,1,0,0:0:0:0:
353,158,27524,1,0,0:0:0:0:
202,246,27667,1,0,0:0:0:0:
256,247,27739,1,0,0:0:0:0:
85,252,27810,5,4,0:0:0:0:
85,252,27882,1,0,0:0:0:0:
228,325,27953,1,0,0:0:0:0:
371,255,28024,1,0,0:0:0:0:
227,182,28096,1,2,0:2:0:0:
169,180,28167,1,0,0:0:0:0:
169,180,28239,1,0,0:0:0:0:
227,182,28310,1,0,0:0:0:0:
444,187,28382,1,2,0:2:0:0:
325,186,28524,1,8,0:3:0:0:
40,182,28667,1,8,0:0:0:0:
39,277,28953,5,4,0:0:0:0:
157,277,29096,1,0,0:0:0:0:
436,280,29239,1,8,0:0:0:0:
157,178,29382,1,0,0:0:0:0:
280,178,29524,2,0,L|211:178,1,47.5
396,88,29667,1,8,1:3:0:0:
498,86,29810,1,8,0:0:0:0:
252,352,29953,1,0,0:0:0:0:
266,245,30096,5,8,0:3:0:0:
149,284,30239,1,0,0:0:0:0:
163,177,30382,1,8,0:0:0:0:
281,134,30524,1,0,0:0:0:0:
47,123,30667,2,0,L|47:183,1,47.5
214,212,30810,2,0,L|156:212,1,47.5,8|0,0:3|0:0,0:0:0:0:
351,259,30953,1,8,0:0:0:0:
480,260,31096,1,0,0:0:0:0:
351,259,31239,5,8,0:3:0:0:
337,152,31382,1,0,0:0:0:0:
55,146,31524,1,8,0:1:0:0:
337,152,31667,1,0,0:0:0:0:
55,146,31810,1,0,0:0:0:0:
184,146,31953,1,8,0:3:0:0:
198,253,32096,1,8,0:0:0:0:
448,217,32239,1,0,0:0:0:0:
397,217,32310,1,0,0:0:0:0:
199,335,32382,5,8,0:3:0:0:
448,299,32524,1,0,0:0:0:0:
395,300,32596,1,0,0:0:0:0:
199,335,32667,1,8,0:0:0:0:
326,251,32810,1,0,0:0:0:0:
273,252,32882,1,0,0:0:0:0:
437,86,32953,1,0,0:0:0:0:
442,142,33024,1,0,0:0:0:0:
248,148,33096,1,8,0:3:0:0:
116,148,33239,1,8,0:0:0:0:
165,147,33310,1,0,0:0:0:0:
39,148,33382,1,0,0:0:0:0:
39,148,33453,1,0,0:0:0:0:
294,155,33524,5,4,0:0:0:0:
175,152,33667,1,0,0:0:0:0:
457,146,33809,1,8,0:0:0:0:
175,152,33952,1,0,0:0:0:0:
288,157,34096,2,0,L|219:157,1,47.5
404,67,34239,1,8,0:3:0:0:
506,65,34382,1,8,0:0:0:0:
226,352,34524,5,0,0:0:0:0:
240,238,34667,1,8,0:3:0:0:
120,350,34810,1,0,0:0:0:0:
134,236,34953,1,8,0:0:0:0:
19,349,35096,1,0,0:0:0:0:
307,152,35239,1,0,0:0:0:0:
176,152,35382,1,8,0:3:0:0:
308,239,35524,1,8,0:0:0:0:
176,152,35596,2,0,L|176:233,1,47.5
374,193,35739,1,0,0:0:0:0:
175,301,35810,5,8,0:3:0:0:
50,301,35953,1,0,0:0:0:0:
309,63,36096,1,8,0:0:0:0:
184,63,36239,1,0,0:0:0:0:
452,126,36382,1,0,0:0:0:0:
184,63,36524,1,8,0:3:0:0:
309,63,36667,1,8,0:0:0:0:
46,344,36810,5,0,0:0:0:0:
60,230,36953,1,8,0:3:0:0:
169,346,37096,1,0,0:0:0:0:
183,232,37239,1,8,0:0:0:0:
304,233,37382,1,0,0:0:0:0:
22,131,37524,1,0,0:0:0:0:
305,126,37667,1,8,0:3:0:0:
186,125,37810,2,0,L|256:126,1,47.5,8|2,0:0|0:2,0:0:0:0:
368,127,37953,1,2,0:2:0:0:
493,126,38024,1,2,0:2:0:0:
255,305,38096,5,4,0:0:0:0:
241,217,38239,1,0,0:0:0:0:
457,219,38382,1,8,0:0:0:0:
327,165,38524,1,0,0:0:0:0:
15,77,38667,1,0,0:2:0:0:
327,165,38810,1,8,0:3:0:0:
192,119,38953,1,8,0:0:0:0:
57,77,39096,1,0,0:0:0:0:
255,305,39239,5,8,0:3:0:0:
241,217,39382,1,0,0:0:0:0:
457,219,39524,1,8,0:0:0:0:
327,165,39667,1,0,0:0:0:0:
15,77,39810,1,0,0:0:0:0:
327,165,39953,1,8,0:3:0:0:
192,119,40096,1,8,0:0:0:0:
57,77,40239,1,0,0:0:0:0:
255,305,40382,5,8,0:3:0:0:
241,217,40525,1,0,0:0:0:0:
457,219,40667,1,8,0:0:0:0:
327,165,40810,1,0,0:0:0:0:
15,77,40953,1,0,0:0:0:0:
327,165,41096,1,8,0:3:0:0:
192,119,41239,1,8,0:0:0:0:
57,77,41382,1,0,0:0:0:0:
327,165,41524,5,8,0:3:0:0:
341,253,41667,1,0,0:0:0:0:
57,77,41810,1,8,0:0:0:0:
192,119,41953,1,0,0:0:0:0:
57,77,42096,1,0,0:0:0:0:
279,238,42239,2,0,L|278:176,1,47.5,8|0,0:3|0:0,0:0:0:0:
481,80,42382,1,8,0:0:0:0:
381,80,42525,1,0,0:0:0:0:
86,80,42667,1,4,0:0:0:0:
201,80,42810,6,0,L|201:150,1,47.5
345,188,42953,2,0,L|256:188,1,47.5,8|0,0:0|0:0,0:0:0:0:
481,217,43096,2,0,L|482:274,1,47.5
346,301,43239,2,0,L|346:247,1,47.5
201,222,43382,1,8,0:3:0:0:
345,149,43524,6,0,L|289:150,1,47.5,8|0,0:0|0:0,0:0:0:0:
480,85,43667,2,0,L|480:148,1,47.5
345,149,43810,1,8,0:3:0:0:
198,75,43953,6,0,L|254:76,1,47.5
63,11,44096,2,0,L|63:74,1,47.5,8|0,0:0|0:0,0:0:0:0:
198,75,44239,1,0,0:0:0:0:
474,78,44382,5,0,0:0:0:0:
198,75,44525,1,8,0:3:0:0:
320,75,44667,1,8,0:0:0:0:
198,75,44810,1,0,0:0:0:0:
474,78,44953,1,8,0:3:0:0:
343,79,45096,6,0,L|343:149,1,47.5
199,187,45239,2,0,L|288:187,1,47.5,8|0,0:1|0:0,0:0:0:0:
63,216,45382,2,0,L|62:273,1,47.5
257,272,45524,1,0,0:0:0:0:
391,270,45667,1,8,0:3:0:0:
120,93,45810,2,0,L|62:94,1,47.5,8|0,0:0|0:0,0:0:0:0:
218,145,45953,2,0,L|217:68,1,47.5,8|0,0:3|0:0,0:0:0:0:
374,97,46096,2,0,L|326:96,1,47.5,8|0,0:0|0:0,0:0:0:0:
120,93,46239,1,8,0:3:0:0:
239,173,46382,6,0,L|305:172,1,47.5,8|0,0:0|0:0,0:0:0:0:
121,170,46524,2,0,L|121:246,1,47.5
303,254,46667,2,0,L|386:254,1,47.5,8|0,0:0|0:0,0:0:0:0:
206,253,46810,1,8,0:3:0:0:
332,183,46953,2,0,L|408:182,1,52.2500015945435,8|0,0:0|0:0,0:0:0:0:
243,182,47096,2,0,L|185:182,1,52.2500015945435,8|0,0:3|0:0,0:0:0:0:
19,317,47239,5,4,0:0:0:0:
33,229,47382,1,0,0:0:0:0:
234,151,47524,1,8,0:0:0:0:
100,94,47667,1,0,0:0:0:0:
426,109,47810,1,0,0:0:0:0:
99,197,47953,1,8,0:3:0:0:
234,151,48096,1,8,0:0:0:0:
99,197,48239,1,0,0:0:0:0:
493,317,48382,5,8,0:3:0:0:
479,229,48525,1,0,0:0:0:0:
278,151,48667,1,8,0:0:0:0:
412,94,48810,1,0,0:0:0:0:
86,109,48953,1,0,0:0:0:0:
413,197,49096,1,8,0:3:0:0:
278,151,49239,1,8,0:0:0:0:
413,197,49382,1,0,0:0:0:0:
19,317,49524,5,8,0:3:0:0:
33,229,49667,1,0,0:0:0:0:
234,151,49809,1,8,0:0:0:0:
100,94,49952,1,0,0:0:0:0:
426,109,50095,1,0,0:0:0:0:
99,197,50238,1,8,0:3:0:0:
234,151,50381,1,8,0:0:0:0:
99,197,50524,1,0,0:0:0:0:
493,317,50667,5,8,0:3:0:0:
479,229,50810,1,0,0:0:0:0:
280,151,50952,1,8,0:0:0:0:
415,96,51096,2,0,L|341:96,1,47.5
212,157,51239,2,0,L|208:104,1,47.5
46,91,51382,1,8,0:3:0:0:
168,88,51524,1,8,0:0:0:0:
46,91,51667,1,0,0:0:0:0:
260,292,51810,6,0,L|265:233,1,47.5,4|0,0:0|0:0,0:0:0:0:
431,235,51953,2,0,L|490:236,1,47.5
252,292,52096,2,0,L|247:233,1,47.5,8|0,0:0|0:0,0:0:0:0:
81,235,52239,2,0,L|22:236,1,47.5
260,292,52382,2,0,L|265:233,1,47.5
431,235,52524,2,0,L|490:236,1,47.5,8|0,0:3|0:0,0:0:0:0:
252,292,52667,2,0,L|247:233,1,47.5,8|0,0:0|0:0,0:0:0:0:
31,154,52810,5,2,0:0:0:0:
149,156,52953,1,0,0:0:0:0:
408,154,53096,1,2,0:0:0:0:
149,156,53239,1,0,0:0:0:0:
123,151,53274,1,0,0:0:0:0:
106,135,53310,1,0,0:0:0:0:
99,111,53346,1,0,0:0:0:0:
108,88,53381,1,0,0:0:0:0:
127,73,53417,1,0,0:0:0:0:
152,71,53453,1,0,0:0:0:0:
408,266,53524,5,2,0:0:0:0:
151,263,53667,1,8,0:3:0:0:
268,206,53810,1,10,0:0:0:0:
11,203,53953,1,0,0:0:0:0:
252,292,54096,6,0,L|247:233,1,47.5,8|0,0:3|0:0,0:0:0:0:
81,235,54239,2,0,L|22:236,1,47.5
260,292,54382,2,0,L|265:233,1,47.5,8|0,0:0|0:0,0:0:0:0:
431,235,54525,2,0,L|490:236,1,47.5
252,292,54668,2,0,L|247:233,1,47.5
81,235,54811,2,0,L|22:236,1,47.5,8|0,0:3|0:0,0:0:0:0:
260,292,54953,2,0,L|265:233,1,47.5,8|0,0:0|0:0,0:0:0:0:
114,179,55096,5,2,0:0:0:0:
271,178,55167,1,0,0:0:0:0:
430,176,55239,2,0,L|430:97,1,47.5,8|0,0:1|0:0,0:0:0:0:
271,178,55382,1,2,0:1:0:0:
114,179,55453,1,0,0:0:0:0:
271,178,55525,2,0,L|319:178,1,47.5,8|0,0:0|0:0,0:0:0:0:
112,82,55667,2,0,L|48:82,1,47.5,8|0,0:3|0:0,0:0:0:0:
228,152,55810,2,0,L|228:95,1,47.5,8|0,0:0|0:0,0:0:0:0:
391,65,55953,2,0,L|390:13,1,47.5,8|0,0:3|0:0,0:0:0:0:
228,19,56096,1,8,0:0:0:0:
346,20,56239,1,8,0:3:0:0:
42,198,56382,5,4,0:0:0:0:
92,350,56667,1,2,0:0:0:0:
118,266,56810,1,0,0:0:0:0:
383,178,56953,1,10,0:0:0:0:
118,266,57096,1,2,0:0:0:0:
43,231,57239,1,0,0:0:0:0:
17,152,57382,1,2,0:0:0:0:
43,231,57524,1,0,0:0:0:0:
118,266,57667,1,2,0:0:0:0:
383,178,57810,1,2,0:0:0:0:
249,180,57953,1,2,0:0:0:0:
455,333,58096,1,10,0:0:0:0:
481,249,58239,1,0,0:0:0:0:
369,224,58382,1,0,0:0:0:0:
395,140,58525,1,0,0:0:0:0:
118,266,58667,1,0,0:0:0:0:
369,224,58953,5,2,0:0:0:0:
395,140,59096,1,2,0:0:0:0:
118,266,59239,1,10,0:0:0:0:
43,231,59382,1,2,0:0:0:0:
17,152,59525,1,0,0:0:0:0:
43,231,59667,1,2,0:0:0:0:
118,266,59810,5,2,0:0:0:0:
337,259,59953,1,0,0:0:0:0:
28,152,60096,1,2,0:0:0:0:
256,153,60239,1,0,0:0:0:0:
475,153,60382,1,10,0:0:0:0:
257,79,60525,1,0,0:0:0:0:
114,129,60667,1,2,0:0:0:0:
104,34,60810,1,0,0:0:0:0:
496,183,60953,1,4,0:0:0:0:
92,350,61239,5,2,0:0:0:0:
118,266,61382,1,2,0:0:0:0:
383,178,61524,1,10,0:0:0:0:
118,266,61668,1,2,0:0:0:0:
43,231,61811,1,0,0:0:0:0:
17,152,61954,1,2,0:0:0:0:
43,231,62096,1,0,0:0:0:0:
118,266,62239,1,2,0:0:0:0:
383,178,62382,1,2,0:0:0:0:
249,180,62525,1,2,0:0:0:0:
455,333,62668,1,10,0:0:0:0:
481,249,62811,1,0,0:0:0:0:
369,224,62954,1,0,0:0:0:0:
395,140,63097,1,0,0:0:0:0:
118,266,63239,1,0,0:0:0:0:
369,224,63524,5,2,0:0:0:0:
395,140,63667,1,2,0:0:0:0:
118,266,63810,1,10,0:0:0:0:
43,231,63953,1,2,0:0:0:0:
17,152,64096,1,0,0:0:0:0:
43,231,64238,1,2,0:0:0:0:
118,266,64382,5,2,0:0:0:0:
258,177,64453,1,0,0:0:0:0:
310,177,64524,1,0,0:0:0:0:
258,177,64596,1,0,0:0:0:0:
117,91,64667,1,2,0:1:0:0:
170,92,64739,1,0,0:0:0:0:
314,87,64810,1,0,0:0:0:0:
317,38,64882,1,0,0:0:0:0:
474,38,64953,1,2,0:0:0:0:
178,248,65096,1,8,0:3:0:0:
294,136,65239,1,10,0:0:0:0:
38,346,65382,1,0,0:0:0:0:
294,136,65524,5,12,0:0:0:0:
294,136,65667,1,0,0:0:0:0:
37,138,65810,1,0,0:0:0:0:
294,136,65953,1,8,0:0:0:0:
294,136,66096,1,0,0:0:0:0:
425,136,66239,1,0,0:0:0:0:
125,136,66382,1,8,0:0:0:0:
327,275,66667,5,2,0:0:0:0:
313,194,66810,1,0,0:0:0:0:
185,275,66953,1,2,0:0:0:0:
199,194,67096,1,0,0:0:0:0:
327,275,67239,1,2,0:0:0:0:
185,275,67382,1,8,0:3:0:0:
461,277,67524,1,8,0:0:0:0:
218,136,67810,5,12,0:0:0:0:
218,136,67953,1,0,0:0:0:0:
475,138,68096,1,0,0:0:0:0:
218,136,68239,1,8,0:0:0:0:
218,136,68382,1,0,0:0:0:0:
87,136,68525,1,0,0:0:0:0:
475,138,68668,1,8,0:0:0:0:
226,229,68953,5,2,0:0:0:0:
353,227,69096,1,0,0:0:0:0:
226,229,69239,1,2,0:0:0:0:
488,139,69382,1,8,0:1:0:0:
354,138,69524,1,0,0:0:0:0:
488,139,69667,1,8,0:3:0:0:
111,137,69810,1,8,0:0:0:0:
345,236,70096,5,12,0:0:0:0:
240,235,70239,1,0,0:0:0:0:
345,236,70382,1,0,0:0:0:0:
125,119,70524,1,12,0:0:0:0:
230,118,70667,1,0,0:0:0:0:
125,119,70810,1,0,0:0:0:0:
389,333,70953,5,12,0:0:0:0:
264,332,71096,1,0,0:0:0:0:
389,333,71239,1,0,0:0:0:0:
91,46,71382,1,12,0:0:0:0:
216,45,71525,1,0,0:0:0:0:
91,46,71668,1,0,0:0:0:0:
439,242,71810,5,12,0:0:0:0:
306,241,71953,1,0,0:0:0:0:
439,242,72096,1,0,0:0:0:0:
55,134,72239,1,12,0:0:0:0:
188,133,72382,1,0,0:0:0:0:
55,134,72525,1,0,0:0:0:0:
469,136,72667,5,12,0:0:0:0:
260,74,72810,1,0,0:0:0:0:
469,136,72953,1,0,0:0:0:0:
43,136,73096,1,12,0:0:0:0:
281,203,73239,1,0,0:0:0:0:
43,136,73382,1,0,0:0:0:0:
445,219,73524,5,12,0:0:0:0:
179,217,73667,1,0,0:0:0:0:
445,219,73810,1,0,0:0:0:0:
41,218,73953,1,12,0:0:0:0:
341,219,74096,1,0,0:0:0:0:
41,218,74239,1,0,0:0:0:0:
483,132,74382,5,12,0:0:0:0:
256,192,74524,12,0,76096,0:0:0:0:
287,144,76382,5,0,1:1:0:0:
226,144,76453,1,0,1:1:0:0:
287,144,76524,1,0,1:1:0:0:
226,144,76596,1,0,1:1:0:0:
454,146,76667,1,8,2:1:0:0:
115,290,76953,5,6,0:0:0:0:
234,291,77096,2,0,L|234:211,1,47.5
469,212,77239,5,10,0:0:0:0:
350,213,77382,2,0,L|424:214,1,47.5
236,117,77524,5,2,0:0:0:0:
19,114,77667,1,8,1:3:0:0:
346,117,77810,1,10,0:0:0:0:
468,118,77953,1,2,0:0:0:0:
346,117,78096,1,8,1:3:0:0:
24,219,78239,2,0,L|81:220,1,47.5,2|0,0:0|0:0,0:0:0:0:
257,216,78382,1,10,0:0:0:0:
257,216,78524,1,0,0:0:0:0:
468,214,78667,1,2,0:0:0:0:
132,215,78810,1,8,0:3:0:0:
257,216,78953,1,10,0:0:0:0:
257,216,79095,1,0,0:0:0:0:
15,214,79239,5,8,0:3:0:0:
215,113,79382,2,0,L|150:113,2,56.9999982604981,2|0|8,0:0|0:0|0:0,0:0:0:0:
489,218,79667,5,0,0:0:0:0:
293,113,79810,2,0,L|358:113,2,56.9999982604981,2|0|8,0:0|0:0|0:3,0:0:0:0:
15,214,80096,5,8,0:0:0:0:
215,113,80239,2,0,L|150:113,2,56.9999982604981,2|0|8,0:0|0:0|0:3,0:0:0:0:
489,218,80524,5,0,0:0:0:0:
293,113,80667,2,0,L|358:113,1,56.9999982604981,10|0,0:0|0:0,0:0:0:0:
137,188,80810,1,0,0:0:0:0:
259,259,80953,2,0,L|259:179,1,47.5
419,259,81096,2,0,L|486:260,1,47.5,8|0,0:3|0:0,0:0:0:0:
257,112,81239,1,8,0:0:0:0:
132,112,81382,1,0,0:0:0:0:
397,290,81524,5,6,0:0:0:0:
278,291,81667,2,0,L|278:211,1,47.5
43,212,81810,5,10,0:0:0:0:
162,213,81953,2,0,L|88:214,1,47.5
276,117,82096,5,2,0:0:0:0:
493,114,82239,1,8,0:3:0:0:
166,117,82382,1,10,0:0:0:0:
44,118,82525,1,2,0:0:0:0:
276,117,82667,1,8,0:3:0:0:
153,195,82810,2,0,L|153:138,1,47.5,2|0,0:0|0:0,0:0:0:0:
346,117,82953,1,10,0:0:0:0:
468,118,83096,1,0,0:0:0:0:
346,117,83239,1,2,0:0:0:0:
44,118,83382,1,8,0:3:0:0:
346,117,83524,1,10,0:0:0:0:
346,117,83667,1,2,0:0:0:0:
215,118,83810,5,8,0:3:0:0:
463,242,83953,2,0,L|386:243,1,47.5,2|0,0:0|0:0,0:0:0:0:
257,250,84096,2,0,L|257:194,1,47.5,8|0,0:0|0:0,0:0:0:0:
95,243,84239,1,0,0:0:0:0:
463,242,84382,6,0,L|386:243,1,47.5,2|0,0:0|0:0,0:0:0:0:
257,250,84524,2,0,L|257:194,1,47.5,8|0,0:3|0:0,0:0:0:0:
89,111,84667,1,8,0:0:0:0:
218,110,84810,1,2,0:1:0:0:
417,110,84953,5,2,0:1:0:0:
417,110,85096,1,0,0:0:0:0:
159,110,85239,1,10,0:0:0:0:
417,110,85382,1,0,0:0:0:0:
417,110,85524,1,0,0:0:0:0:
30,111,85667,1,2,0:1:0:0:
417,110,85810,1,10,0:0:0:0:
291,111,85953,2,0,L|348:111,1,47.5
115,290,86096,5,6,0:0:0:0:
234,291,86239,2,0,L|234:211,1,47.5
469,212,86382,5,10,0:0:0:0:
350,213,86525,2,0,L|424:214,1,47.5
236,117,86667,5,2,0:0:0:0:
19,114,86810,1,8,0:3:0:0:
346,117,86953,1,10,0:0:0:0:
468,118,87096,1,2,0:0:0:0:
236,117,87239,1,8,0:3:0:0:
362,189,87382,2,0,L|291:189,1,47.5,2|0,0:0|0:0,0:0:0:0:
108,151,87524,1,10,0:0:0:0:
234,223,87667,1,0,0:0:0:0:
469,223,87810,1,2,0:0:0:0:
234,223,87953,1,8,0:3:0:0:
354,222,88096,1,10,0:0:0:0:
354,222,88239,1,2,0:0:0:0:
117,221,88382,5,8,0:3:0:0:
355,123,88524,2,0,L|282:122,2,56.9999982604981,2|0|8,0:0|0:0|0:0,0:0:0:0:
489,122,88810,5,0,0:0:0:0:
157,123,88953,2,0,L|230:122,2,56.9999982604981,2|0|8,0:0|0:0|0:3,0:0:0:0:
23,122,89239,5,8,0:0:0:0:
355,123,89382,2,0,L|282:122,2,56.9999982604981,2|0|8,0:0|0:0|0:3,0:0:0:0:
489,122,89667,5,0,0:0:0:0:
355,122,89810,2,0,L|355:55,1,56.9999982604981,10|0,0:0|0:0,0:0:0:0:
155,62,89953,1,0,0:0:0:0:
279,62,90096,5,0,0:0:0:0:
60,63,90239,2,0,L|-6:63,1,47.5,8|0,0:3|0:0,0:0:0:0:
280,177,90382,1,8,0:0:0:0:
415,175,90524,1,0,0:0:0:0:
165,178,90667,5,6,0:0:0:0:
151,310,90810,1,0,0:0:0:0:
58,177,90953,1,2,0:0:0:0:
44,309,91096,1,0,0:0:0:0:
312,180,91239,1,10,0:0:0:0:
58,177,91382,1,0,0:0:0:0:
187,179,91524,1,2,0:0:0:0:
58,177,91667,1,2,0:0:0:0:
344,177,91810,5,4,0:0:0:0:
358,309,91953,1,2,0:0:0:0:
235,180,92096,1,8,0:3:0:0:
249,312,92239,1,2,0:0:0:0:
369,384,92382,1,10,0:0:0:0:
66,310,92524,1,8,0:3:0:0:
185,305,92667,1,0,0:0:0:0:
133,304,92739,1,0,0:0:0:0:
185,305,92810,1,0,0:0:0:0:
454,177,92953,5,4,0:0:0:0:
325,179,93095,1,0,0:0:0:0:
454,177,93238,1,0,0:0:0:0:
468,83,93524,5,8,0:0:0:0:
185,83,93667,1,8,0:3:0:0:
171,177,93953,1,8,0:3:0:0:
422,192,94096,5,4,0:0:0:0:
408,286,94239,1,0,0:0:0:0:
292,187,94382,1,8,0:3:0:0:
278,281,94525,1,0,0:0:0:0:
143,276,94667,1,8,0:0:0:0:
408,286,94810,1,8,0:3:0:0:
277,280,94953,1,8,0:0:0:0:
14,275,95096,2,0,L|37:274,1,23.75,8|0,0:0|0:0,0:0:0:0:
350,114,95239,5,4,0:0:0:0:
361,207,95382,1,0,0:0:0:0:
148,202,95524,1,8,0:0:0:0:
448,206,95667,1,0,0:0:0:0:
162,114,95810,5,0,0:0:0:0:
151,207,95953,1,8,0:3:0:0:
288,200,96096,1,8,0:0:0:0:
75,205,96238,1,0,0:0:0:0:
207,204,96382,6,0,L|148:204,1,47.5,8|0,0:3|0:0,0:0:0:0:
347,200,96524,1,0,0:0:0:0:
336,304,96667,1,8,0:0:0:0:
57,308,96810,1,0,0:0:0:0:
174,308,96953,5,0,0:0:0:0:
186,252,97024,1,0,0:0:0:0:
226,211,97096,1,8,0:3:0:0:
282,202,97167,1,0,0:0:0:0:
117,129,97239,2,0,L|63:129,3,47.5,8|0|0|0,0:0|0:0|0:0|0:0,0:0:0:0:
304,66,97524,6,0,L|247:65,1,47.5,8|0,0:3|0:0,0:0:0:0:
68,58,97667,2,0,L|116:58,1,47.5
304,138,97810,2,0,L|250:138,3,47.5,8|0|0|0,0:0|0:0|0:0|0:0,0:0:0:0:
79,330,98096,5,0,0:0:0:0:
70,215,98239,1,8,0:3:0:0:
371,243,98382,1,8,0:0:0:0:
256,242,98524,2,0,L|314:241,1,47.5
135,244,98667,5,8,0:3:0:0:
255,321,98810,2,0,L|199:322,1,47.5
469,142,98953,1,8,0:0:0:0:
344,138,99096,2,0,L|340:81,1,47.5
198,91,99239,5,0,0:0:0:0:
75,90,99382,1,8,0:3:0:0:
314,91,99524,1,8,0:0:0:0:
437,90,99667,1,0,0:0:0:0:
196,171,99810,5,4,0:0:0:0:
437,90,99953,1,0,0:0:0:0:
196,171,100096,1,8,0:0:0:0:
316,174,100239,1,0,0:0:0:0:
261,172,100310,1,0,0:0:0:0:
440,265,100382,5,0,0:0:0:0:
383,266,100453,1,0,0:0:0:0:
195,304,100524,1,8,0:3:0:0:
252,305,100595,1,0,0:0:0:0:
442,180,100667,1,8,0:0:0:0:
435,122,100739,1,0,0:0:0:0:
401,76,100810,1,0,0:0:0:0:
344,65,100882,1,0,0:0:0:0:
191,140,100953,5,8,0:3:0:0:
247,137,101024,1,0,0:0:0:0:
191,140,101096,1,0,0:0:0:0:
247,137,101167,1,0,0:0:0:0:
102,226,101239,2,0,L|101:151,1,47.5,8|0,0:0|0:0,0:0:0:0:
41,134,101382,2,0,L|40:59,1,47.5
216,315,101524,5,0,0:0:0:0:
264,291,101596,1,0,0:0:0:0:
264,291,101667,1,8,0:3:0:0:
216,315,101739,1,0,0:0:0:0:
82,314,101810,1,8,0:0:0:0:
34,290,101882,1,0,0:0:0:0:
34,290,101953,1,0,0:0:0:0:
82,314,102025,1,0,0:0:0:0:
242,227,102096,5,8,0:3:0:0:
402,155,102167,1,0,0:0:0:0:
450,131,102239,1,0,0:0:0:0:
402,155,102310,1,0,0:0:0:0:
242,146,102382,1,8,0:0:0:0:
242,146,102453,1,0,0:0:0:0:
402,155,102524,1,0,0:0:0:0:
354,179,102596,1,0,0:0:0:0:
184,190,102667,5,0,0:0:0:0:
351,97,102738,1,0,0:0:0:0:
399,73,102810,1,8,0:3:0:0:
351,97,102881,1,0,0:0:0:0:
184,190,102953,1,8,0:0:0:0:
184,190,103024,1,0,0:0:0:0:
393,240,103095,1,0,0:0:0:0:
345,264,103167,1,0,0:0:0:0:
165,238,103239,5,8,0:3:0:0:
161,185,103310,1,0,0:0:0:0:
342,68,103382,1,0,0:0:0:0:
284,68,103453,1,0,0:0:0:0:
463,354,103524,1,8,0:0:0:0:
467,301,103595,1,0,0:0:0:0:
284,148,103667,1,0,0:0:0:0:
342,148,103738,1,0,0:0:0:0:
480,229,103810,5,8,0:0:0:0:
314,231,103882,1,0,0:0:0:0:
150,232,103953,1,8,0:3:0:0:
208,232,104024,1,0,0:0:0:0:
361,112,104096,1,8,0:0:0:0:
419,112,104167,1,0,0:0:0:0:
157,119,104239,1,8,0:0:0:0:
98,118,104310,1,0,0:0:0:0:
334,351,104382,5,4,0:0:0:0:
350,253,104524,1,6,0:1:0:0:
90,248,104667,1,0,0:0:0:0:
389,287,104810,5,12,0:0:0:0:
392,188,104952,1,6,0:1:0:0:
73,174,105095,1,0,0:0:0:0:
453,215,105239,5,12,0:0:0:0:
439,122,105382,1,6,0:1:0:0:
53,97,105524,1,0,0:0:0:0:
490,155,105668,5,12,0:0:0:0:
435,55,105810,1,6,0:1:0:0:
30,15,105952,1,0,0:0:0:0:
320,108,106096,5,12,0:0:0:0:
200,80,106239,1,6,0:1:0:0:
425,38,106382,1,0,0:0:0:0:
178,139,106524,5,12,0:0:0:0:
316,112,106667,1,6,0:1:0:0:
47,68,106810,1,0,0:0:0:0:
424,280,106953,5,12,0:0:0:0:
173,211,107096,1,6,0:1:0:0:
447,190,107239,1,0,0:0:0:0:
53,277,107382,5,12,0:0:0:0:
374,190,107525,1,6,0:1:0:0:
30,187,107668,1,0,0:0:0:0:
457,97,107810,5,12,0:0:0:0:
314,98,107953,1,8,0:3:0:0:
49,119,108096,5,8,0:0:0:0:
162,119,108239,1,8,0:3:0:0:
395,217,108382,5,8,0:0:0:0:
336,217,108524,1,8,0:3:0:0:
39,227,108667,5,12,0:0:0:0:
256,192,108810,12,0,111810,0:0:0:0:
