osu file format v14

[General]
AudioFilename: audio.mp3
AudioLeadIn: 0
PreviewTime: 76882
Countdown: 0
SampleSet: Normal
StackLeniency: 0.7
Mode: 2
LetterboxInBreaks: 0
WidescreenStoryboard: 1

[Editor]
Bookmarks: 10667,19810,28953,38096,56382,76953
DistanceSpacing: 1
BeatDivisor: 4
GridSize: 16
TimelineZoom: 1.8

[Metadata]
Title:chaos eater -IIDX edition-
TitleUnicode:chaos eater -IIDX edition-
Artist:Nekomata Master+
ArtistUnicode:猫叉Master+
Creator:Spectator
Version:Rustyy's Overdose
Source:beatmania IIDX 23 copula
Tags:Electronic Instrumental Video Game Bunnrei Chara Ster -Plus- osu_gangster Jemzuu AJamez Lacrima Myle -Rustyy International Cup CTBI CIC vii Finals No Mod NM DDR DanceDanceRevolution GITADORA NEX+AGE
BeatmapID:3178955
BeatmapSetID:1543977

[Difficulty]
HPDrainRate:5
CircleSize:4.4
OverallDifficulty:9.4
ApproachRate:9.4
SliderMultiplier:1.8
SliderTickRate:2

[Events]
//Background and Video events
0,0,"chaos eater.jpg",0,0
//Break Periods
//Storyboard Layer 0 (Background)
//Storyboard Layer 1 (Fail)
//Storyboard Layer 2 (Pass)
//Storyboard Layer 3 (Foreground)
//Storyboard Layer 4 (Overlay)
//Storyboard Sound Samples

[TimingPoints]
382,285.714285714286,4,1,2,55,1,0
2096,-100,4,1,2,55,0,0
4382,-100,4,1,2,55,0,0
5810,-100,4,1,2,55,0,0
6096,-100,4,1,2,55,0,0
8953,-100,4,1,2,55,0,0
9524,-100,4,1,2,55,0,0
10667,-100,4,1,2,55,0,0
10989,-100,4,1,2,10,0,0
11024,-100,4,1,2,55,0,0
11560,-100,4,1,2,10,0,0
11595,-100,4,1,2,55,0,0
12132,-100,4,1,2,10,0,0
12167,-100,4,1,2,55,0,0
12560,-100,4,1,2,10,0,0
12595,-100,4,1,2,55,0,0
12703,-100,4,1,2,10,0,0
12738,-100,4,1,2,55,0,0
12846,-100,4,1,2,10,0,0
12881,-100,4,1,2,55,0,0
12989,-100,4,1,2,25,0,0
13239,-100,4,1,2,55,0,0
13274,-100,4,1,2,25,0,0
13524,-100,4,1,2,55,0,0
13846,-100,4,1,2,10,0,0
13882,-100,4,1,2,55,0,0
15239,-100,4,1,4,55,0,0
17096,-100,4,1,4,55,0,0
17132,-100,4,1,4,10,0,0
17239,-100,4,1,4,55,0,0
17275,-100,4,1,4,10,0,0
17382,-100,4,1,4,55,0,0
17418,-100,4,1,4,10,0,0
17524,-100,4,1,4,55,0,0
18524,-100,4,1,1,55,0,0
19810,-100,4,1,1,65,0,0
20953,-100,4,1,9,65,0,0
21024,-100,4,1,1,65,0,0
22096,-100,4,1,9,65,0,0
22167,-100,4,1,1,65,0,0
23239,-100,4,1,9,65,0,0
23310,-100,4,1,1,65,0,0
24382,-100,4,1,9,65,0,0
24453,-100,4,1,1,65,0,0
25524,-100,4,1,9,65,0,0
25595,-100,4,1,1,65,0,0
26667,-100,4,1,9,65,0,0
26738,-100,4,1,1,65,0,0
28953,-90.9090909090909,4,1,21,80,0,1
29096,-90.9090909090909,4,1,1,80,0,0
38382,-90.9090909090909,4,1,1,80,0,0
38953,-90.9090909090909,4,1,1,80,0,0
39524,-90.9090909090909,4,1,1,80,0,0
40096,-90.9090909090909,4,1,1,80,0,0
40667,-90.9090909090909,4,1,1,80,0,0
41239,-90.9090909090909,4,1,1,80,0,0
46953,-90.9090909090909,4,1,1,80,0,0
47239,-90.9090909090909,4,1,1,80,0,0
49382,-83.3333333333333,4,1,1,80,0,0
49524,-90.9090909090909,4,1,1,80,0,0
56382,-90.9090909090909,4,1,10,70,0,0
64382,-90.9090909090909,4,1,1,70,0,0
65524,-90.9090909090909,4,1,1,70,0,0
66667,-90.9090909090909,4,1,10,70,0,0
67382,-90.9090909090909,4,1,1,70,0,0
68953,-90.9090909090909,4,1,10,70,0,0
69382,-90.9090909090909,4,1,1,70,0,0
70096,-90.9090909090909,4,1,1,70,0,1
70167,-90.9090909090909,4,1,1,70,0,0
70953,-90.9090909090909,4,1,1,70,0,1
71024,-90.9090909090909,4,1,1,70,0,0
71810,-90.9090909090909,4,1,1,75,0,1
71882,-90.9090909090909,4,1,1,75,0,0
72667,-90.9090909090909,4,1,1,80,0,1
72739,-90.9090909090909,4,1,1,80,0,0
73524,-90.9090909090909,4,1,1,85,0,1
73596,-90.9090909090909,4,1,1,85,0,0
74382,-90.9090909090909,4,1,20,85,0,1
74453,-90.9090909090909,4,1,1,85,0,0
76382,-90.9090909090909,4,1,77,60,0,0
76667,-90.9090909090909,4,1,1,60,0,0
76953,-90.9090909090909,4,1,1,90,0,1
79239,-90.9090909090909,4,1,1,90,0,1
79382,-90.9090909090909,4,1,66,90,0,1
79453,-90.9090909090909,4,1,1,90,0,1
79667,-90.9090909090909,4,1,1,90,0,1
79810,-90.9090909090909,4,1,66,90,0,1
79882,-90.9090909090909,4,1,1,90,0,1
80096,-90.9090909090909,4,1,1,90,0,1
80239,-90.9090909090909,4,1,66,90,0,1
80310,-90.9090909090909,4,1,1,90,0,1
80524,-90.9090909090909,4,1,1,90,0,1
80667,-90.9090909090909,4,1,66,90,0,1
80739,-90.9090909090909,4,1,1,90,0,1
80953,-90.9090909090909,4,1,1,90,0,1
83953,-90.9090909090909,4,1,66,90,0,1
84024,-90.9090909090909,4,1,1,90,0,1
84382,-90.9090909090909,4,1,66,90,0,1
84453,-90.9090909090909,4,1,1,90,0,1
88524,-90.9090909090909,4,1,66,90,0,1
88596,-90.9090909090909,4,1,1,90,0,1
88810,-90.9090909090909,4,1,1,90,0,1
88953,-90.9090909090909,4,1,66,90,0,1
89024,-90.9090909090909,4,1,1,90,0,1
89239,-90.9090909090909,4,1,1,90,0,1
89382,-90.9090909090909,4,1,66,90,0,1
89453,-90.9090909090909,4,1,1,90,0,1
89524,-76.9230769230769,4,1,1,90,0,1
89667,-90.9090909090909,4,1,1,90,0,1
89810,-90.9090909090909,4,1,66,90,0,1
89882,-90.9090909090909,4,1,1,90,0,1
89953,-90.9090909090909,4,1,1,90,0,1
95132,-90.9090909090909,4,1,1,10,0,1
95239,-90.9090909090909,4,1,66,90,0,0
95310,-90.9090909090909,4,1,1,90,0,0
104382,-90.9090909090909,4,1,1,90,0,1
104524,-90.9090909090909,4,1,66,90,0,1
104596,-90.9090909090909,4,1,1,90,0,1
104953,-90.9090909090909,4,1,66,90,0,1
105025,-90.9090909090909,4,1,1,90,0,1
105167,-90.9090909090909,4,1,1,90,0,0
105239,-90.9090909090909,4,1,1,90,0,1
105382,-90.9090909090909,4,1,66,90,0,1
105454,-90.9090909090909,4,1,1,90,0,1
105810,-90.9090909090909,4,1,66,90,0,1
105882,-90.9090909090909,4,1,1,90,0,1
106024,-90.9090909090909,4,1,1,90,0,0
106096,-90.9090909090909,4,1,1,90,0,1
106239,-90.9090909090909,4,1,66,90,0,1
106311,-90.9090909090909,4,1,1,90,0,1
106667,-90.9090909090909,4,1,66,90,0,1
106739,-90.9090909090909,4,1,1,90,0,1
106882,-90.9090909090909,4,1,1,90,0,0
106953,-90.9090909090909,4,1,1,90,0,1
107096,-90.9090909090909,4,1,66,90,0,1
107168,-90.9090909090909,4,1,1,90,0,1
107524,-90.9090909090909,4,1,66,90,0,1
107596,-90.9090909090909,4,1,1,90,0,1
107810,-90.9090909090909,4,1,1,90,0,0
108667,-90.9090909090909,4,1,22,90,0,1
108810,-90.9090909090909,4,1,1,65,0,0

[Colours]
Combo1 : 128,128,128
Combo2 : 192,192,192

[HitObjects]
137,355,810,6,0,L|73:331,1,45
266,303,953,2,0,P|312:278|248:197,1,180,8|0,0:0|0:0,0:0:0:0:
136,174,1382,1,8,0:0:0:0:
366,34,1524,5,10,1:3:0:0:
328,110,1667,1,0,0:0:0:0:
197,164,1810,1,2,0:0:0:0:
233,247,1953,1,0,0:0:0:0:
363,374,2096,2,0,L|405:83,1,270,10|8,0:0|0:0,0:0:0:0:
201,46,2667,5,2,0:0:0:0:
165,127,2810,1,0,0:0:0:0:
291,157,2953,1,10,1:3:0:0:
327,265,3096,1,0,0:0:0:0:
201,369,3239,2,0,L|136:91,1,270,10|0,0:0|0:0,0:0:0:0:
341,37,3810,5,10,0:3:0:0:
362,123,3953,1,0,0:0:0:0:
322,219,4096,1,2,0:0:0:0:
228,261,4239,1,0,0:0:0:0:
358,365,4382,2,0,L|388:78,1,270,10|8,0:0|0:0,0:0:0:0:
260,352,4953,5,0,0:0:0:0:
223,268,5096,1,0,0:0:0:0:
258,179,5239,1,8,0:3:0:0:
348,127,5382,1,0,0:0:0:0:
223,100,5524,2,0,L|128:84,1,90,8|0,0:0|0:0,0:0:0:0:
264,22,5810,2,0,L|266:76,3,45,2|2|2|2,0:2|0:2|0:2|0:2,0:0:0:0:
79,114,6096,6,0,L|67:240,1,90,2|0,0:2|0:0,0:0:0:0:
207,217,6382,2,0,L|217:320,1,90
86,358,6667,1,8,0:0:0:0:
213,323,6810,2,0,L|316:343,2,90,0|0|8,0:0|0:0|0:0,0:0:0:0:
414,346,7239,5,2,0:0:0:0:
376,251,7382,1,0,0:0:0:0:
414,154,7524,1,10,0:3:0:0:
490,99,7667,1,0,0:0:0:0:
358,56,7810,2,0,L|337:352,1,270,10|0,0:0|0:0,0:0:0:0:
115,383,8382,5,10,0:3:0:0:
187,332,8524,1,0,0:0:0:0:
212,248,8667,1,2,0:0:0:0:
178,166,8810,1,0,0:0:0:0:
55,355,8953,2,0,L|55:63,1,270,10|8,0:0|0:0,0:0:0:0:
196,76,9524,6,0,L|378:62,1,180,0|8,0:0|0:3,0:0:0:0:
248,158,9953,1,0,0:0:0:0:
376,197,10096,2,0,P|412:245|360:297,1,135,8|0,0:0|0:0,0:0:0:0:
227,351,10382,2,0,L|161:350,1,45,8|8,0:0|0:0,0:0:0:0:
341,357,10524,2,0,L|394:360,1,45,8|8,0:0|0:0,0:0:0:0:
180,285,10667,6,0,L|83:278,1,90,4|0,0:0|0:0,0:0:0:0:
208,215,10953,2,0,L|247:210,1,22.5
305,158,11096,1,0,0:0:0:0:
94,157,11239,2,0,L|85:46,1,90,8|0,0:0|0:0,0:0:0:0:
213,61,11524,2,0,L|226:21,1,22.5
145,38,11667,1,8,0:0:0:0:
343,32,11810,6,0,L|353:142,1,90
223,177,12096,1,8,0:3:0:0:
304,214,12238,1,0,0:0:0:0:
386,252,12381,1,8,0:0:0:0:
184,322,12524,6,0,L|151:319,1,22.5
87,283,12667,2,0,L|66:269,1,22.5
36,198,12810,2,0,L|36:156,1,22.5
226,125,12953,6,0,L|320:87,1,90
182,47,13239,2,0,L|153:46,1,22.5
84,90,13382,1,0,0:0:0:0:
292,137,13524,2,0,L|386:113,1,90,8|0,0:0|0:0,0:0:0:0:
252,105,13810,2,0,L|225:103,1,22.5
155,143,13953,1,8,0:0:0:0:
400,230,14096,5,0,0:0:0:0:
282,257,14239,2,0,L|263:315,1,45
318,330,14382,1,0,0:0:0:0:
194,292,14524,2,0,L|175:348,1,45
230,365,14667,1,0,0:0:0:0:
103,308,14810,2,0,L|89:254,1,45
251,212,14953,1,2,0:2:0:0:
380,187,15096,2,2,L|401:141,1,45,2|2,0:2|0:2,0:2:0:0:
214,141,15239,6,0,L|201:34,1,90,4|0,0:0|0:0,0:0:0:0:
329,25,15524,2,0,L|343:125,1,90,8|8,0:0|0:0,0:0:0:0:
214,227,15810,2,0,L|306:229,1,90,8|0,0:0|0:0,0:0:0:0:
214,227,16096,2,0,L|121:222,1,90,8|8,0:0|0:0,0:0:0:0:
326,311,16382,6,0,L|416:309,1,90,0|8,0:0|0:0,0:0:0:0:
285,240,16667,1,8,0:0:0:0:
374,234,16809,1,8,0:0:0:0:
464,229,16952,1,8,0:0:0:0:
251,288,17096,6,0,L|236:266,1,22.5,2|0,0:0|0:0,0:0:0:0:
197,178,17239,2,0,L|201:139,1,22.5,2|0,0:0|0:0,0:0:0:0:
276,69,17382,2,0,L|306:49,1,22.5,2|0,0:0|0:0,0:0:0:0:
118,49,17524,6,0,L|112:153,1,90,2|8,0:0|0:0,0:0:0:0:
241,183,17810,1,8,0:0:0:0:
111,216,17953,1,8,0:0:0:0:
246,271,18096,2,0,L|350:269,1,90
203,370,18382,2,0,L|206:268,1,90,8|0,0:0|0:0,0:0:0:0:
251,268,18596,1,0,0:0:0:0:
101,224,18667,6,0,L|56:221,1,45,2|0,0:0|0:0,0:0:0:0:
216,193,18810,1,0,0:0:0:0:
237,154,18881,1,0,0:0:0:0:
224,113,18952,1,2,0:0:0:0:
184,94,19024,1,0,0:0:0:0:
135,88,19096,2,0,L|188:78,1,45
327,62,19239,1,2,0:0:0:0:
200,27,19382,1,8,0:3:0:0:
454,50,19524,2,0,L|475:158,1,90,8|0,0:0|0:0,0:0:0:0:
251,202,19810,6,0,L|152:206,1,90,4|0,0:0|0:0,0:0:0:0:
290,288,20096,2,0,L|385:291,1,90
242,369,20382,2,0,L|232:188,1,180,8|0,0:0|0:0,0:0:0:0:
323,165,20810,1,0,0:0:0:0:
122,123,20953,6,0,L|211:122,1,90,2|0,0:0|0:2,0:0:0:0:
339,61,21239,2,0,L|347:163,1,90,8|0,0:3|0:0,0:0:0:0:
219,222,21524,1,8,0:0:0:0:
345,276,21667,1,2,0:2:0:0:
256,290,21809,1,2,0:2:0:0:
167,304,21952,1,2,0:2:0:0:
370,363,22096,6,0,P|406:353|359:259,1,180,10|0,0:1|0:0,0:0:0:0:
258,208,22524,1,0,0:0:0:0:
150,190,22667,2,0,P|122:170|171:59,1,180,8|0,0:0|0:0,0:0:0:0:
275,42,23096,1,0,0:0:0:0:
61,96,23239,5,2,0:0:0:0:
182,163,23382,2,0,L|235:158,2,45,0|0|8,0:0|0:0|0:3,0:0:0:0:
308,228,23667,2,0,L|358:228,2,45,0|0|8,0:0|0:0|0:0,0:0:0:0:
435,295,23953,2,0,L|492:294,1,45
321,343,24096,1,0,0:0:0:0:
195,308,24239,2,0,L|143:292,1,45
321,245,24382,6,0,P|360:230|318:132,1,180,10|0,0:1|0:0,0:0:0:0:
194,95,24810,1,0,0:0:0:0:
321,32,24953,2,0,L|319:135,1,90,8|0,0:0|0:0,0:0:0:0:
191,166,25239,2,0,L|95:171,1,90
399,311,25524,6,0,L|213:356,2,180,2|8|8,0:0|0:3|0:0,0:0:0:0:
456,223,26239,1,2,0:2:0:0:
422,113,26382,1,2,0:2:0:0:
338,47,26524,1,2,0:2:0:0:
131,149,26667,6,0,L|321:136,1,180,10|0,0:1|0:0,0:0:0:0:
193,196,27096,1,0,0:0:0:0:
319,268,27239,2,0,L|419:269,1,90,8|0,0:0|0:0,0:0:0:0:
284,349,27524,2,0,L|185:353,1,90
240,336,27739,1,0,0:0:0:0:
388,303,27810,6,0,L|452:296,1,45,4|0,0:0|0:0,0:0:0:0:
274,230,27953,2,0,L|271:168,1,45
331,158,28096,2,0,L|380:138,1,45,2|0,0:2|0:0,0:0:0:0:
434,103,28239,2,0,L|375:93,1,45
222,69,28382,1,2,0:2:0:0:
348,36,28524,1,8,0:3:0:0:
85,53,28667,2,0,L|80:159,1,90,8|0,0:0|0:0,0:0:0:0:
340,209,28953,6,0,L|238:204,1,99.0000030212403,4|0,0:0|0:0,0:0:0:0:
380,236,29239,2,0,L|381:342,1,99.0000030212403,8|0,0:0|0:0,0:0:0:0:
163,345,29524,1,0,0:0:0:0:
262,335,29667,1,8,1:3:0:0:
361,328,29810,1,8,0:0:0:0:
153,278,29953,6,0,P|96:249|155:160,1,198.000006042481
253,109,30382,2,0,L|152:97,1,99.0000030212403,8|0,0:0|0:0,0:0:0:0:
367,48,30667,2,0,L|423:47,2,49.5000015106202,0|0|8,0:0|0:0|0:3,0:0:0:0:
236,125,30953,2,0,L|348:122,1,99.0000030212403,8|0,0:0|0:0,0:0:0:0:
121,223,31239,5,8,0:3:0:0:
240,250,31382,2,0,L|234:357,1,99.0000030212403,0|8,0:0|0:1,0:0:0:0:
353,353,31667,1,0,0:0:0:0:
140,300,31810,2,0,L|35:303,2,99.0000030212403,0|8|8,0:0|0:3|0:0,0:0:0:0:
279,245,32239,2,0,L|229:235,1,49.5000015106202
88,177,32382,5,8,0:3:0:0:
216,140,32524,2,0,L|226:81,1,49.5000015106202
169,69,32667,1,8,0:0:0:0:
302,63,32810,2,0,L|356:66,2,49.5000015106202
435,144,33096,2,0,L|489:144,1,49.5000015106202,8|0,0:3|0:0,0:0:0:0:
307,205,33239,2,0,L|240:201,3,49.5000015106202,8|0|0|0,0:0|0:0|0:0|0:0,0:0:0:0:
71,278,33524,6,0,L|180:265,1,99.0000030212403,4|0,0:0|0:0,0:0:0:0:
311,310,33810,2,0,L|195:303,1,99.0000030212403,8|0,0:0|0:0,0:0:0:0:
426,240,34096,2,0,L|323:232,2,99.0000030212403,0|8|8,0:0|0:3|0:0,0:0:0:0:
209,182,34524,6,0,L|412:154,1,198.000006042481
305,113,34953,1,8,0:0:0:0:
435,75,35096,1,0,0:0:0:0:
227,46,35239,2,0,L|118:48,1,99.0000030212403,0|8,0:0|0:3,0:0:0:0:
268,127,35524,1,8,0:0:0:0:
314,141,35595,1,0,0:0:0:0:
342,180,35666,1,0,0:0:0:0:
341,229,35738,1,0,0:0:0:0:
159,301,35810,6,0,L|272:296,1,99.0000030212403,8|0,0:3|0:0,0:0:0:0:
396,274,36096,2,0,L|286:258,1,99.0000030212403,8|0,0:0|0:0,0:0:0:0:
69,221,36382,2,0,L|169:223,2,99.0000030212403,0|8|8,0:0|0:3|0:0,0:0:0:0:
289,186,36810,6,0,P|338:177|288:78,1,198.000006042481
158,39,37239,2,0,L|152:141,1,99.0000030212403,8|0,0:0|0:0,0:0:0:0:
371,144,37524,1,0,0:0:0:0:
382,190,37595,1,0,0:0:0:0:
357,231,37666,1,8,0:3:0:0:
310,242,37738,1,0,0:0:0:0:
145,272,37810,2,0,L|82:273,1,49.5000015106202,8|2,0:0|0:2,0:0:0:0:
275,324,37953,2,0,L|328:324,1,49.5000015106202,2|2,0:2|0:2,0:0:0:0:
97,361,38096,6,0,L|73:157,1,198.000006042481,4|8,0:0|0:0,0:0:0:0:
181,142,38524,1,0,0:0:0:0:
399,77,38667,1,0,0:2:0:0:
260,84,38810,2,0,L|260:185,2,99.0000030212403,8|8|0,0:3|0:0|0:0,0:0:0:0:
470,37,39239,6,0,L|476:244,1,198.000006042481,8|8,0:3|0:0,0:0:0:0:
377,262,39667,1,0,0:0:0:0:
159,322,39810,1,0,0:0:0:0:
288,334,39953,2,0,L|309:219,2,99.0000030212403,8|8|0,0:3|0:0|0:0,0:0:0:0:
46,359,40382,6,0,L|34:153,1,198.000006042481,8|8,0:3|0:0,0:0:0:0:
134,129,40810,1,0,0:0:0:0:
352,83,40953,1,0,0:0:0:0:
221,42,41096,2,0,L|187:141,2,99.0000030212403,8|8|0,0:3|0:0|0:0,0:0:0:0:
468,26,41524,6,0,L|468:128,1,99.0000030212403,8|0,0:3|0:0,0:0:0:0:
337,211,41810,2,0,L|445:207,1,99.0000030212403,8|0,0:0|0:0,0:0:0:0:
224,264,42096,2,0,L|108:258,1,99.0000030212403,0|8,0:0|0:3,0:0:0:0:
257,334,42382,2,0,L|364:324,1,99.0000030212403,8|0,0:0|0:0,0:0:0:0:
92,271,42667,5,4,0:0:0:0:
221,234,42810,2,0,L|271:230,1,49.5000015106202
104,191,42953,1,8,0:0:0:0:
76,151,43024,1,0,0:0:0:0:
87,104,43095,1,0,0:0:0:0:
130,82,43167,1,0,0:0:0:0:
308,45,43239,2,0,L|205:44,2,99.0000030212403,0|8|8,0:0|0:3|0:0,0:0:0:0:
358,81,43596,1,0,0:0:0:0:
308,45,43667,1,0,0:0:0:0:
97,117,43810,5,8,0:3:0:0:
217,199,43953,2,0,L|161:198,1,49.5000015106202
320,253,44096,2,0,L|431:253,1,99.0000030212403,8|0,0:0|0:0,0:0:0:0:
188,292,44382,2,0,L|159:290,1,24.7500007553101
239,239,44524,1,8,0:3:0:0:
447,201,44667,2,0,L|476:200,1,24.7500007553101,8|0,0:0|0:0,0:0:0:0:
397,152,44810,1,0,0:0:0:0:
175,101,44953,5,8,0:3:0:0:
305,56,45096,2,0,L|366:56,1,49.5000015106202
188,134,45239,2,0,L|123:133,1,49.5000015106202,8|0,0:1|0:0,0:0:0:0:
188,134,45382,2,0,L|259:134,1,49.5000015106202
400,159,45524,2,0,L|402:274,1,99.0000030212403,0|8,0:0|0:3,0:0:0:0:
351,298,45739,1,0,0:0:0:0:
187,354,45810,1,8,0:0:0:0:
142,334,45881,1,0,0:0:0:0:
121,290,45952,1,8,0:3:0:0:
133,243,46024,1,0,0:0:0:0:
291,212,46096,5,8,0:0:0:0:
304,165,46167,1,0,0:0:0:0:
287,120,46238,1,8,0:3:0:0:
245,94,46310,1,0,0:0:0:0:
80,35,46382,2,0,L|28:35,2,49.5000015106202,8|0|0,0:0|0:0|0:0,0:0:0:0:
290,63,46667,1,8,0:0:0:0:
158,99,46810,1,8,0:3:0:0:
389,172,46953,2,0,L|489:167,1,99.0000030212403,8|8,0:0|0:3,0:0:0:0:
254,107,47239,6,0,L|252:324,1,198.000006042481,4|8,0:0|0:0,0:0:0:0:
382,335,47667,1,0,0:0:0:0:
133,359,47810,1,0,0:0:0:0:
262,292,47953,1,8,0:3:0:0:
163,280,48095,1,8,0:0:0:0:
65,269,48238,1,0,0:0:0:0:
275,52,48382,6,0,L|274:263,1,198.000006042481,8|8,0:3|0:0,0:0:0:0:
145,265,48810,1,0,0:0:0:0:
393,277,48953,1,0,0:0:0:0:
264,220,49096,1,8,0:3:0:0:
362,213,49238,1,8,0:0:0:0:
461,206,49381,1,0,0:0:0:0:
253,62,49524,6,0,L|250:281,1,198.000006042481,8|8,0:3|0:0,0:0:0:0:
380,310,49953,1,0,0:0:0:0:
132,345,50096,1,0,0:0:0:0:
261,290,50239,1,8,0:3:0:0:
163,272,50381,1,8,0:0:0:0:
65,255,50524,1,0,0:0:0:0:
284,192,50667,6,0,L|286:76,1,99.0000030212403,8|0,0:3|0:0,0:0:0:0:
148,62,50953,1,8,0:0:0:0:
286,33,51096,1,0,0:0:0:0:
65,49,51239,2,0,L|171:53,1,99.0000030212403,0|8,0:0|0:3,0:0:0:0:
294,130,51524,2,0,L|191:128,1,99.0000030212403,8|0,0:0|0:0,0:0:0:0:
466,178,51810,5,4,0:0:0:0:
466,178,51953,2,0,L|411:177,1,49.5000015106202
240,320,52096,1,8,0:0:0:0:
193,305,52167,1,0,0:0:0:0:
166,264,52238,1,0,0:0:0:0:
170,216,52310,1,0,0:0:0:0:
344,178,52382,2,0,L|345:74,1,99.0000030212403,0|8,0:0|0:3,0:0:0:0:
295,79,52596,1,0,0:0:0:0:
137,40,52667,1,8,0:0:0:0:
91,57,52738,1,0,0:0:0:0:
64,98,52809,1,2,0:0:0:0:
64,146,52881,1,0,0:0:0:0:
235,175,52953,5,0,0:0:0:0:
102,268,53096,2,0,L|166:267,1,49.5000015106202,2|0,0:0|0:0,0:0:0:0:
316,343,53239,2,0,L|196:333,1,99.0000030212403
436,287,53524,2,0,L|465:285,1,24.7500007553101,2|0,0:0|0:0,0:0:0:0:
386,238,53667,1,8,0:3:0:0:
170,207,53810,2,0,L|140:206,1,24.7500007553101,10|0,0:0|0:0,0:0:0:0:
220,157,53953,1,0,0:0:0:0:
451,116,54096,5,8,0:3:0:0:
451,116,54239,2,0,L|379:115,1,49.5000015106202
225,44,54382,1,8,0:0:0:0:
180,62,54453,1,0,0:0:0:0:
157,105,54524,1,0,0:0:0:0:
166,152,54596,1,0,0:0:0:0:
338,163,54667,1,0,0:0:0:0:
351,209,54738,1,0,0:0:0:0:
333,254,54809,1,8,0:3:0:0:
291,279,54881,1,0,0:0:0:0:
126,348,54953,2,0,L|184:341,1,49.5000015106202,8|0,0:0|0:0,0:0:0:0:
339,332,55096,1,2,0:0:0:0:
121,293,55239,5,8,0:1:0:0:
76,272,55310,1,0,0:0:0:0:
56,228,55381,1,2,0:1:0:0:
68,181,55453,1,0,0:0:0:0:
243,227,55524,1,8,0:0:0:0:
196,213,55595,1,0,0:0:0:0:
170,173,55666,1,8,0:3:0:0:
178,125,55738,1,0,0:0:0:0:
344,87,55810,2,0,L|446:82,1,99.0000030212403,8|8,0:0|0:3,0:0:0:0:
176,42,56096,2,0,L|73:36,1,99.0000030212403,8|8,0:0|0:3,0:0:0:0:
442,127,56382,5,4,0:0:0:0:
240,369,56667,1,2,0:0:0:0:
193,266,56810,1,0,0:0:0:0:
241,151,56953,1,10,0:0:0:0:
341,90,57096,1,2,0:0:0:0:
201,52,57239,1,0,0:0:0:0:
102,39,57382,1,2,0:0:0:0:
241,20,57524,5,0,0:0:0:0:
273,128,57667,1,2,0:0:0:0:
233,233,57810,1,2,0:0:0:0:
139,280,57953,1,2,0:0:0:0:
278,337,58096,1,10,0:0:0:0:
180,337,58239,1,0,0:0:0:0:
322,305,58382,1,0,0:0:0:0:
420,298,58524,1,0,0:0:0:0:
89,255,58667,5,0,0:0:0:0:
287,262,58953,1,2,0:0:0:0:
322,171,59096,1,2,0:0:0:0:
286,78,59239,1,10,0:0:0:0:
191,37,59382,1,2,0:0:0:0:
329,25,59524,1,0,0:0:0:0:
428,27,59667,1,2,0:0:0:0:
289,88,59810,5,2,0:0:0:0:
289,88,59953,1,0,0:0:0:0:
150,149,60096,1,2,0:0:0:0:
150,149,60239,1,0,0:0:0:0:
290,203,60382,1,10,0:0:0:0:
290,203,60524,1,0,0:0:0:0:
151,265,60667,1,2,0:0:0:0:
151,265,60810,1,0,0:0:0:0:
435,310,60953,5,4,0:0:0:0:
236,375,61239,1,2,0:0:0:0:
198,286,61381,1,2,0:0:0:0:
233,196,61524,1,10,0:0:0:0:
321,157,61667,1,2,0:0:0:0:
183,119,61810,1,0,0:0:0:0:
84,104,61953,1,2,0:0:0:0:
227,20,62096,5,0,0:0:0:0:
245,115,62238,1,2,0:0:0:0:
199,200,62381,1,2,0:0:0:0:
109,236,62524,1,2,0:0:0:0:
248,285,62667,1,10,0:0:0:0:
248,285,62810,1,0,0:0:0:0:
386,341,62953,1,0,0:0:0:0:
386,341,63096,1,0,0:0:0:0:
92,335,63239,5,0,0:0:0:0:
289,377,63524,1,2,0:0:0:0:
378,342,63666,1,2,0:0:0:0:
416,253,63809,1,10,0:0:0:0:
379,164,63952,1,2,0:0:0:0:
238,130,64096,1,0,0:0:0:0:
337,94,64239,1,2,0:0:0:0:
112,40,64382,5,2,0:0:0:0:
112,40,64524,1,0,0:0:0:0:
251,91,64667,1,2,0:1:0:0:
251,91,64810,1,0,0:0:0:0:
390,174,64953,1,2,0:0:0:0:
291,205,65096,1,8,0:3:0:0:
152,251,65239,1,10,0:0:0:0:
152,251,65382,1,0,0:0:0:0:
383,348,65524,6,0,P|421:332|371:223,1,198.000006042481,12|0,0:0|0:0,0:0:0:0:
161,213,65953,2,0,P|118:198|163:88,1,198.000006042481,8|0,0:0|0:0,0:0:0:0:
428,50,66382,1,8,0:0:0:0:
227,93,66667,5,2,0:0:0:0:
227,93,66810,1,0,0:0:0:0:
368,169,66953,1,2,0:0:0:0:
368,169,67096,1,0,0:0:0:0:
230,236,67239,1,2,0:0:0:0:
369,293,67382,1,8,0:3:0:0:
151,330,67524,1,8,0:0:0:0:
52,333,67667,1,0,0:0:0:0:
285,286,67810,6,0,L|70:270,1,198.000006042481,12|0,0:0|0:0,0:0:0:0:
304,220,68239,2,0,L|95:192,1,198.000006042481,8|0,0:0|0:0,0:0:0:0:
379,116,68667,1,8,0:0:0:0:
181,51,68953,5,2,0:0:0:0:
181,51,69096,1,0,0:0:0:0:
321,97,69239,1,2,0:0:0:0:
181,51,69382,1,8,0:1:0:0:
181,51,69524,1,0,0:0:0:0:
42,112,69667,1,8,0:3:0:0:
266,177,69810,1,8,0:0:0:0:
365,177,69953,1,0,0:0:0:0:
75,270,70096,5,12,0:0:0:0:
174,268,70239,1,0,0:0:0:0:
75,270,70382,1,0,0:0:0:0:
272,340,70524,1,12,0:0:0:0:
183,353,70667,1,0,0:0:0:0:
94,360,70810,1,0,0:0:0:0:
381,247,70953,5,12,0:0:0:0:
272,197,71096,1,0,0:0:0:0:
381,247,71239,1,0,0:0:0:0:
168,164,71382,1,12,0:0:0:0:
266,137,71524,1,0,0:0:0:0:
365,98,71667,1,0,0:0:0:0:
48,77,71810,5,12,0:0:0:0:
167,65,71953,1,0,0:0:0:0:
48,77,72096,1,0,0:0:0:0:
276,150,72239,1,12,0:0:0:0:
167,186,72382,1,0,0:0:0:0:
59,211,72524,1,0,0:0:0:0:
429,265,72667,5,12,0:0:0:0:
295,278,72810,1,0,0:0:0:0:
429,265,72953,1,0,0:0:0:0:
181,345,73096,1,12,0:0:0:0:
305,348,73239,1,0,0:0:0:0:
429,358,73382,1,0,0:0:0:0:
33,290,73524,5,12,0:0:0:0:
162,268,73667,1,0,0:0:0:0:
33,290,73810,1,0,0:0:0:0:
488,189,73953,1,12,0:0:0:0:
359,177,74096,1,0,0:0:0:0:
488,189,74239,1,0,0:0:0:0:
32,100,74382,5,12,0:0:0:0:
256,192,74524,12,0,76096,0:0:0:0:
292,211,76382,5,0,1:1:0:0:
299,258,76453,1,0,1:1:0:0:
271,298,76524,1,0,1:1:0:0:
224,308,76596,1,0,1:1:0:0:
61,180,76667,1,8,2:1:0:0:
460,125,76953,5,6,0:0:0:0:
351,180,77096,2,0,L|417:179,1,49.5000015106202
204,221,77239,2,0,L|97:219,1,99.0000030212403,10|0,0:0|0:0,0:0:0:0:
372,293,77524,1,2,0:0:0:0:
243,330,77667,1,8,1:3:0:0:
372,293,77810,1,10,0:0:0:0:
138,268,77953,6,0,B|234:267|234:267|232:155,1,198.000006042481,2|2,0:0|0:0,0:0:0:0:
29,143,78382,2,0,L|28:38,1,99.0000030212403,10|0,0:0|0:0,0:0:0:0:
261,69,78667,1,2,0:0:0:0:
130,103,78810,1,8,0:3:0:0:
358,153,78953,2,0,L|475:149,1,99.0000030212403,10|0,0:0|0:0,0:0:0:0:
196,208,79239,5,8,0:3:0:0:
325,210,79382,2,0,L|333:274,2,49.5000015106202,2|0|8,0:0|0:0|0:0,0:0:0:0:
96,268,79667,1,0,0:0:0:0:
225,284,79810,2,0,L|233:352,2,49.5000015106202,2|0|8,0:0|0:0|0:3,0:0:0:0:
457,219,80096,1,8,0:0:0:0:
457,219,80239,2,0,L|388:216,1,49.5000015106202,2|0,0:0|0:0,0:0:0:0:
243,149,80382,6,0,L|352:136,1,99.0000030212403,8|0,0:3|0:0,0:0:0:0:
130,73,80667,2,0,L|31:62,1,99.0000030212403,10|0,0:0|0:0,0:0:0:0:
243,64,80953,2,0,L|302:63,3,49.5000015106202,0|0|8|0,0:0|0:0|0:3|0:0,0:0:0:0:
133,165,81239,2,0,L|25:149,1,99.0000030212403,8|0,0:0|0:0,0:0:0:0:
362,169,81524,5,6,0:0:0:0:
471,217,81667,2,0,L|421:215,1,49.5000015106202
227,268,81810,2,0,L|345:259,1,99.0000030212403,10|0,0:0|0:0,0:0:0:0:
77,347,82096,1,2,0:0:0:0:
196,354,82239,1,8,0:3:0:0:
77,347,82382,1,10,0:0:0:0:
317,262,82524,6,0,B|218:262|218:262|216:148,1,198.000006042481,2|2,0:0|0:0,0:0:0:0:
425,52,82953,2,0,L|305:47,1,99.0000030212403,10|0,0:0|0:0,0:0:0:0:
106,76,83239,1,2,0:0:0:0:
316,133,83382,1,8,0:3:0:0:
188,174,83524,1,10,0:0:0:0:
408,207,83667,1,2,0:0:0:0:
145,286,83810,5,8,0:3:0:0:
274,287,83953,2,0,L|263:226,2,49.5000015106202,2|0|8,0:0|0:0|0:0,0:0:0:0:
484,182,84239,1,0,0:0:0:0:
356,166,84382,2,0,L|343:108,2,49.5000015106202,2|0|8,0:0|0:0|0:3,0:0:0:0:
127,87,84667,1,8,0:0:0:0:
256,44,84810,2,0,L|201:43,1,49.5000015106202,2|0,0:1|0:0,0:0:0:0:
39,106,84953,6,0,L|143:101,1,99.0000030212403,2|0,0:1|0:0,0:0:0:0:
388,185,85239,2,0,L|284:178,1,99.0000030212403,10|0,0:0|0:0,0:0:0:0:
487,141,85524,1,0,0:0:0:0:
146,221,85667,1,2,0:1:0:0:
347,198,85810,2,0,L|347:309,1,99.0000030212403,10|0,0:0|0:0,0:0:0:0:
98,359,86096,5,6,0:0:0:0:
197,304,86239,2,0,L|138:302,1,49.5000015106202
343,267,86382,2,0,L|447:259,1,99.0000030212403,10|0,0:0|0:0,0:0:0:0:
189,197,86667,1,2,0:0:0:0:
318,178,86810,1,8,0:3:0:0:
189,197,86953,1,10,0:0:0:0:
398,113,87096,6,0,B|301:113|301:113|301:-6,1,198.000006042481,2|2,0:0|0:0,0:0:0:0:
93,62,87524,2,0,L|196:62,1,99.0000030212403,10|0,0:0|0:0,0:0:0:0:
404,87,87810,2,0,L|407:193,1,99.0000030212403,2|8,0:0|0:3,0:0:0:0:
190,200,88096,2,0,L|186:308,1,99.0000030212403,10|2,0:0|0:0,0:0:0:0:
440,303,88382,5,8,0:3:0:0:
311,246,88524,1,2,0:0:0:0:
359,238,88595,1,0,0:0:0:0:
408,230,88666,1,8,0:0:0:0:
158,199,88810,1,0,0:0:0:0:
287,133,88953,1,2,0:0:0:0:
237,126,89024,1,0,0:0:0:0:
188,119,89095,1,8,0:3:0:0:
400,65,89239,1,8,0:0:0:0:
292,29,89382,2,0,L|351:24,1,49.5000015106202,2|0,0:0|0:0,0:0:0:0:
151,49,89524,6,0,L|30:42,1,116.999994644165,8|0,0:3|0:0,0:0:0:0:
250,144,89810,2,0,L|364:137,1,99.0000030212403,10|0,0:0|0:0,0:0:0:0:
135,218,90096,2,0,L|80:217,3,49.5000015106202,0|0|8|0,0:0|0:0|0:3|0:0,0:0:0:0:
258,257,90382,2,0,L|369:253,1,99.0000030212403,8|0,0:0|0:0,0:0:0:0:
109,324,90667,5,6,0:0:0:0:
16,270,90810,2,0,L|74:270,1,49.5000015106202
226,214,90953,2,0,L|120:211,1,99.0000030212403,2|0,0:0|0:0,0:0:0:0:
338,145,91239,1,10,0:0:0:0:
219,140,91382,1,0,0:0:0:0:
101,113,91524,1,2,0:0:0:0:
322,62,91667,1,2,0:0:0:0:
102,34,91810,6,0,L|93:155,1,99.0000030212403,4|2,0:0|0:0,0:0:0:0:
232,219,92096,2,0,L|133:237,1,99.0000030212403,8|2,0:3|0:0,0:0:0:0:
345,311,92382,1,10,0:0:0:0:
217,253,92524,1,8,0:3:0:0:
315,239,92666,1,0,0:0:0:0:
413,225,92809,1,0,0:0:0:0:
143,179,92953,5,4,0:0:0:0:
253,161,93096,2,0,L|253:103,2,49.5000015106202
43,198,93382,1,0,0:0:0:0:
151,126,93524,2,0,L|149:65,2,49.5000015106202,8|0|8,0:0|0:0|0:3,0:0:0:0:
361,204,93810,1,0,0:0:0:0:
252,132,93953,1,8,0:3:0:0:
301,127,94024,1,0,0:0:0:0:
350,122,94095,1,4,0:0:0:0:
141,76,94239,5,0,0:0:0:0:
251,33,94382,1,8,0:3:0:0:
201,30,94453,1,0,0:0:0:0:
152,28,94524,1,0,0:0:0:0:
377,59,94667,1,8,0:0:0:0:
163,140,94810,2,0,L|162:208,2,49.5000015106202,8|0|8,0:3|0:0|0:0,0:0:0:0:
21,223,95096,1,8,0:0:0:0:
376,322,95239,6,0,P|422:306|365:207,1,198.000006042481,4|8,0:0|0:0,0:0:0:0:
254,174,95667,1,0,0:0:0:0:
135,141,95810,2,0,L|133:25,1,99.0000030212403,0|8,0:0|0:3,0:0:0:0:
274,22,96096,2,0,L|385:25,1,99.0000030212403,8|0,0:0|0:0,0:0:0:0:
162,91,96382,6,0,L|101:90,1,49.5000015106202,8|0,0:3|0:0,0:0:0:0:
285,138,96524,2,0,L|338:137,1,49.5000015106202
160,213,96667,1,8,0:0:0:0:
290,230,96810,2,0,L|225:231,1,49.5000015106202
66,329,96953,1,0,0:0:0:0:
46,283,97024,1,0,0:0:0:0:
71,237,97095,1,8,0:3:0:0:
114,214,97167,1,0,0:0:0:0:
291,172,97239,2,0,L|237:164,1,49.5000015106202,8|0,0:0|0:0,0:0:0:0:
77,117,97382,2,0,L|143:113,1,49.5000015106202
301,37,97524,5,8,0:3:0:0:
315,83,97595,1,0,0:0:0:0:
293,126,97666,1,0,0:0:0:0:
247,142,97738,1,0,0:0:0:0:
423,97,97810,1,8,0:0:0:0:
437,143,97881,1,0,0:0:0:0:
415,186,97952,1,0,0:0:0:0:
369,202,98024,1,0,0:0:0:0:
193,218,98096,1,0,0:0:0:0:
146,230,98167,1,0,0:0:0:0:
118,270,98238,1,8,0:3:0:0:
122,318,98310,1,0,0:0:0:0:
300,350,98382,2,0,L|358:349,2,49.5000015106202,8|0|0,0:0|0:0|0:0,0:0:0:0:
74,297,98667,5,8,0:3:0:0:
327,267,98810,2,0,L|339:210,1,49.5000015106202
288,198,98953,1,8,0:0:0:0:
426,132,99096,2,0,L|361:129,1,49.5000015106202
212,78,99239,1,0,0:0:0:0:
83,44,99382,2,0,L|141:39,1,49.5000015106202,8|0,0:3|0:0,0:0:0:0:
296,113,99524,2,0,L|180:113,1,99.0000030212403,8|0,0:0|0:0,0:0:0:0:
456,143,99810,6,0,L|450:245,1,99.0000030212403,4|0,0:0|0:0,0:0:0:0:
225,277,100096,1,8,0:0:0:0:
354,309,100239,2,0,L|297:306,1,49.5000015106202
130,335,100382,1,0,0:0:0:0:
100,297,100453,1,0,0:0:0:0:
112,251,100524,1,8,0:3:0:0:
157,234,100596,1,0,0:0:0:0:
327,177,100667,2,0,L|387:178,1,49.5000015106202,8|0,0:0|0:0,0:0:0:0:
327,177,100810,2,0,L|265:177,1,49.5000015106202
453,110,100953,6,0,L|396:103,1,49.5000015106202,8|0,0:3|0:0,0:0:0:0:
228,95,101096,2,0,L|291:85,1,49.5000015106202
452,37,101239,1,8,0:0:0:0:
473,80,101310,1,0,0:0:0:0:
458,125,101381,1,0,0:0:0:0:
415,147,101453,1,0,0:0:0:0:
241,174,101524,1,0,0:0:0:0:
194,188,101595,1,0,0:0:0:0:
168,228,101666,1,8,0:3:0:0:
175,276,101738,1,0,0:0:0:0:
345,319,101810,2,0,L|285:318,1,49.5000015106202,8|0,0:0|0:0,0:0:0:0:
144,339,101953,1,0,0:0:0:0:
392,275,102096,5,8,0:3:0:0:
264,267,102239,1,0,0:0:0:0:
229,232,102310,1,0,0:0:0:0:
227,184,102381,1,8,0:0:0:0:
259,147,102453,1,0,0:0:0:0:
307,142,102524,1,0,0:0:0:0:
99,103,102667,1,0,0:0:0:0:
228,45,102810,1,8,0:3:0:0:
253,86,102881,1,0,0:0:0:0:
250,135,102952,1,8,0:0:0:0:
220,173,103024,1,0,0:0:0:0:
173,187,103095,1,0,0:0:0:0:
403,248,103239,5,8,0:3:0:0:
274,297,103382,2,0,L|213:297,1,49.5000015106202
175,296,103524,2,0,L|239:297,1,49.5000015106202,8|0,0:0|0:0,0:0:0:0:
274,297,103667,1,0,0:0:0:0:
26,353,103810,1,8,0:0:0:0:
156,315,103953,2,0,L|216:317,1,49.5000015106202,8|0,0:3|0:0,0:0:0:0:
254,318,104096,2,0,L|186:316,1,49.5000015106202,8|0,0:0|0:0,0:0:0:0:
156,315,104239,1,8,0:0:0:0:
404,269,104382,5,4,0:0:0:0:
286,242,104524,1,6,0:1:0:0:
167,200,104667,1,0,0:0:0:0:
437,149,104810,1,12,0:0:0:0:
317,143,104953,1,6,0:1:0:0:
437,149,105096,1,0,0:0:0:0:
167,200,105239,1,12,0:0:0:0:
286,167,105382,1,6,0:1:0:0:
404,142,105524,1,0,0:0:0:0:
136,102,105667,5,12,0:0:0:0:
256,87,105810,1,6,0:1:0:0:
47,58,105953,1,0,0:0:0:0:
295,55,106096,1,12,0:0:0:0:
176,44,106239,1,6,0:1:0:0:
424,44,106382,1,0,0:0:0:0:
178,138,106524,5,12,0:0:0:0:
297,147,106667,1,6,0:1:0:0:
49,212,106810,1,0,0:0:0:0:
296,231,106953,1,12,0:0:0:0:
395,294,107096,1,6,0:1:0:0:
49,212,107239,1,0,0:0:0:0:
433,340,107382,1,12,0:0:0:0:
433,340,107524,1,6,0:1:0:0:
49,212,107667,1,0,0:0:0:0:
326,270,107810,5,12,0:0:0:0:
326,270,107953,1,8,0:3:0:0:
115,202,108096,1,8,0:0:0:0:
115,202,108239,1,8,0:3:0:0:
313,145,108382,1,8,0:0:0:0:
411,133,108524,1,8,0:3:0:0:
26,76,108667,5,12,0:0:0:0:
256,192,108810,12,0,111810,0:0:0:0:
