osu file format v14

[General]
AudioFilename: audio.mp3
AudioLeadIn: 0
PreviewTime: 76882
Countdown: 0
SampleSet: Normal
StackLeniency: 0.7
Mode: 2
LetterboxInBreaks: 0
WidescreenStoryboard: 1

[Editor]
Bookmarks: 10667,19810,28953,38096,56382,76953,99524
DistanceSpacing: 1
BeatDivisor: 4
GridSize: 32
TimelineZoom: 1.8

[Metadata]
Title:chaos eater -IIDX edition-
TitleUnicode:chaos eater -IIDX edition-
Artist:Nekomata Master+
ArtistUnicode:猫叉Master+
Creator:Spectator
Version:Rei's Deluge
Source:beatmania IIDX 23 copula
Tags:Electronic Instrumental Video Game Bunnrei Chara Ster -Plus- osu_gangster Jemzuu AJamez Lacrima Myle -Rustyy International Cup CTBI CIC vii Finals No Mod NM DDR DanceDanceRevolution GITADORA NEX+AGE
BeatmapID:3178954
BeatmapSetID:1543977

[Difficulty]
HPDrainRate:5
CircleSize:4.5
OverallDifficulty:9.7
ApproachRate:9.7
SliderMultiplier:2
SliderTickRate:2

[Events]
//Background and Video events
0,0,"chaos eater.jpg",0,0
//Break Periods
//Storyboard Layer 0 (Background)
//Storyboard Layer 1 (Fail)
//Storyboard Layer 2 (Pass)
//Storyboard Layer 3 (Foreground)
//Storyboard Layer 4 (Overlay)
//Storyboard Sound Samples

[TimingPoints]
382,285.714285714286,4,1,2,55,1,0
2096,-100,4,1,2,55,0,0
4382,-100,4,1,2,55,0,0
5810,-100,4,1,2,55,0,0
6096,-100,4,1,2,55,0,0
8953,-100,4,1,2,55,0,0
9524,-100,4,1,2,55,0,0
10667,-100,4,1,2,55,0,0
10989,-100,4,1,2,10,0,0
11024,-100,4,1,2,55,0,0
11560,-100,4,1,2,10,0,0
11595,-100,4,1,2,55,0,0
12132,-100,4,1,2,10,0,0
12167,-100,4,1,2,55,0,0
12560,-100,4,1,2,10,0,0
12595,-100,4,1,2,55,0,0
12703,-100,4,1,2,10,0,0
12738,-100,4,1,2,55,0,0
12846,-100,4,1,2,10,0,0
12881,-100,4,1,2,55,0,0
12989,-100,4,1,2,25,0,0
13239,-100,4,1,2,55,0,0
13274,-100,4,1,2,25,0,0
13524,-100,4,1,2,55,0,0
13846,-100,4,1,2,10,0,0
13882,-100,4,1,2,55,0,0
15239,-100,4,1,4,55,0,0
17096,-100,4,1,4,55,0,0
17132,-100,4,1,4,10,0,0
17239,-100,4,1,4,55,0,0
17275,-100,4,1,4,10,0,0
17382,-100,4,1,4,55,0,0
17418,-100,4,1,4,10,0,0
17524,-100,4,1,4,55,0,0
18524,-100,4,1,1,55,0,0
19810,-100,4,1,1,65,0,0
20953,-100,4,1,9,75,0,0
21024,-100,4,1,1,65,0,0
22096,-100,4,1,9,75,0,0
22167,-100,4,1,1,65,0,0
23239,-100,4,1,9,75,0,0
23310,-100,4,1,1,65,0,0
24382,-100,4,1,9,75,0,0
24453,-100,4,1,1,65,0,0
25524,-100,4,1,9,75,0,0
25595,-100,4,1,1,65,0,0
26667,-100,4,1,9,75,0,0
26738,-100,4,1,1,65,0,0
28953,-100,4,1,21,80,0,1
29096,-100,4,1,1,80,0,0
29239,-47.6190476190476,4,1,1,80,0,0
29524,-100,4,1,1,80,0,0
31524,-47.6190476190476,4,1,1,80,0,0
31810,-100,4,1,1,80,0,0
33810,-47.6190476190476,4,1,1,80,0,0
34096,-100,4,1,1,80,0,0
36382,-47.6190476190476,4,1,1,80,0,0
36810,-100,4,1,1,80,0,0
38382,-100,4,1,1,80,0,0
38953,-100,4,1,1,80,0,0
39524,-100,4,1,1,80,0,0
40096,-100,4,1,1,80,0,0
40667,-100,4,1,1,80,0,0
41239,-100,4,1,1,80,0,0
46524,-47.6190476190476,4,1,1,80,0,0
46667,-100,4,1,1,80,0,0
46953,-100,4,1,1,80,0,0
47239,-100,4,1,1,80,0,0
55096,-43.4782608695652,4,1,1,80,0,0
55667,-100,4,1,1,80,0,0
56382,-100,4,1,10,70,0,0
64382,-100,4,1,1,70,0,0
65524,-90.9090909090909,4,1,1,70,0,0
66382,-45.4545454545455,4,1,1,70,0,0
66667,-100,4,1,10,70,0,0
67382,-100,4,1,1,70,0,0
67810,-90.9090909090909,4,1,1,70,0,0
68667,-45.4545454545455,4,1,1,70,0,0
68953,-100,4,1,10,70,0,0
69382,-100,4,1,1,70,0,0
70096,-100,4,1,1,70,0,1
70167,-100,4,1,1,70,0,0
70953,-100,4,1,1,70,0,1
71024,-100,4,1,1,70,0,0
71810,-100,4,1,1,75,0,1
71882,-100,4,1,1,75,0,0
72667,-100,4,1,1,80,0,1
72739,-100,4,1,1,80,0,0
73524,-100,4,1,1,85,0,1
73596,-100,4,1,1,85,0,0
74382,-100,4,1,20,85,0,1
74453,-100,4,1,1,85,0,0
76382,-100,4,1,77,60,0,0
76667,-50,4,1,1,85,0,0
76703,-50,4,2,1,70,0,0
76953,-100,4,1,1,90,0,1
79239,-100,4,1,1,90,0,1
79382,-100,4,1,66,90,0,1
79453,-100,4,1,1,90,0,1
79667,-100,4,1,1,90,0,1
79810,-100,4,1,66,90,0,1
79882,-100,4,1,1,90,0,1
80096,-100,4,1,1,90,0,1
80239,-100,4,1,66,90,0,1
80310,-100,4,1,1,90,0,1
80524,-100,4,1,1,90,0,1
80667,-100,4,1,66,90,0,1
80739,-100,4,1,1,90,0,1
80953,-100,4,1,1,90,0,1
83953,-100,4,1,66,90,0,1
84024,-100,4,1,1,90,0,1
84382,-100,4,1,66,90,0,1
84453,-100,4,1,1,90,0,1
85810,-40,4,1,1,90,0,1
86096,-100,4,1,1,90,0,1
88524,-100,4,1,66,90,0,1
88596,-100,4,1,1,90,0,1
88810,-100,4,1,1,90,0,1
88953,-100,4,1,66,90,0,1
89024,-100,4,1,1,90,0,1
89239,-100,4,1,1,90,0,1
89382,-100,4,1,66,90,0,1
89453,-100,4,1,1,90,0,1
89667,-100,4,1,1,90,0,1
89810,-100,4,1,66,90,0,1
89882,-100,4,1,1,90,0,1
89953,-100,4,1,1,90,0,1
95132,-100,4,1,1,10,0,1
95239,-100,4,1,66,90,0,0
95310,-100,4,1,1,90,0,0
104382,-100,4,1,1,90,0,1
104524,-100,4,1,66,90,0,1
104596,-100,4,1,1,90,0,1
104953,-100,4,1,66,90,0,1
105025,-100,4,1,1,90,0,1
105167,-100,4,1,1,90,0,0
105239,-100,4,1,1,90,0,1
105382,-100,4,1,66,90,0,1
105454,-100,4,1,1,90,0,1
105810,-100,4,1,66,90,0,1
105882,-100,4,1,1,90,0,1
106024,-100,4,1,1,90,0,0
106096,-100,4,1,1,90,0,1
106239,-100,4,1,66,90,0,1
106311,-100,4,1,1,90,0,1
106667,-100,4,1,66,90,0,1
106739,-100,4,1,1,90,0,1
106882,-100,4,1,1,90,0,0
106953,-100,4,1,1,90,0,1
107096,-100,4,1,66,90,0,1
107168,-100,4,1,1,90,0,1
107524,-100,4,1,66,90,0,1
107596,-100,4,1,1,90,0,1
107810,-100,4,1,1,90,0,0
108667,-100,4,1,22,90,0,1
108810,-100,4,1,1,65,0,0

[Colours]
Combo1 : 128,128,128
Combo2 : 192,192,192

[HitObjects]
36,366,810,6,0,L|44:301,1,50
194,274,953,2,0,L|207:167,1,100,8|0,0:0|0:0,0:0:0:0:
420,189,1239,2,0,L|412:124,1,50
258,145,1382,2,0,L|251:95,1,50,8|0,0:0|0:0,0:0:0:0:
98,139,1524,6,0,L|225:133,1,100,10|0,1:3|0:0,0:0:0:0:
414,139,1810,2,0,L|287:133,1,100,2|0,0:0|0:0,0:0:0:0:
56,288,2096,2,0,L|256:288,1,200,10|0,0:0|0:0,0:0:0:0:
131,206,2524,1,8,0:0:0:0:
381,198,2667,6,0,L|480:202,1,100,2|0,0:0|0:0,0:0:0:0:
264,231,2953,2,0,L|254:348,1,100,10|0,1:3|0:0,0:0:0:0:
38,201,3239,2,0,P|28:108|111:63,1,200,10|0,0:0|0:0,0:0:0:0:
218,66,3667,1,0,0:0:0:0:
451,233,3810,6,0,L|318:219,1,100,10|0,0:3|0:0,0:0:0:0:
240,329,4096,2,0,L|373:315,1,100,2|0,0:0|0:0,0:0:0:0:
129,194,4382,2,0,L|346:171,1,200,10|0,0:0|0:0,0:0:0:0:
438,160,4810,1,8,0:0:0:0:
194,262,4953,6,0,L|184:379,1,100
321,258,5239,2,0,L|311:375,1,100,8|0,0:3|0:0,0:0:0:0:
448,224,5524,2,0,L|333:213,1,100,8|0,0:0|0:0,0:0:0:0:
92,189,5810,2,0,L|100:124,1,50,2|2,0:2|0:2,0:0:0:0:
254,145,5953,2,0,L|261:95,1,50,2|2,0:2|0:2,0:0:0:0:
414,139,6096,6,0,L|299:128,1,100,2|0,0:2|0:0,0:0:0:0:
193,221,6382,2,0,L|78:210,1,100
315,328,6667,2,0,P|318:248|185:197,1,200,8|0,0:0|0:0,0:0:0:0:
115,181,7096,1,8,0:0:0:0:
320,64,7239,6,0,L|448:62,1,100,2|0,0:0|0:0,0:0:0:0:
192,64,7524,2,0,L|64:62,1,100,10|0,0:3|0:0,0:0:0:0:
356,264,7810,2,0,L|154:257,1,200,10|0,0:0|0:0,0:0:0:0:
281,143,8239,1,0,0:0:0:0:
31,268,8382,6,0,L|41:385,1,100,10|0,0:3|0:0,0:0:0:0:
170,202,8667,2,0,L|180:319,1,100,2|0,0:0|0:0,0:0:0:0:
390,150,8953,2,0,P|458:98|388:48,1,200,10|0,0:0|0:0,0:0:0:0:
278,45,9382,1,8,0:0:0:0:
487,233,9524,6,0,L|496:333,3,100,0|0|8|0,0:0|0:0|0:3|0:0,0:0:0:0:
365,359,10096,1,8,0:0:0:0:
147,359,10239,1,0,0:0:0:0:
365,359,10382,2,8,L|421:359,1,50
256,288,10524,2,8,L|320:288,1,50
468,239,10667,6,0,L|340:239,1,100,4|0,0:0|0:0,0:0:0:0:
227,363,10953,2,0,L|355:363,1,100
105,185,11239,1,8,0:0:0:0:
245,236,11382,2,0,L|255:353,1,100
23,350,11667,6,0,L|247:350,1,200,8|0,0:0|0:0,0:0:0:0:
87,305,12096,2,0,P|59:246|165:176,1,200,8|8,0:3|0:0,0:0:0:0:
457,92,12524,1,0,0:0:0:0:
256,192,12667,1,0,0:0:0:0:
55,92,12810,1,0,0:0:0:0:
256,256,12953,6,0,L|416:256,1,150
256,319,13239,2,0,P|203:281|255:242,1,150
406,256,13524,2,0,L|278:256,1,100,8|0,0:0|0:0,0:0:0:0:
106,256,13810,2,0,L|234:256,1,100,0|8,0:0|0:0,0:0:0:0:
438,314,14096,5,0,0:0:0:0:
318,256,14239,2,0,L|254:256,1,50
74,314,14382,1,0,0:0:0:0:
194,256,14525,2,0,L|258:256,1,50
393,256,14667,1,0,0:0:0:0:
273,204,14810,2,0,L|269:153,1,50
119,256,14953,1,2,0:2:0:0:
239,204,15096,2,2,L|243:153,1,50,2|2,0:2|0:2,0:2:0:0:
438,314,15239,6,0,L|312:308,1,100,4|0,0:0|0:0,0:0:0:0:
128,265,15524,2,0,L|254:259,1,100,8|8,0:0|0:0,0:0:0:0:
16,358,15810,2,0,L|238:345,1,200,8|8,0:0|0:0,0:0:0:0:
82,243,16239,1,8,0:0:0:0:
332,124,16382,6,0,L|342:241,1,100,0|8,0:0|0:0,0:0:0:0:
100,103,16667,2,0,L|228:103,1,100,8|8,0:0|0:0,0:0:0:0:
412,103,16953,1,8,0:0:0:0:
55,92,17096,1,2,0:0:0:0:
256,192,17239,1,2,0:0:0:0:
457,92,17382,1,2,0:0:0:0:
256,288,17524,6,0,L|96:288,1,150,2|0,0:0|0:0,0:0:0:0:
256,288,17810,2,0,L|384:288,1,100,8|8,0:0|0:0,0:0:0:0:
106,288,18096,2,0,L|96:171,1,100
229,119,18382,2,0,L|237:54,1,50,8|0,0:0|0:0,0:0:0:0:
391,75,18525,2,0,L|398:25,1,50
219,15,18667,6,0,L|155:15,1,50,2|0,0:0|0:0,0:0:0:0:
305,195,18810,1,0,0:0:0:0:
441,276,18882,1,0,0:0:0:0:
256,288,18953,2,0,L|192:288,3,50,2|0|0|0,0:0|0:0|0:0|0:0,0:0:0:0:
19,360,19239,2,0,L|147:360,1,100,2|8,0:0|0:3,0:0:0:0:
493,360,19524,1,8,0:0:0:0:
64,320,19810,6,0,L|54:203,1,100,4|0,0:0|0:0,0:0:0:0:
187,166,20096,2,0,L|177:49,1,100
430,30,20382,2,0,L|302:30,2,100,8|0|0,0:0|0:0|0:0,0:0:0:0:
192,256,20810,6,0,B|291:256|291:256|301:130,1,200,0|0,0:0|0:2,0:0:0:0:
85,155,21239,2,0,B|92:255|92:255|191:255,1,200,8|8,0:3|0:0,0:0:0:0:
457,320,21667,1,2,0:2:0:0:
256,288,21810,1,2,0:2:0:0:
457,320,21953,1,2,0:2:0:0:
256,160,22096,6,0,L|96:160,1,150,10|0,0:1|0:0,0:0:0:0:
256,160,22382,2,0,L|416:160,1,150
256,160,22667,6,0,L|246:43,1,100,8|0,0:0|0:0,0:0:0:0:
42,119,22953,2,0,P|31:72|127:37,1,150
305,117,23239,6,0,L|177:117,1,100,2|0,0:0|0:0,0:0:0:0:
201,67,23453,1,0,0:0:0:0:
49,275,23524,2,0,L|177:275,1,100,8|0,0:3|0:0,0:0:0:0:
152,225,23738,1,0,0:0:0:0:
363,275,23810,2,0,L|491:275,1,100,8|0,0:0|0:0,0:0:0:0:
466,225,24024,1,0,0:0:0:0:
305,117,24096,2,0,L|177:117,1,100
448,320,24382,6,0,L|456:220,1,100,10|0,0:1|0:0,0:0:0:0:
326,184,24667,2,0,L|454:184,1,100
184,231,24953,1,8,0:0:0:0:
314,236,25096,2,0,L|322:136,1,100
121,156,25382,6,0,P|52:118|121:60,1,200
391,156,25810,2,0,P|460:118|391:60,1,200,8|8,0:3|0:0,0:0:0:0:
55,320,26239,1,2,0:2:0:0:
256,288,26382,1,2,0:2:0:0:
55,320,26525,1,2,0:2:0:0:
320,320,26667,6,0,P|380:297|347:218,1,150,10|0,0:1|0:0,0:0:0:0:
192,320,26953,2,0,P|132:297|165:218,1,150
306,111,27239,2,0,L|178:111,1,100,8|0,0:0|0:0,0:0:0:0:
468,350,27524,2,0,L|476:285,1,50
298,190,27667,2,0,L|290:125,1,50
116,53,27810,6,0,L|52:53,1,50,4|0,0:0|0:0,0:0:0:0:
202,233,27953,1,0,0:0:0:0:
338,314,28025,1,0,0:0:0:0:
153,326,28096,2,0,L|89:326,3,50,2|0|0|0,0:2|0:0|0:0|0:0,0:0:0:0:
256,352,28382,2,0,L|384:352,1,100,2|8,0:2|0:3,0:0:0:0:
16,363,28667,1,8,0:0:0:0:
356,213,28953,6,0,L|196:213,1,150,4|0,0:0|0:0,0:0:0:0:
356,149,29239,2,0,L|132:149,1,209.999993591309,8|0,0:0|0:0,0:0:0:0:
361,347,29524,2,0,L|369:247,1,100,0|8,0:0|1:3,0:0:0:0:
152,223,29810,1,8,0:0:0:0:
416,64,29953,6,0,L|288:64,1,100,0|8,0:0|0:3,0:0:0:0:
175,152,30239,2,0,L|303:152,1,100,0|8,0:0|0:0,0:0:0:0:
61,355,30524,1,0,0:0:0:0:
275,152,30667,2,0,L|267:87,1,50
201,78,30810,1,8,0:3:0:0:
416,22,30953,2,0,L|316:22,1,100,8|0,0:0|0:0,0:0:0:0:
58,319,31239,6,0,P|52:267|152:220,1,150,8|0,0:3|0:0,0:0:0:0:
273,152,31524,2,0,L|49:152,1,209.999993591309,8|0,0:1|0:0,0:0:0:0:
275,357,31810,2,0,L|283:257,1,100,0|8,0:0|0:3,0:0:0:0:
496,147,32096,1,8,0:0:0:0:
371,102,32239,2,0,L|363:37,1,50
202,310,32382,5,8,0:3:0:0:
327,265,32525,2,0,L|256:265,1,50
115,265,32667,1,8,0:0:0:0:
240,176,32810,2,0,L|169:176,1,50
366,73,32953,2,0,L|494:73,1,100,0|8,0:0|0:3,0:0:0:0:
256,131,33239,1,8,0:0:0:0:
466,73,33382,1,0,0:0:0:0:
156,213,33524,6,0,L|316:213,1,150,4|0,0:0|0:0,0:0:0:0:
156,149,33810,2,0,L|380:149,1,209.999993591309,8|0,0:0|0:0,0:0:0:0:
154,353,34096,2,0,L|146:253,1,100,0|8,0:0|0:3,0:0:0:0:
365,253,34382,1,8,0:0:0:0:
147,76,34524,6,0,L|19:76,1,100,0|8,0:0|0:3,0:0:0:0:
178,167,34810,2,0,L|50:167,1,100,0|8,0:0|0:0,0:0:0:0:
312,303,35096,1,0,0:0:0:0:
78,167,35239,1,0,0:0:0:0:
198,118,35382,1,8,0:3:0:0:
434,167,35524,2,0,L|371:167,1,50,8|0,0:0|0:0,0:0:0:0:
198,118,35667,2,0,L|148:118,1,50
334,167,35810,6,0,L|462:167,1,100,8|0,0:3|0:0,0:0:0:0:
178,167,36096,2,0,L|50:167,1,100,8|0,0:0|0:0,0:0:0:0:
361,149,36382,2,0,L|151:149,2,209.999993591309,0|8|8,0:0|0:3|0:0,0:0:0:0:
111,366,36810,6,0,L|103:266,1,100,0|8,0:0|0:3,0:0:0:0:
320,125,37096,2,0,L|312:60,1,50
162,272,37239,2,0,L|154:207,1,50,8|0,0:0|0:0,0:0:0:0:
80,195,37382,2,0,L|72:130,1,50
256,64,37524,6,0,L|320:64,1,50
230,158,37667,2,0,L|166:158,1,50,8|0,0:3|0:0,0:0:0:0:
407,330,37810,2,0,L|415:265,1,50,8|2,0:0|0:2,0:0:0:0:
238,262,37953,2,0,L|230:197,1,50,2|2,0:2|0:2,0:0:0:0:
57,383,38096,6,0,L|29:170,1,200,4|8,0:0|0:0,0:0:0:0:
337,154,38524,2,0,L|330:104,1,50
175,154,38667,2,0,L|161:253,1,100,0|8,0:2|0:3,0:0:0:0:
481,184,38953,1,8,0:0:0:0:
57,383,39096,6,0,L|29:170,1,200
354,192,39524,1,8,0:0:0:0:
224,191,39667,2,0,L|231:141,1,50
386,191,39810,2,0,L|400:290,1,100,0|8,0:0|0:3,0:0:0:0:
112,290,40096,1,8,0:0:0:0:
455,383,40239,6,0,L|483:170,1,200
112,290,40667,2,0,L|126:191,1,100,8|0,0:0|0:0,0:0:0:0:
256,160,40953,2,0,L|263:110,1,50
61,112,41096,2,0,L|75:13,1,100,8|8,0:3|0:0,0:0:0:0:
455,383,41382,6,0,L|483:170,1,200
112,290,41810,2,0,L|126:191,1,100,8|0,0:0|0:0,0:0:0:0:
386,191,42096,2,0,L|400:290,1,100,0|8,0:0|0:3,0:0:0:0:
30,184,42382,2,0,L|51:357,1,150,8|0,0:0|0:0,0:0:0:0:
256,320,42667,5,4,0:0:0:0:
386,239,42810,2,0,L|322:239,1,50
193,99,42953,2,0,L|257:99,1,50,8|0,0:0|0:0,0:0:0:0:
319,99,43096,2,0,L|255:99,1,50
126,239,43239,6,0,L|229:239,1,100,0|8,0:0|0:3,0:0:0:0:
96,155,43524,2,0,L|160:155,1,50,8|0,0:0|0:0,0:0:0:0:
319,99,43667,2,0,L|269:99,1,50
193,99,43810,5,8,0:3:0:0:
416,155,43953,2,0,L|352:155,1,50
193,99,44096,2,0,L|243:99,1,50,8|0,0:0|0:0,0:0:0:0:
416,155,44239,1,0,0:0:0:0:
173,198,44382,2,0,L|273:198,1,100,0|8,0:0|0:3,0:0:0:0:
30,319,44667,2,0,L|222:319,1,150,8|0,0:0|0:0,0:0:0:0:
256,320,44953,5,8,0:3:0:0:
126,239,45096,2,0,L|190:239,1,50
319,99,45239,2,0,L|255:99,1,50,8|0,0:1|0:0,0:0:0:0:
193,99,45382,2,0,L|257:99,1,50
386,239,45525,6,0,L|283:239,1,100,0|8,0:0|0:3,0:0:0:0:
416,155,45810,2,0,L|352:155,1,50,8|0,0:0|0:0,0:0:0:0:
193,99,45953,1,8,0:3:0:0:
319,99,46096,6,0,L|258:99,1,50,8|0,0:0|0:0,0:0:0:0:
96,155,46239,2,0,L|157:155,1,50,8|0,0:3|0:0,0:0:0:0:
222,198,46382,2,0,L|161:198,1,50,8|0,0:0|0:0,0:0:0:0:
381,151,46524,2,0,B|172:151,1,209.999993591309,0|8,0:0|0:3,0:0:0:0:
121,151,46739,2,0,L|176:151,1,50,0|8,0:0|0:3,0:0:0:0:
391,151,46953,2,0,L|341:151,1,50,8|0,0:0|0:0,0:0:0:0:
191,153,47096,1,0,0:0:0:0:
455,383,47239,6,0,L|483:170,1,200,4|8,0:0|0:0,0:0:0:0:
175,154,47667,2,0,L|182:104,1,50
337,154,47810,2,0,L|351:253,1,100,0|8,0:0|0:3,0:0:0:0:
31,184,48096,1,8,0:0:0:0:
455,383,48239,6,0,L|483:170,1,200
158,192,48667,1,8,0:0:0:0:
288,191,48810,2,0,L|281:141,1,50
126,191,48953,2,0,L|112:290,1,100,0|8,0:0|0:3,0:0:0:0:
400,290,49239,1,8,0:0:0:0:
57,383,49382,6,0,L|29:170,1,200
400,290,49810,2,0,L|386:191,1,100,8|0,0:0|0:0,0:0:0:0:
256,160,50096,2,0,L|249:110,1,50
451,112,50239,2,0,L|437:13,1,100,8|8,0:3|0:0,0:0:0:0:
57,383,50525,6,0,L|29:170,1,200
400,290,50953,2,0,L|386:191,1,100,8|0,0:0|0:0,0:0:0:0:
126,191,51239,2,0,L|112:290,1,100,0|8,0:0|0:3,0:0:0:0:
482,184,51525,2,0,L|461:357,1,150,8|0,0:0|0:0,0:0:0:0:
256,320,51810,5,4,0:0:0:0:
127,320,51953,2,0,L|63:320,1,50
204,325,52096,2,0,L|268:325,1,50,8|0,0:0|0:0,0:0:0:0:
77,320,52239,2,0,L|27:320,1,50
204,325,52382,2,0,L|304:325,1,100,0|8,0:0|0:3,0:0:0:0:
435,320,52667,2,0,L|485:320,1,50,8|0,0:0|0:0,0:0:0:0:
306,256,52810,2,0,L|256:256,2,50,2|0|0,0:0|0:0|0:0,0:0:0:0:
77,320,53096,6,0,L|27:320,1,50,2|0,0:0|0:0,0:0:0:0:
206,256,53239,2,0,L|256:256,1,50
77,320,53382,1,0,0:0:0:0:
306,256,53524,2,0,L|434:256,1,100,2|8,0:0|0:3,0:0:0:0:
206,256,53810,2,0,L|32:256,1,150,10|0,0:0|0:0,0:0:0:0:
256,320,54096,5,8,0:3:0:0:
385,320,54239,2,0,L|449:320,1,50
308,325,54382,2,0,L|244:325,1,50,8|0,0:0|0:0,0:0:0:0:
435,320,54525,2,0,L|485:320,1,50
308,325,54668,2,0,L|208:325,1,100,0|8,0:0|0:3,0:0:0:0:
77,320,54953,2,0,L|27:320,1,50,8|0,0:0|0:0,0:0:0:0:
206,256,55096,6,0,L|480:256,1,230.000004386902,2|8,0:0|0:1,0:0:0:0:
486,257,55310,1,0,0:0:0:0:
306,256,55382,2,0,L|32:256,1,230.000004386902,2|8,0:1|0:0,0:0:0:0:
26,257,55596,1,0,0:0:0:0:
203,138,55667,6,0,L|253:138,1,50,8|0,0:3|0:0,0:0:0:0:
121,60,55810,1,8,0:0:0:0:
391,60,55953,1,8,0:3:0:0:
121,60,56096,2,0,L|249:60,1,100,8|8,0:0|0:3,0:0:0:0:
448,64,56382,6,0,B|481:158|481:158|447:63,1,200,4|2,0:0|0:0,0:0:0:0:
337,52,56810,1,0,0:0:0:0:
127,140,56953,1,10,0:0:0:0:
237,130,57096,1,2,0:0:0:0:
287,246,57239,1,0,0:0:0:0:
237,130,57382,1,2,0:0:0:0:
127,140,57524,6,0,L|15:134,1,100,0|2,0:0|0:0,0:0:0:0:
256,288,57810,2,0,L|368:282,1,100,2|2,0:0|0:0,0:0:0:0:
89,354,58096,2,0,B|188:352|188:352|206:150|206:150|319:143,1,400,10|0,0:0|0:0,0:0:0:0:
311,97,58953,5,2,0:0:0:0:
201,98,59096,1,2,0:0:0:0:
451,205,59239,1,10,0:0:0:0:
341,195,59382,1,2,0:0:0:0:
291,312,59525,1,0,0:0:0:0:
341,195,59668,1,2,0:0:0:0:
96,192,59810,6,0,L|224:192,1,100,2|0,0:0|0:0,0:0:0:0:
249,192,60024,1,0,0:0:0:0:
416,192,60096,2,0,L|288:192,1,100,2|0,0:0|0:0,0:0:0:0:
263,192,60310,1,0,0:0:0:0:
96,192,60382,2,0,L|32:192,2,50,10|0|0,0:0|0:0|0:0,0:0:0:0:
316,192,60667,2,0,L|444:192,1,100,2|0,0:0|0:0,0:0:0:0:
64,64,60953,6,0,B|31:158|31:158|65:63,1,200,4|2,0:0|0:0,0:0:0:0:
175,52,61381,1,2,0:0:0:0:
395,224,61524,1,10,0:0:0:0:
445,340,61667,1,2,0:0:0:0:
395,224,61810,1,0,0:0:0:0:
285,234,61953,1,2,0:0:0:0:
496,51,62096,6,0,L|368:51,1,100,0|2,0:0|0:0,0:0:0:0:
176,199,62382,2,0,L|304:199,1,100,2|2,0:0|0:0,0:0:0:0:
64,320,62667,1,10,0:0:0:0:
364,106,62810,2,0,B|265:104|265:104|256:208|256:208|152:206,1,300
167,289,63524,5,2,0:0:0:0:
277,290,63667,1,2,0:0:0:0:
61,180,63810,1,10,0:0:0:0:
11,296,63953,1,2,0:0:0:0:
61,180,64096,1,0,0:0:0:0:
171,190,64239,1,2,0:0:0:0:
416,192,64382,6,0,L|424:127,1,50,2|0,0:0|0:0,0:0:0:0:
347,112,64524,2,0,L|339:47,1,50
192,32,64667,2,0,L|128:32,1,50,2|0,0:1|0:0,0:0:0:0:
320,32,64810,2,0,L|384:32,1,50
192,160,64953,2,0,L|320:160,1,100,2|8,0:0|0:3,0:0:0:0:
49,360,65239,1,10,0:0:0:0:
463,360,65524,6,0,B|353:360|353:360|462:360,1,220.000006713867,12|0,0:0|0:0,0:0:0:0:
241,361,65953,2,0,B|351:361|351:361|241:361,1,220.000006713867,8|0,0:0|0:0,0:0:0:0:
463,360,66382,2,0,L|235:360,1,220.000006713867,8|0,0:0|0:0,0:0:0:0:
365,291,66667,6,0,L|373:191,1,100,2|0,0:0|0:0,0:0:0:0:
496,167,66953,1,2,0:0:0:0:
256,192,67096,2,0,L|248:92,1,100,0|2,0:0|0:0,0:0:0:0:
117,77,67382,2,0,L|53:77,1,50,8|0,0:3|0:0,0:0:0:0:
256,32,67524,2,0,L|384:32,1,100,8|0,0:0|0:0,0:0:0:0:
49,360,67810,6,0,B|159:360|159:360|50:360,1,220.000006713867,12|0,0:0|0:0,0:0:0:0:
271,361,68239,2,0,B|161:361|161:361|271:361,1,220.000006713867,8|0,0:0|0:0,0:0:0:0:
49,360,68668,2,0,L|277:360,1,220.000006713867,8|0,0:0|0:0,0:0:0:0:
147,291,68953,6,0,L|139:191,1,100,2|0,0:0|0:0,0:0:0:0:
16,167,69239,1,2,0:0:0:0:
288,96,69382,1,8,0:1:0:0:
79,64,69524,2,0,L|207:64,1,100,0|8,0:0|0:3,0:0:0:0:
433,64,69810,2,0,L|305:64,1,100,8|0,0:0|0:0,0:0:0:0:
116,352,70096,5,12,0:0:0:0:
256,311,70239,2,0,L|264:211,1,100
16,227,70524,1,12,0:0:0:0:
156,186,70667,2,0,L|164:86,1,100
396,352,70953,5,12,0:0:0:0:
256,311,71096,2,0,L|248:211,1,100
496,227,71381,1,12,0:0:0:0:
356,186,71524,2,0,L|348:86,1,100
119,146,71810,6,0,L|247:146,1,100,12|0,0:0|0:0,0:0:0:0:
88,71,72096,1,0,0:0:0:0:
393,146,72239,2,0,L|265:146,1,100,12|0,0:0|0:0,0:0:0:0:
424,71,72525,1,0,0:0:0:0:
107,325,72667,5,12,0:0:0:0:
226,304,72810,1,0,0:0:0:0:
16,168,72953,1,0,0:0:0:0:
405,325,73096,1,12,0:0:0:0:
286,304,73239,1,0,0:0:0:0:
496,168,73382,1,0,0:0:0:0:
46,246,73524,5,12,0:0:0:0:
256,192,73667,1,0,0:0:0:0:
466,246,73810,1,0,0:0:0:0:
128,128,73953,1,12,0:0:0:0:
384,128,74096,1,0,0:0:0:0:
108,263,74239,1,0,0:0:0:0:
404,263,74382,5,12,0:0:0:0:
256,192,74524,12,0,76096,0:0:0:0:
92,189,76382,6,0,L|100:124,1,50,0|0,1:1|1:1,0:0:0:0:
254,145,76525,2,0,L|261:95,1,50,0|0,1:1|1:1,0:0:0:0:
413,139,76667,2,0,L|420:189,1,50,8|0,2:1|0:0,0:0:0:0:
67,340,76953,6,0,L|259:340,1,150,6|0,0:0|0:0,0:0:0:0:
445,340,77239,2,0,L|320:340,1,100,10|0,0:0|0:0,0:0:0:0:
96,224,77524,1,2,0:0:0:0:
320,128,77667,2,0,L|384:128,3,33.3333333333333,8|0|0|10,1:3|0:0|0:0|0:0,0:0:0:0:
110,76,77953,1,2,0:0:0:0:
320,288,78096,5,8,1:3:0:0:
192,288,78239,1,2,0:0:0:0:
448,288,78382,1,10,0:0:0:0:
192,288,78525,1,0,0:0:0:0:
413,258,78667,2,0,L|421:158,1,100,2|8,0:0|0:3,0:0:0:0:
92,158,78953,1,10,0:0:0:0:
231,136,79096,2,0,L|239:36,1,100,0|8,0:0|0:3,0:0:0:0:
475,302,79382,6,0,L|470:244,1,50,2|0,0:0|0:0,0:0:0:0:
310,157,79524,2,0,L|302:57,1,100,8|0,0:0|0:0,0:0:0:0:
37,302,79810,2,0,L|42:244,1,50,2|0,0:0|0:0,0:0:0:0:
202,157,79953,2,0,L|210:57,1,100,8|8,0:3|0:0,0:0:0:0:
475,302,80239,6,0,L|470:244,1,50,2|0,0:0|0:0,0:0:0:0:
310,157,80382,2,0,L|302:57,1,100,8|0,0:3|0:0,0:0:0:0:
37,302,80667,1,10,0:0:0:0:
167,211,80810,1,0,0:0:0:0:
475,302,80953,1,0,0:0:0:0:
256,320,81096,2,0,L|192:320,2,33.3333333333333,8|0|0,0:3|0:0|0:0,0:0:0:0:
384,320,81239,2,0,L|256:320,1,100,8|0,0:0|0:0,0:0:0:0:
21,331,81524,6,0,P|24:264|115:230,1,150,6|0,0:0|0:0,0:0:0:0:
288,160,81810,2,0,L|160:160,1,100,10|0,0:0|0:0,0:0:0:0:
448,352,82096,1,2,0:0:0:0:
224,128,82239,2,0,L|160:128,3,33.3333333333333,8|0|0|10,0:3|0:0|0:0|0:0,0:0:0:0:
399,128,82524,1,2,0:0:0:0:
93,280,82667,5,8,0:3:0:0:
213,222,82810,2,0,L|149:222,1,50,2|0,0:0|0:0,0:0:0:0:
16,224,82953,2,0,L|153:224,1,100,10|0,0:0|0:0,0:0:0:0:
396,224,83239,2,0,L|496:224,1,100,2|8,0:0|0:3,0:0:0:0:
222,279,83524,2,0,L|217:221,1,50,10|0,0:0|0:0,0:0:0:0:
57,134,83667,2,0,L|49:34,1,100,2|8,0:0|0:3,0:0:0:0:
290,279,83953,6,0,L|295:221,1,50,2|0,0:0|0:0,0:0:0:0:
455,134,84096,2,0,L|463:34,1,100,8|0,0:0|0:0,0:0:0:0:
202,327,84382,2,0,L|197:269,1,50,2|0,0:0|0:0,0:0:0:0:
37,182,84524,2,0,L|29:82,1,100,8|8,0:3|0:0,0:0:0:0:
310,327,84810,2,0,L|315:269,1,50,2|0,0:1|0:0,0:0:0:0:
475,182,84953,6,0,L|357:182,1,100,2|0,0:1|0:0,0:0:0:0:
143,188,85239,2,0,L|207:188,1,50,10|0,0:0|0:0,0:0:0:0:
32,96,85382,2,0,L|160:96,1,100
369,188,85667,2,0,L|305:188,1,50,2|0,0:1|0:0,0:0:0:0:
480,96,85810,2,0,L|213:96,1,250,10|0,0:0|0:0,0:0:0:0:
480,288,86096,6,0,L|288:288,1,150,6|0,0:0|0:0,0:0:0:0:
132,288,86382,2,0,L|32:288,1,100,10|0,0:0|0:0,0:0:0:0:
330,288,86667,1,2,0:0:0:0:
132,288,86810,2,0,L|99:288,3,33.3333333333333,8|0|0|10,0:3|0:0|0:0|0:0,0:0:0:0:
413,288,87096,1,2,0:0:0:0:
163,191,87239,5,8,0:3:0:0:
35,191,87382,1,2,0:0:0:0:
291,191,87525,1,10,0:0:0:0:
35,191,87668,1,0,0:0:0:0:
262,128,87810,2,0,L|390:128,1,100,2|8,0:0|0:3,0:0:0:0:
150,128,88096,1,10,0:0:0:0:
387,354,88239,6,0,L|395:254,1,100,2|8,0:0|0:3,0:0:0:0:
166,173,88524,2,0,L|230:173,1,50,2|0,0:0|0:0,0:0:0:0:
58,358,88667,2,0,L|50:258,1,100,8|0,0:0|0:0,0:0:0:0:
346,173,88953,2,0,L|282:173,1,50,2|0,0:0|0:0,0:0:0:0:
454,358,89096,2,0,L|462:258,1,100,8|8,0:3|0:0,0:0:0:0:
166,173,89382,2,0,L|230:173,1,50,2|0,0:0|0:0,0:0:0:0:
58,358,89524,6,0,L|50:258,1,100,8|0,0:3|0:0,0:0:0:0:
256,96,89810,1,10,0:0:0:0:
136,88,89953,1,0,0:0:0:0:
376,88,90096,1,0,0:0:0:0:
136,88,90239,1,8,0:3:0:0:
169,88,90286,1,0,0:0:0:0:
202,88,90334,1,0,0:0:0:0:
376,88,90382,2,0,L|266:84,1,100,8|0,0:0|0:0,0:0:0:0:
496,354,90667,6,0,L|305:347,1,150,6|0,0:0|0:0,0:0:0:0:
196,354,90953,2,0,L|314:345,1,100,2|0,0:0|0:0,0:0:0:0:
44,308,91239,1,10,0:0:0:0:
256,256,91382,2,0,L|289:256,3,33.3333333333333,0|0|0|2,0:0|0:0|0:0|0:0,0:0:0:0:
78,162,91667,1,2,0:0:0:0:
320,64,91810,6,0,L|192:64,1,100,4|2,0:0|0:0,0:0:0:0:
454,358,92096,2,0,L|462:258,1,100,8|2,0:3|0:0,0:0:0:0:
147,178,92382,1,10,0:0:0:0:
365,178,92524,1,8,0:3:0:0:
128,288,92667,2,0,L|192:288,1,50
38,167,92810,6,0,L|166:167,1,100,0|4,0:0|0:0,0:0:0:0:
384,288,93096,2,0,L|320:288,1,50
474,167,93239,2,0,L|346:167,1,100
38,167,93524,2,0,L|102:167,1,50,8|0,0:0|0:0,0:0:0:0:
256,96,93667,2,0,L|128:96,1,100,8|0,0:3|0:0,0:0:0:0:
469,216,93953,2,0,L|474:158,1,50,8|0,0:3|0:0,0:0:0:0:
297,304,94096,6,0,L|289:204,1,100,4|0,0:0|0:0,0:0:0:0:
70,209,94382,2,0,L|6:209,1,50,8|0,0:3|0:0,0:0:0:0:
198,145,94524,2,0,L|70:145,1,100,0|8,0:0|0:0,0:0:0:0:
442,209,94810,2,0,L|506:209,1,50,8|0,0:3|0:0,0:0:0:0:
314,145,94953,2,0,L|442:145,1,100,8|8,0:0|0:0,0:0:0:0:
91,339,95239,6,0,P|39:299|92:260,1,150,4|0,0:0|0:0,0:0:0:0:
256,128,95524,2,0,L|128:128,1,100,8|0,0:0|0:0,0:0:0:0:
297,342,95810,2,0,L|305:242,1,100,0|8,0:0|0:3,0:0:0:0:
53,51,96096,2,0,L|153:51,1,100,8|0,0:0|0:0,0:0:0:0:
459,51,96382,5,8,0:3:0:0:
409,51,96453,1,0,0:0:0:0:
359,51,96524,1,0,0:0:0:0:
128,224,96667,1,8,0:0:0:0:
384,224,96810,1,0,0:0:0:0:
256,352,96953,2,0,L|248:252,1,100,0|8,0:0|0:3,0:0:0:0:
190,239,97167,1,0,0:0:0:0:
367,179,97239,2,0,L|431:179,1,50,8|0,0:0|0:0,0:0:0:0:
256,96,97382,2,0,L|320:96,1,50
147,264,97524,5,8,0:3:0:0:
118,218,97595,1,0,0:0:0:0:
137,168,97666,1,0,0:0:0:0:
187,152,97738,1,0,0:0:0:0:
404,144,97810,2,0,L|409:86,1,50,8|0,0:0|0:0,0:0:0:0:
254,81,97953,2,0,L|258:31,1,50
103,94,98096,6,0,L|46:90,2,50,0|0|8,0:0|0:0|0:3,0:0:0:0:
356,288,98382,2,0,L|256:288,1,100,8|0,0:0|0:0,0:0:0:0:
488,55,98667,6,0,L|424:55,1,50,8|0,0:3|0:0,0:0:0:0:
256,192,98810,2,0,L|306:192,1,50
488,55,98953,1,8,0:0:0:0:
356,192,99096,2,0,L|306:192,1,50
56,153,99239,2,0,L|184:153,1,100,0|8,0:0|0:3,0:0:0:0:
356,153,99524,1,8,0:0:0:0:
156,153,99667,1,0,0:0:0:0:
421,339,99810,6,0,P|473:299|420:260,1,150,4|0,0:0|0:0,0:0:0:0:
256,256,100096,2,0,L|416:256,1,150,8|0,0:0|0:0,0:0:0:0:
192,192,100382,2,0,L|128:192,1,50
370,192,100524,2,0,L|320:192,1,50,8|0,0:3|0:0,0:0:0:0:
193,75,100667,2,0,L|243:75,1,50,8|0,0:0|0:0,0:0:0:0:
319,75,100810,2,0,L|269:75,1,50
51,318,100953,6,0,L|46:260,1,50,8|0,0:3|0:0,0:0:0:0:
123,210,101096,2,0,L|128:152,1,50
306,224,101239,2,0,L|256:224,1,50,8|0,0:0|0:0,0:0:0:0:
180,188,101382,2,0,L|230:188,1,50
461,318,101524,6,0,L|466:260,1,50
389,210,101667,2,0,L|384:152,1,50,8|0,0:3|0:0,0:0:0:0:
206,224,101810,2,0,L|256:224,1,50,8|0,0:0|0:0,0:0:0:0:
332,188,101953,2,0,L|282:188,1,50
105,337,102096,6,0,L|55:337,1,50,8|0,0:3|0:0,0:0:0:0:
330,303,102239,2,0,L|335:245,1,50
258,273,102382,2,0,L|253:215,1,50,8|0,0:0|0:0,0:0:0:0:
178,254,102524,2,0,L|182:303,1,50
407,337,102667,6,0,L|457:337,1,50
122,343,102810,2,0,L|117:285,1,50,8|0,0:3|0:0,0:0:0:0:
254,273,102953,2,0,L|259:215,1,50,8|0,0:0|0:0,0:0:0:0:
395,293,103095,2,0,L|391:342,1,50
96,192,103239,6,0,L|32:192,1,50,8|0,0:3|0:0,0:0:0:0:
230,313,103382,2,0,L|234:362,1,50
416,192,103524,2,0,L|480:192,1,50,8|0,0:0|0:0,0:0:0:0:
315,313,103667,2,0,L|311:362,1,50
170,151,103810,6,0,L|106:151,1,50,8|0,0:0|0:0,0:0:0:0:
256,160,103953,1,8,0:3:0:0:
392,151,104024,1,0,0:0:0:0:
161,211,104095,2,0,L|97:211,1,50,8|0,0:0|0:0,0:0:0:0:
256,192,104238,1,8,0:0:0:0:
401,211,104310,1,0,0:0:0:0:
165,353,104382,5,4,0:0:0:0:
35,312,104525,2,0,L|27:212,1,100,6|0,0:1|0:0,0:0:0:0:
235,257,104810,1,12,0:0:0:0:
35,312,104953,2,0,L|27:212,1,100,6|0,0:1|0:0,0:0:0:0:
295,161,105239,5,12,0:0:0:0:
35,312,105382,2,0,L|27:212,1,100,6|0,0:1|0:0,0:0:0:0:
355,65,105667,1,12,0:0:0:0:
35,312,105810,2,0,L|27:212,1,100,6|0,0:1|0:0,0:0:0:0:
415,161,106096,5,12,0:0:0:0:
35,312,106239,2,0,L|27:212,1,100,6|0,0:1|0:0,0:0:0:0:
475,257,106524,1,12,0:0:0:0:
35,312,106667,2,0,L|27:212,1,100,6|0,0:1|0:0,0:0:0:0:
458,79,106953,5,12,0:0:0:0:
54,79,107096,1,6,0:1:0:0:
194,29,107239,1,0,0:0:0:0:
490,112,107382,1,12,0:0:0:0:
256,192,107525,1,6,0:1:0:0:
22,112,107668,1,0,0:0:0:0:
448,352,107810,5,12,0:0:0:0:
64,352,107953,1,8,0:3:0:0:
435,313,108096,1,8,0:0:0:0:
77,313,108239,1,8,0:3:0:0:
295,270,108382,1,8,0:0:0:0:
422,274,108524,1,8,0:3:0:0:
90,274,108667,5,12,0:0:0:0:
256,192,108810,12,0,111810,0:0:0:0:
