osu file format v14

[General]
AudioFilename: audio.mp3
AudioLeadIn: 0
PreviewTime: 76882
Countdown: 0
SampleSet: Normal
StackLeniency: 0.7
Mode: 2
LetterboxInBreaks: 0
WidescreenStoryboard: 1

[Editor]
Bookmarks: 10667,19810,28953,38096,56382,76953
DistanceSpacing: 1
BeatDivisor: 4
GridSize: 4
TimelineZoom: 1.8

[Metadata]
Title:chaos eater -IIDX edition-
TitleUnicode:chaos eater -IIDX edition-
Artist:Nekomata Master+
ArtistUnicode:猫叉Master+
Creator:Spectator
Version:Rain
Source:beatmania IIDX 23 copula
Tags:Electronic Instrumental Video Game Bunnrei Chara Ster -Plus- osu_gangster Jemzuu AJamez Lacrima Myle -Rustyy International Cup CTBI CIC vii Finals No Mod NM DDR DanceDanceRevolution GITADORA NEX+AGE
BeatmapID:3178953
BeatmapSetID:1543977

[Difficulty]
HPDrainRate:5
CircleSize:4
OverallDifficulty:9.2
ApproachRate:9.2
SliderMultiplier:1.7
SliderTickRate:2

[Events]
//Background and Video events
0,0,"chaos eater.jpg",0,0
//Break Periods
//Storyboard Layer 0 (Background)
//Storyboard Layer 1 (Fail)
//Storyboard Layer 2 (Pass)
//Storyboard Layer 3 (Foreground)
//Storyboard Layer 4 (Overlay)
//Storyboard Sound Samples

[TimingPoints]
382,285.714285714286,4,1,2,55,1,0
2096,-100,4,1,2,55,0,0
4382,-100,4,1,2,55,0,0
5810,-100,4,1,2,55,0,0
6096,-100,4,1,2,55,0,0
8953,-100,4,1,2,55,0,0
9524,-100,4,1,2,55,0,0
10667,-100,4,1,2,55,0,0
10989,-100,4,1,2,10,0,0
11024,-100,4,1,2,55,0,0
11560,-100,4,1,2,10,0,0
11595,-100,4,1,2,55,0,0
12132,-100,4,1,2,10,0,0
12167,-100,4,1,2,55,0,0
12560,-100,4,1,2,10,0,0
12595,-100,4,1,2,55,0,0
12703,-100,4,1,2,10,0,0
12738,-100,4,1,2,55,0,0
12846,-100,4,1,2,10,0,0
12881,-100,4,1,2,55,0,0
12989,-100,4,1,2,25,0,0
13239,-100,4,1,2,55,0,0
13274,-100,4,1,2,25,0,0
13524,-100,4,1,2,55,0,0
13846,-100,4,1,2,10,0,0
13882,-100,4,1,2,55,0,0
15239,-100,4,1,4,55,0,0
17096,-100,4,1,4,55,0,0
17132,-100,4,1,4,10,0,0
17239,-100,4,1,4,55,0,0
17275,-100,4,1,4,10,0,0
17382,-100,4,1,4,55,0,0
17418,-100,4,1,4,10,0,0
17524,-100,4,1,4,55,0,0
18524,-100,4,1,1,55,0,0
19810,-100,4,1,1,65,0,0
20953,-100,4,1,9,75,0,0
21024,-100,4,1,1,65,0,0
22096,-100,4,1,9,75,0,0
22167,-100,4,1,1,65,0,0
23239,-100,4,1,9,75,0,0
23310,-100,4,1,1,65,0,0
24382,-100,4,1,9,75,0,0
24453,-100,4,1,1,65,0,0
25524,-100,4,1,9,75,0,0
25595,-100,4,1,1,65,0,0
26667,-100,4,1,9,75,0,0
26738,-100,4,1,1,65,0,0
28953,-100,4,1,21,80,0,1
29096,-100,4,1,1,80,0,0
38382,-100,4,1,1,80,0,0
38953,-100,4,1,1,80,0,0
39524,-100,4,1,1,80,0,0
40096,-100,4,1,1,80,0,0
40667,-100,4,1,1,80,0,0
41239,-100,4,1,1,80,0,0
46953,-100,4,1,1,80,0,0
47239,-100,4,1,1,80,0,0
56382,-100,4,1,10,70,0,0
64382,-100,4,1,1,70,0,0
65524,-100,4,1,1,70,0,0
66667,-100,4,1,10,70,0,0
67382,-100,4,1,1,70,0,0
68953,-100,4,1,10,70,0,0
69382,-100,4,1,1,70,0,0
70096,-100,4,1,1,70,0,1
70167,-100,4,1,1,70,0,0
70953,-100,4,1,1,70,0,1
71024,-100,4,1,1,70,0,0
71810,-100,4,1,1,75,0,1
71882,-100,4,1,1,75,0,0
72667,-100,4,1,1,80,0,1
72739,-100,4,1,1,80,0,0
73524,-100,4,1,1,85,0,1
73596,-100,4,1,1,85,0,0
74382,-100,4,1,20,85,0,1
74453,-100,4,1,1,85,0,0
76382,-100,4,1,77,60,0,0
76667,-100,4,1,1,85,0,0
76953,-100,4,1,1,90,0,1
79239,-100,4,1,1,90,0,1
79382,-100,4,1,66,90,0,1
79453,-100,4,1,1,90,0,1
79667,-100,4,1,1,90,0,1
79810,-100,4,1,66,90,0,1
79882,-100,4,1,1,90,0,1
80096,-100,4,1,1,90,0,1
80239,-100,4,1,66,90,0,1
80310,-100,4,1,1,90,0,1
80524,-100,4,1,1,90,0,1
80667,-100,4,1,66,90,0,1
80739,-100,4,1,1,90,0,1
80953,-100,4,1,1,90,0,1
83953,-100,4,1,66,90,0,1
84024,-100,4,1,1,90,0,1
84382,-100,4,1,66,90,0,1
84453,-100,4,1,1,90,0,1
88524,-100,4,1,66,90,0,1
88596,-100,4,1,1,90,0,1
88810,-100,4,1,1,90,0,1
88953,-100,4,1,66,90,0,1
89024,-100,4,1,1,90,0,1
89239,-100,4,1,1,90,0,1
89382,-100,4,1,66,90,0,1
89453,-100,4,1,1,90,0,1
89667,-100,4,1,1,90,0,1
89810,-100,4,1,66,90,0,1
89882,-100,4,1,1,90,0,1
89953,-100,4,1,1,90,0,1
95132,-100,4,1,1,10,0,1
95239,-100,4,1,66,90,0,0
95310,-100,4,1,1,90,0,0
104382,-100,4,1,1,90,0,1
104524,-100,4,1,66,90,0,1
104596,-100,4,1,1,90,0,1
104953,-100,4,1,66,90,0,1
105025,-100,4,1,1,90,0,1
105167,-100,4,1,1,90,0,0
105239,-100,4,1,1,90,0,1
105382,-100,4,1,66,90,0,1
105454,-100,4,1,1,90,0,1
105810,-100,4,1,66,90,0,1
105882,-100,4,1,1,90,0,1
106024,-100,4,1,1,90,0,0
106096,-100,4,1,1,90,0,1
106239,-100,4,1,66,90,0,1
106311,-100,4,1,1,90,0,1
106667,-100,4,1,66,90,0,1
106739,-100,4,1,1,90,0,1
106882,-100,4,1,1,90,0,0
106953,-100,4,1,1,90,0,1
107096,-100,4,1,66,90,0,1
107168,-100,4,1,1,90,0,1
107524,-100,4,1,66,90,0,1
107596,-100,4,1,1,90,0,1
107810,-100,4,1,1,90,0,0
108667,-100,4,1,22,90,0,1
108810,-100,4,1,1,65,0,0

[Colours]
Combo1 : 128,128,128
Combo2 : 192,192,192

[HitObjects]
185,104,810,6,0,L|115:103,2,42.5,0|0|8,0:0|0:0|0:0,0:0:0:0:
354,203,1239,2,0,L|472:203,1,85,0|8,0:0|0:0,0:0:0:0:
239,313,1524,6,0,L|125:313,1,85,10|0,1:3|0:0,0:0:0:0:
255,230,1810,2,0,L|359:231,1,85,2|0,0:0|0:0,0:0:0:0:
194,142,2096,2,0,B|109:142|109:142|109:58|109:58|203:58,1,255,10|8,0:0|0:0,0:0:0:0:
341,64,2667,6,0,L|341:187,1,85,2|0,0:0|0:0,0:0:0:0:
195,58,2953,2,0,L|195:181,1,85,10|0,1:3|0:0,0:0:0:0:
341,249,3239,2,0,B|426:249|426:249|426:43,1,255,10|0,0:0|0:0,0:0:0:0:
281,189,3810,6,0,L|281:84,1,85,10|0,0:3|0:0,0:0:0:0:
281,104,4096,2,0,L|378:104,1,85,2|0,0:0|0:0,0:0:0:0:
221,101,4382,2,0,L|221:366,1,255,10|8,0:0|0:0,0:0:0:0:
134,357,4953,5,0,0:0:0:0:
133,271,5096,1,0,0:0:0:0:
132,185,5239,1,8,0:3:0:0:
132,99,5382,1,0,0:0:0:0:
47,58,5524,2,0,L|47:260,1,170,8|2,0:0|0:2,0:0:0:0:
90,229,5882,1,2,0:2:0:0:
132,230,5953,1,2,0:2:0:0:
365,61,6096,6,0,L|465:61,1,85,2|0,0:2|0:0,0:0:0:0:
355,142,6382,2,0,L|255:142,1,85
125,227,6667,2,0,B|41:227|41:227|126:227|126:227|41:227,1,255,8|8,0:0|0:0,0:0:0:0:
185,301,7239,6,0,L|283:300,1,85,2|0,0:0|0:0,0:0:0:0:
415,226,7524,2,0,L|303:227,1,85,10|0,0:3|0:0,0:0:0:0:
184,223,7810,2,0,B|184:139|184:139|270:139|270:139|270:41,1,255,10|0,0:0|0:0,0:0:0:0:
355,51,8382,5,10,0:3:0:0:
355,135,8524,1,0,0:0:0:0:
355,220,8667,1,2,0:0:0:0:
355,305,8810,1,0,0:0:0:0:
271,52,8953,2,0,L|272:341,1,255,10|8,0:0|0:0,0:0:0:0:
187,307,9524,6,0,L|188:200,1,85
325,195,9810,2,0,L|432:196,1,85,8|0,0:3|0:0,0:0:0:0:
185,128,10096,2,0,P|130:117|68:12,1,170,8|8,0:0|0:0,0:0:0:0:
111,28,10453,1,8,0:0:0:0:
153,28,10524,1,8,0:0:0:0:
413,293,10667,6,0,P|463:259|396:186,1,170,4|0,0:0|0:0,0:0:0:0:
391,183,10989,1,0,0:0:0:0:
327,184,11096,1,0,0:0:0:0:
182,187,11239,2,0,P|132:153|199:80,1,170,8|0,0:0|0:0,0:0:0:0:
204,77,11561,1,0,0:0:0:0:
268,78,11668,1,8,0:0:0:0:
412,180,11810,6,0,P|462:146|395:73,1,170,0|8,0:0|0:3,0:0:0:0:
390,70,12132,1,0,0:0:0:0:
326,71,12239,1,0,0:0:0:0:
240,71,12382,1,8,0:0:0:0:
390,155,12524,1,0,0:0:0:0:
390,155,12667,1,0,0:0:0:0:
390,155,12810,1,0,0:0:0:0:
242,153,12953,6,0,L|63:153,1,170
72,153,13274,1,0,0:0:0:0:
246,246,13524,2,0,L|369:247,1,85,8|0,0:0|0:0,0:0:0:0:
422,169,13810,2,0,L|317:168,2,85,0|8|0,0:0|0:0|0:0,0:0:0:0:
275,123,14239,5,0,0:0:0:0:
232,123,14310,1,0,0:0:0:0:
232,123,14382,1,0,0:0:0:0:
376,278,14524,1,0,0:0:0:0:
419,278,14595,1,0,0:0:0:0:
419,278,14667,1,0,0:0:0:0:
276,226,14810,1,0,0:0:0:0:
233,226,14881,1,0,0:0:0:0:
233,226,14953,1,2,0:2:0:0:
376,224,15096,1,2,0:2:0:0:
163,91,15239,6,0,L|65:91,1,85,4|0,0:0|0:0,0:0:0:0:
78,91,15524,2,0,L|163:91,1,85,8|8,0:0|0:0,0:0:0:0:
309,91,15810,2,0,L|407:91,1,85,8|0,0:0|0:0,0:0:0:0:
394,91,16096,2,0,L|309:91,1,85,8|8,0:0|0:0,0:0:0:0:
162,259,16382,6,0,L|260:259,1,85,0|8,0:0|0:0,0:0:0:0:
247,259,16667,2,0,L|162:259,2,85,8|8|8,0:0|0:0|0:0,0:0:0:0:
102,258,17096,1,2,0:0:0:0:
102,258,17239,1,2,0:0:0:0:
102,258,17382,1,2,0:0:0:0:
326,180,17524,6,0,P|369:157|317:71,1,170,2|8,0:0|0:0,0:0:0:0:
238,70,17953,1,8,0:0:0:0:
93,179,18096,2,0,P|50:156|102:70,1,170,0|8,0:0|0:0,0:0:0:0:
181,69,18525,1,0,0:0:0:0:
265,68,18667,1,2,0:0:0:0:
466,192,18810,5,0,0:0:0:0:
423,191,18882,1,0,0:0:0:0:
380,190,18953,1,2,0:0:0:0:
380,190,19024,1,0,0:0:0:0:
380,190,19096,1,0,0:0:0:0:
423,191,19167,1,0,0:0:0:0:
466,192,19239,1,2,0:0:0:0:
466,100,19382,1,8,0:3:0:0:
184,100,19524,1,8,0:0:0:0:
380,327,19810,6,0,B|466:327|466:327|466:225,1,170,4|0,0:0|0:0,0:0:0:0:
380,240,20239,1,0,0:0:0:0:
235,246,20382,2,0,B|149:246|149:246|149:144,1,170,8|0,0:0|0:0,0:0:0:0:
235,159,20811,1,0,0:0:0:0:
378,159,20953,6,0,L|378:-26,1,170,2|8,0:0|0:3,0:0:0:0:
293,158,21382,1,0,0:0:0:0:
378,159,21524,1,8,0:0:0:0:
233,207,21667,1,2,0:2:0:0:
233,207,21810,1,2,0:2:0:0:
233,207,21953,1,2,0:2:0:0:
378,159,22096,6,0,B|378:243|378:243|292:243,1,170,10|0,0:1|0:0,0:0:0:0:
206,240,22524,1,0,0:0:0:0:
62,248,22667,2,0,B|62:332|62:332|148:332,1,170,8|0,0:0|0:0,0:0:0:0:
234,329,23095,1,0,0:0:0:0:
148,332,23239,5,2,0:0:0:0:
293,254,23382,1,0,0:0:0:0:
335,254,23453,1,0,0:0:0:0:
335,254,23524,1,8,0:3:0:0:
190,124,23667,1,0,0:0:0:0:
148,124,23738,1,0,0:0:0:0:
148,124,23809,1,8,0:0:0:0:
294,82,23953,1,0,0:0:0:0:
336,82,24024,1,0,0:0:0:0:
336,82,24095,1,0,0:0:0:0:
190,80,24239,1,0,0:0:0:0:
336,82,24382,6,0,B|336:167|336:167|242:166,1,170,10|0,0:1|0:0,0:0:0:0:
336,164,24810,1,0,0:0:0:0:
480,204,24953,2,0,B|480:289|480:289|386:288,1,170,8|0,0:0|0:0,0:0:0:0:
480,286,25381,1,0,0:0:0:0:
335,279,25524,6,0,B|335:364|335:364|429:363,1,170,2|8,0:0|0:3,0:0:0:0:
335,361,25952,1,0,0:0:0:0:
249,361,26096,1,8,0:0:0:0:
394,275,26239,1,2,0:2:0:0:
394,275,26382,1,2,0:2:0:0:
394,275,26524,1,2,0:2:0:0:
249,108,26667,6,0,B|249:193|249:193|343:192,1,170,10|0,0:1|0:0,0:0:0:0:
419,192,27096,1,0,0:0:0:0:
253,292,27239,2,0,L|169:291,1,85,8|0,0:0|0:0,0:0:0:0:
419,192,27524,1,0,0:0:0:0:
256,94,27810,5,4,0:0:0:0:
213,95,27882,1,0,0:0:0:0:
170,96,27953,1,0,0:0:0:0:
127,97,28024,1,0,0:0:0:0:
127,97,28096,1,2,0:2:0:0:
170,96,28167,1,0,0:0:0:0:
213,95,28239,1,0,0:0:0:0:
256,94,28310,1,0,0:0:0:0:
299,94,28382,1,2,0:2:0:0:
299,94,28524,1,8,0:3:0:0:
39,96,28667,1,8,0:0:0:0:
270,293,28953,6,0,L|381:293,1,85,4|0,0:0|0:0,0:0:0:0:
218,292,29239,1,8,0:0:0:0:
82,292,29382,1,0,0:0:0:0:
166,289,29524,2,0,L|165:182,1,85,0|8,0:0|1:3,0:0:0:0:
79,204,29810,1,8,0:0:0:0:
224,110,29953,6,0,B|224:24|224:24|113:23,2,170
309,111,30667,1,0,0:0:0:0:
445,110,30810,1,8,0:3:0:0:
309,111,30953,1,8,0:0:0:0:
266,109,31024,1,0,0:0:0:0:
223,108,31096,1,0,0:0:0:0:
426,114,31239,6,0,L|426:199,1,85,8|0,0:3|0:0,0:0:0:0:
289,198,31525,1,8,0:1:0:0:
153,198,31668,1,0,0:0:0:0:
237,195,31810,2,0,L|237:94,1,85,0|8,0:0|0:3,0:0:0:0:
152,112,32096,1,8,0:0:0:0:
359,41,32239,5,0,0:0:0:0:
402,40,32310,1,0,0:0:0:0:
445,39,32382,1,8,0:3:0:0:
300,167,32525,1,0,0:0:0:0:
257,166,32596,1,0,0:0:0:0:
214,165,32668,1,8,0:0:0:0:
299,165,32810,1,0,0:0:0:0:
445,165,32953,1,0,0:0:0:0:
445,165,33096,1,8,0:3:0:0:
359,163,33239,1,8,0:0:0:0:
402,164,33311,1,0,0:0:0:0:
445,165,33382,1,0,0:0:0:0:
244,295,33524,6,0,L|133:295,1,85,4|0,0:0|0:0,0:0:0:0:
296,294,33810,1,8,0:0:0:0:
432,294,33953,1,0,0:0:0:0:
348,291,34096,2,0,L|349:184,1,85,0|8,0:0|0:3,0:0:0:0:
435,206,34381,1,8,0:0:0:0:
290,180,34524,6,0,B|290:94|290:94|401:93,2,170
205,181,35238,1,0,0:0:0:0:
69,180,35381,1,8,0:3:0:0:
205,181,35524,1,8,0:0:0:0:
247,181,35596,1,0,0:0:0:0:
289,181,35667,1,0,0:0:0:0:
247,181,35739,1,0,0:0:0:0:
205,181,35810,5,8,0:3:0:0:
202,95,35953,1,0,0:0:0:0:
288,91,36096,1,8,0:0:0:0:
288,91,36239,1,0,0:0:0:0:
151,31,36382,1,0,0:0:0:0:
16,85,36524,1,8,0:3:0:0:
102,83,36667,2,0,L|102:181,1,85,8|0,0:0|0:0,0:0:0:0:
249,179,36953,6,0,L|342:179,1,85,8|0,0:3|0:0,0:0:0:0:
334,179,37239,2,0,L|249:179,1,85,8|0,0:0|0:0,0:0:0:0:
109,266,37524,1,0,0:0:0:0:
249,180,37667,1,8,0:3:0:0:
389,97,37810,1,8,0:0:0:0:
389,97,37882,1,2,0:2:0:0:
389,97,37953,1,2,0:2:0:0:
389,97,38024,1,2,0:2:0:0:
249,323,38096,6,0,P|196:300|260:239,1,170,4|8,0:0|0:0,0:0:0:0:
334,237,38524,1,0,0:0:0:0:
116,101,38667,2,0,L|23:101,1,85,0|8,0:2|0:3,0:0:0:0:
116,101,38953,2,0,L|23:101,1,85,8|0,0:0|0:0,0:0:0:0:
177,298,39239,6,0,P|230:275|166:214,1,170,8|8,0:3|0:0,0:0:0:0:
92,212,39667,1,0,0:0:0:0:
310,154,39810,2,0,L|403:154,1,85,0|8,0:0|0:3,0:0:0:0:
310,154,40096,2,0,L|403:154,1,85,8|0,0:0|0:0,0:0:0:0:
249,308,40382,6,0,P|196:285|260:224,1,170,8|8,0:3|0:0,0:0:0:0:
334,222,40810,1,0,0:0:0:0:
116,164,40953,2,0,L|23:164,1,85,0|8,0:0|0:3,0:0:0:0:
116,164,41239,2,0,L|23:164,1,85,8|0,0:0|0:0,0:0:0:0:
177,298,41524,6,0,P|230:275|166:214,1,170,8|8,0:3|0:0,0:0:0:0:
92,212,41952,1,0,0:0:0:0:
238,122,42096,2,0,L|357:122,1,85,0|8,0:0|0:3,0:0:0:0:
236,24,42382,2,0,L|138:23,1,85,8|0,0:0|0:0,0:0:0:0:
153,113,42667,1,4,0:0:0:0:
373,186,42810,5,0,0:0:0:0:
415,186,42882,1,0,0:0:0:0:
457,187,42953,1,8,0:0:0:0:
414,187,43024,1,0,0:0:0:0:
371,187,43096,1,0,0:0:0:0:
328,187,43167,1,0,0:0:0:0:
285,187,43239,1,0,0:0:0:0:
199,187,43382,1,8,0:3:0:0:
343,85,43524,1,8,0:0:0:0:
385,86,43596,1,0,0:0:0:0:
427,87,43667,1,0,0:0:0:0:
427,87,43810,5,8,0:3:0:0:
282,26,43953,1,0,0:0:0:0:
240,27,44025,1,0,0:0:0:0:
198,28,44096,1,8,0:0:0:0:
197,113,44239,1,0,0:0:0:0:
429,174,44382,2,0,L|319:174,1,85,0|8,0:0|0:3,0:0:0:0:
114,176,44667,1,8,0:0:0:0:
115,256,44953,5,8,0:3:0:0:
347,253,45096,1,0,0:0:0:0:
389,253,45167,1,0,0:0:0:0:
431,253,45239,1,8,0:1:0:0:
388,253,45310,1,0,0:0:0:0:
345,253,45382,1,0,0:0:0:0:
302,254,45453,1,0,0:0:0:0:
259,254,45524,2,0,L|137:254,1,85,0|8,0:0|0:3,0:0:0:0:
319,94,45810,2,0,L|441:94,1,85,8|8,0:0|0:3,0:0:0:0:
173,176,46096,6,0,L|173:80,1,85,8|8,0:0|0:3,0:0:0:0:
319,94,46382,1,8,0:0:0:0:
72,176,46524,6,0,L|72:-5,1,170,0|8,0:0|0:3,0:0:0:0:
157,6,46953,1,8,0:0:0:0:
242,6,47096,1,0,0:0:0:0:
477,247,47239,6,0,B|476:163|476:163|372:163,1,170,4|8,0:0|0:0,0:0:0:0:
304,165,47667,1,0,0:0:0:0:
159,167,47810,2,0,L|265:167,1,85,0|8,0:0|0:3,0:0:0:0:
329,167,48096,2,0,L|233:167,1,85,8|0,0:0|0:0,0:0:0:0:
96,171,48382,6,0,B|97:87|97:87|201:87,1,170,8|8,0:3|0:0,0:0:0:0:
269,89,48810,1,0,0:0:0:0:
414,91,48953,2,0,L|308:91,1,85,0|8,0:0|0:3,0:0:0:0:
244,91,49239,2,0,L|340:91,1,85,8|0,0:0|0:0,0:0:0:0:
477,247,49524,6,0,B|476:163|476:163|372:163,1,170,8|8,0:3|0:0,0:0:0:0:
304,165,49952,1,0,0:0:0:0:
159,167,50096,2,0,L|265:167,1,85,0|8,0:0|0:3,0:0:0:0:
329,167,50381,2,0,L|233:167,1,85,8|0,0:0|0:0,0:0:0:0:
96,171,50667,6,0,B|97:87|97:87|201:87,1,170,8|8,0:3|0:0,0:0:0:0:
269,89,51095,1,0,0:0:0:0:
414,91,51239,2,0,L|308:91,1,85,0|8,0:0|0:3,0:0:0:0:
329,91,51524,2,0,L|425:91,1,85,8|0,0:0|0:0,0:0:0:0:
414,91,51810,1,4,0:0:0:0:
169,277,51953,5,0,0:0:0:0:
126,277,52024,1,0,0:0:0:0:
83,277,52096,1,8,0:0:0:0:
83,277,52167,1,0,0:0:0:0:
126,277,52239,1,0,0:0:0:0:
169,277,52310,1,0,0:0:0:0:
211,277,52382,1,0,0:0:0:0:
325,277,52524,1,8,0:3:0:0:
441,277,52667,1,8,0:0:0:0:
296,148,52810,6,0,L|192:147,1,85,2|0,0:0|0:0,0:0:0:0:
358,73,53096,2,0,L|454:73,1,85,2|0,0:0|0:0,0:0:0:0:
443,73,53382,1,0,0:0:0:0:
241,268,53524,2,0,L|137:267,1,85,2|8,0:0|0:3,0:0:0:0:
358,73,53810,2,0,L|454:73,2,85,10|0|8,0:0|0:0|0:3,0:0:0:0:
156,171,54239,5,0,0:0:0:0:
113,170,54310,1,0,0:0:0:0:
70,172,54382,1,8,0:0:0:0:
112,172,54453,1,0,0:0:0:0:
154,172,54524,1,0,0:0:0:0:
357,243,54667,2,0,L|466:243,1,85,0|8,0:0|0:3,0:0:0:0:
442,243,54953,1,8,0:0:0:0:
194,71,55096,6,0,L|89:71,1,85,2|8,0:0|0:1,0:0:0:0:
360,70,55382,2,0,L|465:70,2,85,2|8|8,0:1|0:0|0:3,0:0:0:0:
107,69,55810,2,0,L|107:162,1,85,8|8,0:0|0:3,0:0:0:0:
245,152,56096,1,8,0:0:0:0:
382,148,56239,1,8,0:3:0:0:
157,267,56382,5,4,0:0:0:0:
320,352,56667,1,2,0:0:0:0:
320,352,56810,1,0,0:0:0:0:
183,347,56953,1,10,0:0:0:0:
46,344,57096,1,2,0:0:0:0:
123,308,57239,1,0,0:0:0:0:
200,273,57382,1,2,0:0:0:0:
123,308,57524,1,0,0:0:0:0:
46,344,57667,1,2,0:0:0:0:
183,347,57810,1,2,0:0:0:0:
320,352,57953,1,2,0:0:0:0:
243,303,58096,1,10,0:0:0:0:
164,272,58239,1,0,0:0:0:0:
243,303,58382,1,0,0:0:0:0:
320,352,58524,1,0,0:0:0:0:
175,353,58667,5,0,0:0:0:0:
175,353,58953,1,2,0:0:0:0:
175,353,59096,1,2,0:0:0:0:
312,348,59239,1,10,0:0:0:0:
449,345,59382,1,2,0:0:0:0:
372,309,59525,1,0,0:0:0:0:
295,274,59668,1,2,0:0:0:0:
84,272,59810,1,2,0:0:0:0:
84,272,59953,1,0,0:0:0:0:
295,274,60096,1,2,0:0:0:0:
295,274,60239,1,0,0:0:0:0:
159,274,60382,1,10,0:0:0:0:
159,274,60524,1,0,0:0:0:0:
295,274,60667,1,2,0:0:0:0:
295,274,60810,1,0,0:0:0:0:
45,181,60953,5,4,0:0:0:0:
186,350,61239,1,2,0:0:0:0:
186,350,61382,1,2,0:0:0:0:
323,345,61525,1,10,0:0:0:0:
460,342,61668,1,2,0:0:0:0:
383,306,61811,1,0,0:0:0:0:
306,271,61954,1,2,0:0:0:0:
383,306,62096,1,0,0:0:0:0:
460,342,62239,1,2,0:0:0:0:
323,345,62382,1,2,0:0:0:0:
186,350,62525,1,2,0:0:0:0:
264,313,62668,1,10,0:0:0:0:
343,282,62811,1,0,0:0:0:0:
264,313,62954,1,0,0:0:0:0:
186,350,63096,1,0,0:0:0:0:
331,351,63239,5,0,0:0:0:0:
326,350,63524,1,2,0:0:0:0:
326,350,63667,1,2,0:0:0:0:
189,345,63810,1,10,0:0:0:0:
52,342,63953,1,2,0:0:0:0:
129,306,64096,1,0,0:0:0:0:
206,271,64239,1,2,0:0:0:0:
355,269,64382,5,2,0:0:0:0:
355,269,64524,1,0,0:0:0:0:
206,271,64667,1,2,0:1:0:0:
206,271,64810,1,0,0:0:0:0:
442,268,64953,1,2,0:0:0:0:
442,268,65096,1,8,0:3:0:0:
206,271,65239,1,10,0:0:0:0:
206,271,65382,1,0,0:0:0:0:
442,268,65524,6,0,L|442:74,1,170,12|0,0:0|0:0,0:0:0:0:
303,271,65953,2,0,L|303:77,1,170,8|0,0:0|0:0,0:0:0:0:
442,97,66382,1,8,0:0:0:0:
256,210,66667,5,2,0:0:0:0:
256,210,66810,1,0,0:0:0:0:
174,235,66953,1,2,0:0:0:0:
256,210,67096,1,0,0:0:0:0:
337,185,67239,1,2,0:0:0:0:
256,210,67382,1,8,0:3:0:0:
174,235,67524,1,8,0:0:0:0:
442,268,67810,6,0,L|442:74,1,170,12|0,0:0|0:0,0:0:0:0:
303,271,68239,2,0,L|303:77,1,170,8|0,0:0|0:0,0:0:0:0:
442,97,68668,1,8,0:0:0:0:
174,235,68953,5,2,0:0:0:0:
256,210,69095,1,0,0:0:0:0:
337,185,69238,1,2,0:0:0:0:
174,235,69382,2,0,L|173:52,1,170,8|8,0:1|0:3,0:0:0:0:
317,67,69810,1,8,0:0:0:0:
131,85,70096,6,0,L|17:85,2,85,12|0|0,0:0|0:0|0:0,0:0:0:0:
277,153,70524,1,12,0:0:0:0:
191,153,70667,1,0,0:0:0:0:
105,154,70810,1,0,0:0:0:0:
316,242,70953,6,0,L|430:242,2,85,12|0|0,0:0|0:0|0:0,0:0:0:0:
170,310,71381,1,12,0:0:0:0:
256,310,71524,1,0,0:0:0:0:
342,311,71667,1,0,0:0:0:0:
124,122,71810,6,0,L|34:122,2,85,12|0|0,0:0|0:0|0:0,0:0:0:0:
335,201,72239,1,12,0:0:0:0:
232,202,72382,1,0,0:0:0:0:
130,203,72524,1,0,0:0:0:0:
354,121,72667,6,0,L|444:121,2,85,12|0|0,0:0|0:0|0:0,0:0:0:0:
143,200,73096,1,12,0:0:0:0:
246,201,73239,1,0,0:0:0:0:
348,202,73381,1,0,0:0:0:0:
97,118,73524,5,12,0:0:0:0:
212,117,73667,1,0,0:0:0:0:
97,118,73810,1,0,0:0:0:0:
378,204,73953,1,12,0:0:0:0:
246,201,74096,1,0,0:0:0:0:
378,204,74239,1,0,0:0:0:0:
79,202,74382,5,12,0:0:0:0:
256,192,74524,12,0,76096,0:0:0:0:
255,183,76382,5,0,1:1:0:0:
255,183,76453,1,0,1:1:0:0:
255,183,76524,1,0,1:1:0:0:
255,183,76596,1,0,1:1:0:0:
403,234,76667,1,8,2:1:0:0:
462,113,76953,6,0,L|256:112,1,170,6|10,0:0|0:0,0:0:0:0:
377,112,77382,1,0,0:0:0:0:
174,111,77524,2,0,L|63:112,2,85,2|8|10,0:0|1:3|0:0,0:0:0:0:
377,112,77953,6,0,P|425:154|368:234,1,170,2|2,0:0|0:0,0:0:0:0:
250,237,78382,1,10,0:0:0:0:
123,238,78524,1,0,0:0:0:0:
277,235,78667,2,0,L|277:32,1,170,2|10,0:0|0:0,0:0:0:0:
148,64,79096,1,0,0:0:0:0:
19,61,79239,5,8,0:3:0:0:
104,61,79382,1,2,0:0:0:0:
104,61,79524,2,0,L|-1:61,1,85,8|0,0:0|0:0,0:0:0:0:
104,61,79810,1,2,0:0:0:0:
240,140,79953,2,0,L|135:140,1,85,8|8,0:3|0:0,0:0:0:0:
240,140,80239,1,2,0:0:0:0:
376,61,80382,6,0,L|271:61,1,85,8|0,0:3|0:0,0:0:0:0:
376,61,80667,2,0,L|488:60,1,85,10|0,0:0|0:0,0:0:0:0:
314,225,80953,2,0,L|314:120,1,85,0|8,0:0|0:3,0:0:0:0:
460,145,81239,2,0,L|460:40,1,85,8|0,0:0|0:0,0:0:0:0:
235,161,81524,6,0,L|49:162,1,170,6|10,0:0|0:0,0:0:0:0:
150,161,81953,1,0,0:0:0:0:
359,158,82096,2,0,L|469:158,2,85,2|8|10,0:0|0:3|0:0,0:0:0:0:
137,112,82524,6,0,P|89:154|146:234,1,170,2|2,0:0|0:0,0:0:0:0:
264,237,82953,1,10,0:0:0:0:
391,238,83095,1,0,0:0:0:0:
237,235,83238,2,0,L|237:32,1,170,2|10,0:0|0:0,0:0:0:0:
366,64,83667,1,2,0:0:0:0:
495,61,83810,5,8,0:3:0:0:
410,61,83953,1,2,0:0:0:0:
410,61,84096,2,0,L|515:61,1,85,8|0,0:0|0:0,0:0:0:0:
410,61,84381,1,2,0:0:0:0:
274,140,84524,2,0,L|379:140,1,85,8|8,0:3|0:0,0:0:0:0:
274,140,84810,1,2,0:1:0:0:
423,240,84953,6,0,L|423:30,1,170,2|10,0:1|0:0,0:0:0:0:
194,72,85382,1,0,0:0:0:0:
194,72,85667,1,2,0:1:0:0:
424,70,85810,1,10,0:0:0:0:
286,270,86096,6,0,P|234:240|303:178,1,170,6|10,0:0|0:0,0:0:0:0:
373,175,86524,1,0,0:0:0:0:
167,62,86667,2,0,L|53:61,2,85,2|8|10,0:0|0:3|0:0,0:0:0:0:
373,175,87096,6,0,B|373:91|373:91|272:92,1,170,2|2,0:0|0:0,0:0:0:0:
132,84,87524,1,10,0:0:0:0:
244,80,87667,1,0,0:0:0:0:
359,63,87810,2,0,L|360:257,1,170,2|10,0:0|0:0,0:0:0:0:
223,229,88239,1,2,0:0:0:0:
87,233,88382,5,8,0:3:0:0:
172,233,88525,1,2,0:0:0:0:
172,233,88667,2,0,L|67:233,1,85,8|0,0:0|0:0,0:0:0:0:
172,233,88953,1,2,0:0:0:0:
317,308,89096,2,0,L|212:308,1,85,8|8,0:3|0:0,0:0:0:0:
317,308,89382,1,2,0:0:0:0:
461,309,89524,6,0,L|460:221,1,85,8|0,0:3|0:0,0:0:0:0:
378,214,89810,2,0,L|377:126,1,85,10|0,0:0|0:0,0:0:0:0:
231,170,90096,2,0,L|122:171,1,85,0|8,0:0|0:3,0:0:0:0:
292,34,90382,2,0,L|377:35,1,85,8|0,0:0|0:0,0:0:0:0:
144,70,90667,6,0,L|35:71,1,85,6|0,0:0|0:0,0:0:0:0:
59,70,90953,2,0,L|144:70,1,85,2|0,0:0|0:0,0:0:0:0:
290,153,91239,2,0,B|374:152|374:152|374:67|374:67|268:69,1,255,10|2,0:0|0:0,0:0:0:0:
59,70,91810,5,4,0:0:0:0:
59,70,92096,1,8,0:3:0:0:
59,70,92382,1,10,0:0:0:0:
287,68,92524,2,0,L|287:273,1,170,8|0,0:3|0:0,0:0:0:0:
58,239,92953,6,0,L|57:35,1,170,4|0,0:0|0:0,0:0:0:0:
56,240,93524,1,8,0:0:0:0:
285,69,93667,2,0,B|369:69|369:69|369:191,1,170,8|8,0:3|0:3,0:0:0:0:
142,75,94096,2,0,P|87:113|159:171,1,170,4|8,0:0|0:3,0:0:0:0:
228,177,94524,1,0,0:0:0:0:
317,174,94667,1,8,0:0:0:0:
178,177,94810,1,8,0:3:0:0:
317,174,94953,1,8,0:0:0:0:
178,177,95096,1,8,0:0:0:0:
392,321,95239,6,0,B|476:320|476:320|475:208,1,170,4|8,0:0|0:0,0:0:0:0:
390,233,95667,1,0,0:0:0:0:
186,236,95810,2,0,L|186:122,1,85,0|8,0:0|0:3,0:0:0:0:
325,150,96096,2,0,L|240:150,1,85,8|0,0:0|0:0,0:0:0:0:
490,59,96382,5,8,0:3:0:0:
490,101,96453,1,0,0:0:0:0:
491,143,96524,1,0,0:0:0:0:
351,206,96667,2,0,L|230:206,2,85,8|0|0,0:0|0:0|0:0,0:0:0:0:
492,205,97096,1,8,0:3:0:0:
493,247,97167,1,0,0:0:0:0:
494,289,97239,1,8,0:0:0:0:
451,290,97310,1,0,0:0:0:0:
408,291,97382,1,0,0:0:0:0:
268,285,97524,5,8,0:3:0:0:
225,284,97596,1,0,0:0:0:0:
182,283,97667,1,0,0:0:0:0:
225,284,97739,1,0,0:0:0:0:
268,285,97810,1,8,0:0:0:0:
353,285,97953,1,0,0:0:0:0:
268,285,98096,1,0,0:0:0:0:
268,285,98239,1,8,0:3:0:0:
413,207,98382,1,8,0:0:0:0:
413,207,98524,1,0,0:0:0:0:
327,207,98667,5,8,0:3:0:0:
116,211,98810,1,0,0:0:0:0:
116,211,98882,1,0,0:0:0:0:
116,211,98953,1,8,0:0:0:0:
201,209,99096,1,0,0:0:0:0:
344,114,99239,2,0,L|452:114,1,85,0|8,0:0|0:3,0:0:0:0:
286,209,99524,2,0,L|201:209,1,85,8|0,0:0|0:0,0:0:0:0:
430,304,99810,6,0,B|429:220|429:220|311:220,1,170,4|8,0:0|0:0,0:0:0:0:
198,226,100239,1,0,0:0:0:0:
404,126,100382,1,0,0:0:0:0:
446,126,100453,1,0,0:0:0:0:
488,126,100524,1,8,0:3:0:0:
446,126,100596,1,0,0:0:0:0:
404,126,100667,1,8,0:0:0:0:
318,128,100810,1,0,0:0:0:0:
116,175,100953,5,8,0:3:0:0:
73,175,101024,1,0,0:0:0:0:
30,175,101096,1,0,0:0:0:0:
30,175,101167,1,0,0:0:0:0:
30,175,101239,1,8,0:0:0:0:
116,175,101382,1,0,0:0:0:0:
259,67,101524,1,0,0:0:0:0:
216,68,101596,1,0,0:0:0:0:
173,68,101667,1,8,0:3:0:0:
173,68,101810,1,8,0:0:0:0:
216,68,101881,1,0,0:0:0:0:
259,67,101953,1,0,0:0:0:0:
465,263,102096,5,8,0:3:0:0:
380,267,102239,1,0,0:0:0:0:
422,267,102310,1,0,0:0:0:0:
464,267,102382,1,8,0:0:0:0:
422,267,102453,1,0,0:0:0:0:
380,267,102524,1,0,0:0:0:0:
235,189,102667,1,0,0:0:0:0:
277,187,102739,1,0,0:0:0:0:
319,186,102810,1,8,0:3:0:0:
464,182,102953,1,8,0:0:0:0:
464,182,103096,1,0,0:0:0:0:
252,79,103239,5,8,0:3:0:0:
209,80,103310,1,0,0:0:0:0:
166,81,103382,1,0,0:0:0:0:
373,77,103524,1,8,0:0:0:0:
373,77,103667,1,0,0:0:0:0:
155,174,103810,1,8,0:0:0:0:
112,175,103881,1,0,0:0:0:0:
69,176,103953,1,8,0:3:0:0:
295,166,104096,1,8,0:0:0:0:
380,166,104239,1,8,0:0:0:0:
121,366,104382,6,0,L|121:249,1,85,4|6,0:0|0:1,0:0:0:0:
206,280,104667,1,0,0:0:0:0:
407,276,104810,2,0,L|407:159,1,85,12|6,0:0|0:1,0:0:0:0:
322,190,105095,1,0,0:0:0:0:
95,280,105239,6,0,L|95:163,1,85,12|6,0:0|0:1,0:0:0:0:
195,193,105524,1,0,0:0:0:0:
428,192,105667,2,0,L|428:75,1,85,12|6,0:0|0:1,0:0:0:0:
328,105,105952,1,0,0:0:0:0:
68,194,106096,6,0,L|68:77,1,85,12|6,0:0|0:1,0:0:0:0:
190,108,106381,1,0,0:0:0:0:
450,191,106524,2,0,L|450:74,1,85,12|6,0:0|0:1,0:0:0:0:
328,105,106809,1,0,0:0:0:0:
81,244,106953,5,12,0:0:0:0:
186,243,107096,1,6,0:1:0:0:
81,244,107239,1,0,0:0:0:0:
365,28,107382,1,12,0:0:0:0:
242,28,107524,1,6,0:1:0:0:
365,28,107667,1,0,0:0:0:0:
141,154,107810,5,12,0:0:0:0:
39,156,107953,1,8,0:3:0:0:
289,300,108096,1,8,0:0:0:0:
386,300,108239,1,8,0:3:0:0:
165,247,108382,1,8,0:0:0:0:
79,247,108524,1,8,0:3:0:0:
289,192,108667,5,12,0:0:0:0:
256,192,108810,12,0,111810,0:0:0:0:
