osu file format v14

[General]
AudioFilename: audio.mp3
AudioLeadIn: 0
PreviewTime: 76882
Countdown: 0
SampleSet: Normal
StackLeniency: 0.7
Mode: 2
LetterboxInBreaks: 0
WidescreenStoryboard: 1

[Editor]
Bookmarks: 10667,19810,28953,38096,56382,76953
DistanceSpacing: 1
BeatDivisor: 4
GridSize: 4
TimelineZoom: 1.8

[Metadata]
Title:chaos eater -IIDX edition-
TitleUnicode:chaos eater -IIDX edition-
Artist:Nekomata Master+
ArtistUnicode:猫叉Master+
Creator:Spectator
Version:Overdose
Source:beatmania IIDX 23 copula
Tags:Electronic Instrumental Video Game Bunnrei Chara Ster -Plus- osu_gangster Jemzuu AJamez Lacrima Myle -Rustyy International Cup CTBI CIC vii Finals No Mod NM DDR DanceDanceRevolution GITADORA NEX+AGE
BeatmapID:3178951
BeatmapSetID:1543977

[Difficulty]
HPDrainRate:5
CircleSize:4.3
OverallDifficulty:9.3
ApproachRate:9.3
SliderMultiplier:1.8
SliderTickRate:2

[Events]
//Background and Video events
0,0,"chaos eater.jpg",0,0
//Break Periods
//Storyboard Layer 0 (Background)
//Storyboard Layer 1 (Fail)
//Storyboard Layer 2 (Pass)
//Storyboard Layer 3 (Foreground)
//Storyboard Layer 4 (Overlay)
//Storyboard Sound Samples

[TimingPoints]
382,285.714285714286,4,1,2,55,1,0
2096,-100,4,1,2,55,0,0
4382,-100,4,1,2,55,0,0
5810,-100,4,1,2,55,0,0
6096,-100,4,1,2,55,0,0
8953,-100,4,1,2,55,0,0
9524,-100,4,1,2,55,0,0
10667,-100,4,1,2,55,0,0
10989,-100,4,1,2,10,0,0
11024,-100,4,1,2,55,0,0
11560,-100,4,1,2,10,0,0
11595,-100,4,1,2,55,0,0
12132,-100,4,1,2,10,0,0
12167,-100,4,1,2,55,0,0
12560,-100,4,1,2,10,0,0
12595,-100,4,1,2,55,0,0
12703,-100,4,1,2,10,0,0
12738,-100,4,1,2,55,0,0
12846,-100,4,1,2,10,0,0
12881,-100,4,1,2,55,0,0
12989,-100,4,1,2,25,0,0
13239,-100,4,1,2,55,0,0
13274,-100,4,1,2,25,0,0
13524,-100,4,1,2,55,0,0
13846,-100,4,1,2,10,0,0
13882,-100,4,1,2,55,0,0
15239,-100,4,1,4,55,0,0
17096,-100,4,1,4,55,0,0
17132,-100,4,1,4,10,0,0
17239,-100,4,1,4,55,0,0
17275,-100,4,1,4,10,0,0
17382,-100,4,1,4,55,0,0
17418,-100,4,1,4,10,0,0
17524,-100,4,1,4,55,0,0
18524,-100,4,1,1,55,0,0
19810,-100,4,1,1,65,0,0
20953,-100,4,1,9,75,0,0
21024,-100,4,1,1,65,0,0
22096,-100,4,1,9,75,0,0
22167,-100,4,1,1,65,0,0
23239,-100,4,1,9,75,0,0
23310,-100,4,1,1,65,0,0
24382,-100,4,1,9,75,0,0
24453,-100,4,1,1,65,0,0
25524,-100,4,1,9,75,0,0
25595,-100,4,1,1,65,0,0
26667,-100,4,1,9,75,0,0
26738,-100,4,1,1,65,0,0
28953,-90.9090909090909,4,1,21,80,0,1
29096,-90.9090909090909,4,1,1,80,0,0
38382,-90.9090909090909,4,1,1,80,0,0
38953,-90.9090909090909,4,1,1,80,0,0
39524,-90.9090909090909,4,1,1,80,0,0
40096,-90.9090909090909,4,1,1,80,0,0
40667,-90.9090909090909,4,1,1,80,0,0
41239,-90.9090909090909,4,1,1,80,0,0
46953,-90.9090909090909,4,1,1,80,0,0
47239,-90.9090909090909,4,1,1,80,0,0
49382,-83.3333333333333,4,1,1,80,0,0
49524,-90.9090909090909,4,1,1,80,0,0
56382,-90.9090909090909,4,1,10,70,0,0
64382,-90.9090909090909,4,1,1,70,0,0
65524,-90.9090909090909,4,1,1,70,0,0
66667,-90.9090909090909,4,1,10,70,0,0
67382,-90.9090909090909,4,1,1,70,0,0
68953,-90.9090909090909,4,1,10,70,0,0
69382,-90.9090909090909,4,1,1,70,0,0
70096,-90.9090909090909,4,1,1,70,0,1
70167,-90.9090909090909,4,1,1,70,0,0
70953,-90.9090909090909,4,1,1,70,0,1
71024,-90.9090909090909,4,1,1,70,0,0
71810,-90.9090909090909,4,1,1,75,0,1
71882,-90.9090909090909,4,1,1,75,0,0
72667,-90.9090909090909,4,1,1,80,0,1
72739,-90.9090909090909,4,1,1,80,0,0
73524,-90.9090909090909,4,1,1,85,0,1
73596,-90.9090909090909,4,1,1,85,0,0
74382,-90.9090909090909,4,1,20,85,0,1
74453,-90.9090909090909,4,1,1,85,0,0
76382,-90.9090909090909,4,1,77,60,0,0
76667,-90.9090909090909,4,1,1,85,0,0
76953,-90.9090909090909,4,1,1,90,0,1
79239,-90.9090909090909,4,1,1,90,0,1
79382,-90.9090909090909,4,1,66,90,0,1
79453,-90.9090909090909,4,1,1,90,0,1
79667,-90.9090909090909,4,1,1,90,0,1
79810,-90.9090909090909,4,1,66,90,0,1
79882,-90.9090909090909,4,1,1,90,0,1
80096,-90.9090909090909,4,1,1,90,0,1
80239,-90.9090909090909,4,1,66,90,0,1
80310,-90.9090909090909,4,1,1,90,0,1
80524,-90.9090909090909,4,1,1,90,0,1
80667,-90.9090909090909,4,1,66,90,0,1
80739,-90.9090909090909,4,1,1,90,0,1
80953,-90.9090909090909,4,1,1,90,0,1
83953,-90.9090909090909,4,1,66,90,0,1
84024,-90.9090909090909,4,1,1,90,0,1
84382,-90.9090909090909,4,1,66,90,0,1
84453,-90.9090909090909,4,1,1,90,0,1
88524,-90.9090909090909,4,1,66,90,0,1
88596,-90.9090909090909,4,1,1,90,0,1
88810,-90.9090909090909,4,1,1,90,0,1
88953,-90.9090909090909,4,1,66,90,0,1
89024,-90.9090909090909,4,1,1,90,0,1
89239,-90.9090909090909,4,1,1,90,0,1
89382,-90.9090909090909,4,1,66,90,0,1
89453,-90.9090909090909,4,1,1,90,0,1
89524,-76.9230769230769,4,1,1,90,0,1
89667,-90.9090909090909,4,1,1,90,0,1
89810,-90.9090909090909,4,1,66,90,0,1
89882,-90.9090909090909,4,1,1,90,0,1
89953,-90.9090909090909,4,1,1,90,0,1
95132,-90.9090909090909,4,1,1,10,0,1
95239,-90.9090909090909,4,1,66,90,0,0
95310,-90.9090909090909,4,1,1,90,0,0
104382,-90.9090909090909,4,1,1,90,0,1
104524,-90.9090909090909,4,1,66,90,0,1
104596,-90.9090909090909,4,1,1,90,0,1
104953,-90.9090909090909,4,1,66,90,0,1
105025,-90.9090909090909,4,1,1,90,0,1
105167,-90.9090909090909,4,1,1,90,0,0
105239,-90.9090909090909,4,1,1,90,0,1
105382,-90.9090909090909,4,1,66,90,0,1
105454,-90.9090909090909,4,1,1,90,0,1
105810,-90.9090909090909,4,1,66,90,0,1
105882,-90.9090909090909,4,1,1,90,0,1
106024,-90.9090909090909,4,1,1,90,0,0
106096,-90.9090909090909,4,1,1,90,0,1
106239,-90.9090909090909,4,1,66,90,0,1
106311,-90.9090909090909,4,1,1,90,0,1
106667,-90.9090909090909,4,1,66,90,0,1
106739,-90.9090909090909,4,1,1,90,0,1
106882,-90.9090909090909,4,1,1,90,0,0
106953,-90.9090909090909,4,1,1,90,0,1
107096,-90.9090909090909,4,1,66,90,0,1
107168,-90.9090909090909,4,1,1,90,0,1
107524,-90.9090909090909,4,1,66,90,0,1
107596,-90.9090909090909,4,1,1,90,0,1
107810,-90.9090909090909,4,1,1,90,0,0
108667,-90.9090909090909,4,1,22,90,0,1
108810,-90.9090909090909,4,1,1,65,0,0

[Colours]
Combo1 : 128,128,128
Combo2 : 192,192,192

[HitObjects]
84,95,810,5,0,0:0:0:0:
137,98,882,1,0,0:0:0:0:
190,100,953,2,0,P|240:129|169:210,1,180,8|0,0:0|0:0,0:0:0:0:
63,214,1382,1,8,0:0:0:0:
324,330,1524,6,0,L|330:221,1,90,10|0,1:3|0:0,0:0:0:0:
179,283,1810,2,0,L|71:284,1,90,2|0,0:0|0:0,0:0:0:0:
239,353,2096,2,0,P|293:331|223:179,1,270,10|8,0:0|0:0,0:0:0:0:
461,247,2667,6,0,L|468:140,1,90,2|0,0:0|0:0,0:0:0:0:
322,168,2953,2,0,L|218:168,1,90,10|0,1:3|0:0,0:0:0:0:
379,280,3239,2,0,P|430:258|368:100,1,270,10|0,0:0|0:0,0:0:0:0:
140,113,3810,6,0,L|249:104,1,90,10|0,0:3|0:0,0:0:0:0:
375,190,4096,2,0,L|251:182,1,90,2|0,0:0|0:0,0:0:0:0:
141,315,4382,2,0,L|139:23,1,270,10|8,0:0|0:0,0:0:0:0:
222,72,4953,5,0,0:0:0:0:
261,142,5096,1,0,0:0:0:0:
262,223,5239,1,8,0:3:0:0:
230,297,5382,1,0,0:0:0:0:
144,322,5524,1,8,0:0:0:0:
292,322,5667,1,0,0:0:0:0:
144,322,5810,2,0,L|138:244,3,45,2|2|2|2,0:2|0:2|0:2|0:2,0:0:0:0:
344,234,6096,6,0,L|460:228,1,90,2|0,0:2|0:0,0:0:0:0:
276,157,6382,2,0,L|183:152,1,90
182,70,6667,1,8,0:0:0:0:
327,75,6810,1,0,0:0:0:0:
182,70,6953,2,0,L|89:65,1,90,0|8,0:0|0:0,0:0:0:0:
323,309,7239,6,0,L|326:206,1,90,2|0,0:0|0:0,0:0:0:0:
186,189,7524,2,0,L|303:182,1,90,10|0,0:3|0:0,0:0:0:0:
424,228,7810,2,0,P|365:190|441:35,1,270,10|0,0:0|0:0,0:0:0:0:
210,110,8382,6,0,L|109:102,1,90,10|0,0:3|0:0,0:0:0:0:
250,50,8667,2,0,L|351:42,1,90,2|0,0:0|0:0,0:0:0:0:
471,109,8953,2,0,L|471:398,1,270,10|8,0:0|0:0,0:0:0:0:
332,326,9524,6,0,P|258:311|223:203,1,180,0|8,0:0|0:3,0:0:0:0:
319,222,9953,1,0,0:0:0:0:
447,226,10096,2,0,L|447:29,1,180,8|8,0:0|0:0,0:0:0:0:
392,46,10453,1,8,0:0:0:0:
338,46,10524,1,8,0:0:0:0:
283,47,10596,1,8,0:0:0:0:
141,350,10667,6,0,L|131:227,1,90,4|0,0:0|0:0,0:0:0:0:
257,281,10953,2,0,L|298:280,1,22.5
373,277,11096,1,0,0:0:0:0:
133,170,11239,6,0,L|123:47,1,90,8|0,0:0|0:0,0:0:0:0:
249,101,11525,2,0,L|290:100,1,22.5
365,97,11668,1,8,0:0:0:0:
133,257,11810,6,0,L|34:250,1,90
180,187,12096,2,0,L|283:177,2,90,8|0|8,0:3|0:0|0:0,0:0:0:0:
402,292,12524,2,0,L|441:288,1,22.5
343,199,12667,2,0,L|304:195,1,22.5
401,112,12810,2,0,L|440:108,1,22.5
236,346,12953,6,0,L|226:223,1,90
352,277,13239,2,0,L|393:276,1,22.5
468,273,13382,1,0,0:0:0:0:
228,166,13525,6,0,L|218:43,1,90,8|0,0:0|0:0,0:0:0:0:
344,97,13811,2,0,L|385:96,1,22.5
460,93,13954,1,8,0:0:0:0:
215,256,14096,6,0,L|98:256,1,90
179,256,14310,1,0,0:0:0:0:
347,190,14382,2,0,L|464:190,1,90
382,188,14596,1,0,0:0:0:0:
222,176,14667,2,0,L|125:175,1,90
278,171,14953,1,2,0:2:0:0:
132,175,15096,1,2,0:2:0:0:
384,126,15239,6,0,L|480:120,1,90,4|0,0:0|0:0,0:0:0:0:
334,96,15524,1,8,0:0:0:0:
473,62,15667,1,8,0:0:0:0:
334,96,15810,2,0,L|238:90,1,90,8|0,0:0|0:0,0:0:0:0:
381,47,16096,2,0,L|505:56,1,90,8|8,0:0|0:0,0:0:0:0:
201,283,16382,6,0,L|325:292,1,90,0|8,0:0|0:0,0:0:0:0:
425,226,16667,2,0,L|301:235,2,90,8|8|8,0:0|0:0|0:0,0:0:0:0:
163,232,17096,2,0,L|124:228,1,22.5,2|0,0:0|0:0,0:0:0:0:
222,139,17239,2,0,L|261:135,1,22.5,2|0,0:0|0:0,0:0:0:0:
164,52,17382,2,0,L|125:48,1,22.5,2|0,0:0|0:0,0:0:0:0:
349,148,17524,6,0,L|353:57,1,90,2|8,0:0|0:0,0:0:0:0:
212,132,17810,1,8,0:0:0:0:
352,59,17953,1,8,0:0:0:0:
212,132,18096,2,0,L|103:124,1,90
259,205,18382,1,8,0:0:0:0:
121,125,18524,2,0,L|115:64,1,45
308,289,18667,5,2,0:0:0:0:
357,289,18739,1,0,0:0:0:0:
143,329,18810,1,0,0:0:0:0:
94,329,18882,1,0,0:0:0:0:
255,214,18953,1,2,0:0:0:0:
302,200,19024,1,0,0:0:0:0:
320,153,19096,1,0,0:0:0:0:
303,106,19167,1,0,0:0:0:0:
256,87,19239,1,2,0:0:0:0:
126,89,19382,1,8,0:3:0:0:
421,94,19524,1,8,0:0:0:0:
254,336,19810,6,0,P|201:319|143:200,1,180,4|0,0:0|0:0,0:0:0:0:
240,197,20239,1,0,0:0:0:0:
388,244,20382,2,0,P|434:218|377:129,1,180,8|0,0:0|0:0,0:0:0:0:
288,107,20810,1,0,0:0:0:0:
148,241,20953,6,0,L|365:281,2,180,2|8|8,0:0|0:3|0:0,0:0:0:0:
387,145,21667,1,2,0:2:0:0:
278,144,21810,1,2,0:2:0:0:
387,145,21953,1,2,0:2:0:0:
148,241,22096,6,0,P|94:236|32:118,1,180,10|0,0:1|0:0,0:0:0:0:
125,113,22524,1,0,0:0:0:0:
276,163,22667,2,0,L|276:273,1,90,8|0,0:0|0:0,0:0:0:0:
126,194,22953,2,0,L|234:193,1,90
435,152,23239,6,0,L|446:273,1,90,2|0,0:0|0:0,0:0:0:0:
388,241,23453,1,0,0:0:0:0:
238,325,23524,2,0,L|129:327,1,90,8|0,0:3|0:0,0:0:0:0:
203,325,23739,1,0,0:0:0:0:
382,328,23810,2,0,L|383:216,1,90,8|0,0:0|0:0,0:0:0:0:
275,236,24096,1,0,0:0:0:0:
383,237,24239,1,0,0:0:0:0:
131,71,24382,6,0,P|83:103|140:194,1,180,10|0,0:1|0:0,0:0:0:0:
227,95,24810,1,0,0:0:0:0:
377,84,24953,2,0,L|379:286,1,180,8|0,0:0|0:0,0:0:0:0:
279,275,25382,1,0,0:0:0:0:
136,273,25524,6,0,P|86:231|151:148,1,180,2|8,0:0|0:3,0:0:0:0:
232,116,25953,1,0,0:0:0:0:
137,147,26096,1,8,0:0:0:0:
395,57,26239,1,2,0:2:0:0:
286,55,26382,1,2,0:2:0:0:
395,57,26525,1,2,0:2:0:0:
137,147,26667,6,0,L|131:349,1,180,10|0,0:1|0:0,0:0:0:0:
229,306,27096,1,0,0:0:0:0:
384,223,27239,2,0,L|257:223,1,90,8|0,0:0|0:0,0:0:0:0:
140,139,27524,2,0,L|267:139,1,90
435,346,27810,6,0,L|435:289,1,45,4|0,0:0|0:0,0:0:0:0:
239,248,27953,2,0,L|169:249,1,45
343,225,28096,1,2,0:2:0:0:
387,203,28167,1,0,0:0:0:0:
402,155,28239,1,0,0:0:0:0:
382,109,28310,1,0,0:0:0:0:
338,83,28382,1,2,0:2:0:0:
189,84,28524,1,8,0:3:0:0:
467,85,28667,1,8,0:0:0:0:
261,176,28953,6,0,L|117:174,1,99.0000030212403,4|0,0:0|0:0,0:0:0:0:
414,302,29239,1,8,0:0:0:0:
289,300,29382,1,0,0:0:0:0:
57,249,29524,2,0,L|179:249,2,99.0000030212403,0|8|8,0:0|1:3|0:0,0:0:0:0:
202,201,29953,6,0,P|253:173|197:73,1,198.000006042481
101,71,30382,1,8,0:0:0:0:
201,73,30524,1,0,0:0:0:0:
417,177,30667,2,0,L|280:174,1,99.0000030212403,0|8,0:0|0:3,0:0:0:0:
439,104,30953,2,0,L|448:54,2,49.5000015106202,8|0|0,0:0|0:0|0:0,0:0:0:0:
205,279,31239,6,0,L|107:282,1,99.0000030212403,8|0,0:3|0:0,0:0:0:0:
323,125,31524,1,8,0:1:0:0:
448,127,31667,1,0,0:0:0:0:
185,193,31810,2,0,L|87:196,2,99.0000030212403,0|8|8,0:0|0:3|0:0,0:0:0:0:
406,180,32239,6,0,L|484:180,2,49.5000015106202,0|0|8,0:0|0:0|0:3,0:0:0:0:
267,255,32524,2,0,L|206:254,2,49.5000015106202,0|0|8,0:0|0:0|0:0,0:0:0:0:
404,257,32810,2,0,L|407:193,1,49.5000015106202
262,183,32953,2,0,L|150:183,1,99.0000030212403,0|8,0:0|0:3,0:0:0:0:
309,308,33239,1,8,0:0:0:0:
356,293,33310,1,0,0:0:0:0:
377,247,33382,1,0,0:0:0:0:
356,202,33453,1,0,0:0:0:0:
197,124,33524,6,0,L|53:122,1,99.0000030212403,4|0,0:0|0:0,0:0:0:0:
373,268,33810,1,8,0:0:0:0:
248,266,33953,1,0,0:0:0:0:
16,215,34096,2,0,L|138:215,2,99.0000030212403,0|8|8,0:0|0:3|0:0,0:0:0:0:
250,197,34524,6,0,L|251:-6,1,198.000006042481
154,23,34953,1,8,0:0:0:0:
250,2,35096,1,0,0:0:0:0:
458,197,35239,2,0,L|458:78,1,99.0000030212403,0|8,0:0|0:3,0:0:0:0:
338,97,35524,1,8,0:0:0:0:
387,97,35596,1,0,0:0:0:0:
436,97,35667,1,0,0:0:0:0:
227,238,35810,6,0,L|121:235,1,99.0000030212403,8|0,0:3|0:0,0:0:0:0:
377,341,36096,2,0,L|382:231,1,99.0000030212403,8|0,0:0|0:0,0:0:0:0:
132,163,36382,1,0,0:0:0:0:
252,161,36524,1,8,0:3:0:0:
132,163,36667,1,8,0:0:0:0:
351,239,36810,6,0,P|402:204|348:103,1,198.000006042481
205,34,37239,2,0,L|305:34,1,99.0000030212403,8|0,0:0|0:0,0:0:0:0:
57,149,37524,1,0,0:0:0:0:
178,146,37667,1,8,0:3:0:0:
380,243,37810,2,0,L|462:243,1,49.5000015106202,8|2,0:0|0:2,0:0:0:0:
277,144,37953,2,0,L|214:145,1,49.5000015106202,2|2,0:2|0:2,0:0:0:0:
382,152,38096,6,0,P|430:130|370:26,1,198.000006042481,4|8,0:0|0:0,0:0:0:0:
273,61,38524,1,0,0:0:0:0:
66,140,38667,1,0,0:2:0:0:
273,61,38810,1,8,0:3:0:0:
383,25,38953,1,8,0:0:0:0:
273,61,39096,6,0,P|186:96|294:220,1,297.000009063721,0|8,0:0|0:0,0:0:0:0:
383,192,39667,1,0,0:0:0:0:
172,173,39810,1,0,0:0:0:0:
383,94,39953,1,8,0:3:0:0:
489,58,40096,1,8,0:0:0:0:
383,94,40239,6,0,L|75:32,1,297.000009063721,0|8,0:0|0:0,0:0:0:0:
201,53,40810,1,0,0:0:0:0:
417,98,40953,1,0,0:0:0:0:
201,53,41096,1,8,0:3:0:0:
92,35,41239,1,8,0:0:0:0:
201,53,41382,6,0,P|291:153|201:255,1,297.000009063721,0|8,0:0|0:0,0:0:0:0:
87,253,41953,1,0,0:0:0:0:
339,317,42096,2,0,P|384:290|328:178,1,198.000006042481,0|8,0:0|0:0,0:0:0:0:
227,178,42524,1,0,0:0:0:0:
445,184,42667,5,4,0:0:0:0:
227,178,42810,2,0,L|144:179,1,49.5000015106202
341,262,42953,1,8,0:0:0:0:
385,239,43024,1,0,0:0:0:0:
402,192,43096,1,0,0:0:0:0:
385,145,43167,1,0,0:0:0:0:
340,122,43239,1,0,0:0:0:0:
193,119,43382,1,8,0:3:0:0:
342,37,43524,1,8,0:0:0:0:
391,38,43596,1,0,0:0:0:0:
440,40,43667,1,0,0:0:0:0:
195,204,43810,5,8,0:3:0:0:
324,197,43953,2,0,L|391:196,1,49.5000015106202
192,284,44096,1,8,0:0:0:0:
73,284,44239,1,0,0:0:0:0:
309,74,44382,1,0,0:0:0:0:
428,74,44525,1,8,0:3:0:0:
187,205,44667,2,0,P|136:180|209:85,1,198.000006042481,8|8,0:0|0:3,0:0:0:0:
429,218,45096,5,0,0:0:0:0:
472,195,45167,1,0,0:0:0:0:
489,148,45239,1,8,0:1:0:0:
470,102,45310,1,0,0:0:0:0:
427,76,45382,1,0,0:0:0:0:
278,77,45524,1,0,0:0:0:0:
278,77,45667,1,8,0:3:0:0:
427,76,45810,1,8,0:0:0:0:
377,75,45881,1,0,0:0:0:0:
327,74,45953,1,8,0:3:0:0:
70,176,46096,5,8,0:0:0:0:
174,175,46239,1,8,0:3:0:0:
379,177,46382,1,8,0:0:0:0:
174,175,46524,2,0,P|123:152|189:56,1,198.000006042481,0|8,0:0|0:3,0:0:0:0:
293,54,46953,1,8,0:0:0:0:
414,55,47096,1,0,0:0:0:0:
176,163,47239,6,0,P|105:177|45:296,1,198.000006042481,4|8,0:0|0:0,0:0:0:0:
153,275,47667,1,0,0:0:0:0:
369,270,47810,1,0,0:0:0:0:
153,275,47953,1,8,0:3:0:0:
45,278,48096,1,8,0:0:0:0:
153,275,48239,6,0,P|223:238|144:78,1,297.000009063721,0|8,0:0|0:0,0:0:0:0:
40,78,48810,1,0,0:0:0:0:
256,79,48953,1,0,0:0:0:0:
40,78,49096,1,8,0:3:0:0:
152,78,49239,1,8,0:0:0:0:
40,78,49382,2,0,B|13:128|67:171|67:171|136:250|136:250|151:308|257:306,1,323.999990112305,0|8,0:0|0:0,0:0:0:0:
337,275,49953,1,0,0:0:0:0:
121,274,50096,1,0,0:0:0:0:
337,275,50239,1,8,0:3:0:0:
455,277,50382,1,8,0:0:0:0:
337,275,50524,6,0,P|243:215|351:106,1,297.000009063721,0|8,0:0|0:0,0:0:0:0:
455,277,51096,1,0,0:0:0:0:
202,310,51239,2,0,L|198:200,1,99.0000030212403,0|8,0:0|0:3,0:0:0:0:
337,234,51524,2,0,L|220:235,1,99.0000030212403,8|0,0:0|0:0,0:0:0:0:
30,166,51810,5,4,0:0:0:0:
42,118,51881,1,0,0:0:0:0:
76,83,51952,1,0,0:0:0:0:
123,69,52024,1,0,0:0:0:0:
257,135,52096,2,0,L|315:134,1,49.5000015106202,8|0,0:0|0:0,0:0:0:0:
257,135,52239,2,0,L|207:135,1,49.5000015106202
389,69,52382,1,0,0:0:0:0:
436,83,52454,1,0,0:0:0:0:
470,118,52525,1,8,0:3:0:0:
482,166,52596,1,0,0:0:0:0:
334,226,52667,2,0,L|269:225,1,49.5000015106202,8|0,0:0|0:0,0:0:0:0:
130,324,52810,5,2,0:0:0:0:
12,325,52953,1,0,0:0:0:0:
287,142,53096,1,2,0:0:0:0:
405,143,53239,1,0,0:0:0:0:
287,142,53382,1,0,0:0:0:0:
41,106,53524,2,0,L|154:106,1,99.0000030212403,2|8,0:0|0:3,0:0:0:0:
406,293,53810,2,0,L|282:295,1,99.0000030212403,10|0,0:0|0:0,0:0:0:0:
104,237,54096,6,0,L|44:238,1,49.5000015106202,8|0,0:3|0:0,0:0:0:0:
54,237,54239,2,0,L|104:237,1,49.5000015106202
257,134,54382,2,0,L|338:132,1,49.5000015106202,8|0,0:0|0:0,0:0:0:0:
257,134,54524,2,0,L|176:132,1,49.5000015106202
408,237,54667,2,0,L|468:238,1,49.5000015106202
457,237,54810,2,0,L|408:237,1,49.5000015106202,8|0,0:3|0:0,0:0:0:0:
259,233,54953,2,0,L|199:233,1,49.5000015106202,8|0,0:0|0:0,0:0:0:0:
354,96,55096,5,2,0:0:0:0:
482,98,55239,1,8,0:1:0:0:
219,321,55382,1,2,0:1:0:0:
91,323,55525,1,8,0:0:0:0:
219,321,55667,1,8,0:3:0:0:
471,259,55810,2,0,L|354:259,1,99.0000030212403,8|8,0:0|0:3,0:0:0:0:
129,207,56096,2,0,L|120:102,1,99.0000030212403,8|8,0:0|0:3,0:0:0:0:
361,103,56382,1,4,0:0:0:0:
98,329,56667,5,2,0:0:0:0:
98,247,56810,1,0,0:0:0:0:
241,245,56953,1,10,0:0:0:0:
98,247,57096,1,2,0:0:0:0:
174,204,57239,1,0,0:0:0:0:
200,128,57382,1,2,0:0:0:0:
174,47,57524,1,0,0:0:0:0:
93,25,57667,1,2,0:0:0:0:
236,24,57810,1,2,0:0:0:0:
379,24,57953,1,2,0:0:0:0:
236,24,58096,1,10,0:0:0:0:
154,57,58239,1,0,0:0:0:0:
154,57,58382,1,0,0:0:0:0:
236,24,58524,1,0,0:0:0:0:
472,19,58667,1,0,0:0:0:0:
414,329,58953,5,2,0:0:0:0:
414,247,59096,1,2,0:0:0:0:
271,245,59239,1,10,0:0:0:0:
414,247,59382,1,2,0:0:0:0:
444,168,59525,1,0,0:0:0:0:
414,247,59668,1,2,0:0:0:0:
293,246,59810,1,2,0:0:0:0:
414,247,59953,1,0,0:0:0:0:
195,112,60096,1,2,0:0:0:0:
79,111,60239,1,0,0:0:0:0:
338,204,60382,2,0,P|388:178|328:78,1,198.000006042481,10|2,0:0|0:0,0:0:0:0:
216,79,60810,1,0,0:0:0:0:
17,81,60953,1,4,0:0:0:0:
80,336,61239,5,2,0:0:0:0:
80,254,61382,1,2,0:0:0:0:
223,252,61525,1,10,0:0:0:0:
80,254,61668,1,2,0:0:0:0:
156,211,61811,1,0,0:0:0:0:
182,135,61954,1,2,0:0:0:0:
156,54,62096,1,0,0:0:0:0:
75,32,62239,1,2,0:0:0:0:
218,31,62382,1,2,0:0:0:0:
361,31,62525,1,2,0:0:0:0:
218,31,62668,1,10,0:0:0:0:
136,64,62811,1,0,0:0:0:0:
136,64,62954,1,0,0:0:0:0:
218,31,63096,1,0,0:0:0:0:
454,26,63239,1,0,0:0:0:0:
432,336,63524,5,2,0:0:0:0:
432,254,63667,1,2,0:0:0:0:
289,252,63810,1,10,0:0:0:0:
432,254,63953,1,2,0:0:0:0:
462,178,64096,1,0,0:0:0:0:
432,254,64239,1,2,0:0:0:0:
160,188,64382,5,2,0:0:0:0:
139,143,64453,1,0,0:0:0:0:
161,99,64524,1,0,0:0:0:0:
211,88,64596,1,0,0:0:0:0:
360,142,64667,1,2,0:1:0:0:
478,144,64810,1,0,0:0:0:0:
254,262,64953,1,2,0:0:0:0:
132,264,65096,1,8,0:3:0:0:
380,268,65239,1,10,0:0:0:0:
200,335,65524,6,0,P|147:309|220:219,1,198.000006042481,12|0,0:0|0:0,0:0:0:0:
352,216,65953,2,0,P|417:275|353:336,1,198.000006042481,8|0,0:0|0:0,0:0:0:0:
96,215,66382,1,8,0:0:0:0:
254,210,66667,5,2,0:0:0:0:
322,165,66810,1,0,0:0:0:0:
345,85,66953,1,2,0:0:0:0:
322,165,67096,1,0,0:0:0:0:
254,210,67239,1,2,0:0:0:0:
114,211,67382,1,8,0:3:0:0:
354,340,67524,1,8,0:0:0:0:
150,336,67810,6,0,P|97:310|170:220,1,198.000006042481,12|0,0:0|0:0,0:0:0:0:
302,217,68239,2,0,P|367:276|303:337,1,198.000006042481,8|0,0:0|0:0,0:0:0:0:
46,216,68668,1,8,0:0:0:0:
262,122,68953,5,2,0:0:0:0:
381,121,69096,1,0,0:0:0:0:
262,122,69239,1,2,0:0:0:0:
416,261,69382,2,0,P|476:214|411:133,1,198.000006042481,8|8,0:1|0:3,0:0:0:0:
262,122,69810,1,8,0:0:0:0:
465,281,70096,6,0,L|472:160,1,99.0000030212403,12|0,0:0|0:0,0:0:0:0:
360,180,70382,1,0,0:0:0:0:
151,98,70524,1,12,0:0:0:0:
259,96,70667,1,0,0:0:0:0:
368,94,70810,1,0,0:0:0:0:
47,281,70953,6,0,L|40:160,1,99.0000030212403,12|0,0:0|0:0,0:0:0:0:
152,180,71239,1,0,0:0:0:0:
361,98,71381,1,12,0:0:0:0:
253,96,71524,1,0,0:0:0:0:
144,94,71667,1,0,0:0:0:0:
395,200,71810,5,12,0:0:0:0:
286,202,71953,1,0,0:0:0:0:
395,200,72096,1,0,0:0:0:0:
144,94,72239,1,12,0:0:0:0:
262,96,72382,1,0,0:0:0:0:
380,98,72525,1,0,0:0:0:0:
90,200,72667,5,12,0:0:0:0:
199,202,72810,1,0,0:0:0:0:
90,200,72953,1,0,0:0:0:0:
368,94,73096,1,12,0:0:0:0:
253,96,73239,1,0,0:0:0:0:
134,97,73382,1,0,0:0:0:0:
422,277,73524,5,12,0:0:0:0:
312,276,73667,1,0,0:0:0:0:
422,277,73810,1,0,0:0:0:0:
61,316,73953,1,12,0:0:0:0:
171,315,74096,1,0,0:0:0:0:
61,316,74239,1,0,0:0:0:0:
452,189,74382,5,12,0:0:0:0:
256,192,74524,12,0,76096,0:0:0:0:
294,216,76382,6,0,L|294:145,1,49.5000015106202,0|0,1:1|1:1,0:0:0:0:
217,141,76524,2,0,L|217:70,1,49.5000015106202,0|0,1:1|1:1,0:0:0:0:
408,97,76667,1,8,2:1:0:0:
292,332,76953,6,0,P|237:297|313:207,1,198.000006042481,6|10,0:0|0:0,0:0:0:0:
407,200,77382,1,0,0:0:0:0:
156,106,77524,1,2,0:0:0:0:
289,104,77667,1,8,1:3:0:0:
156,106,77810,1,10,0:0:0:0:
407,200,77953,6,0,P|379:278|271:337,1,198.000006042481,2|2,0:0|0:0,0:0:0:0:
142,341,78382,2,0,L|286:342,1,99.0000030212403,10|0,0:0|0:0,0:0:0:0:
473,365,78667,2,0,L|474:166,1,198.000006042481,2|10,0:0|0:0,0:0:0:0:
354,165,79096,1,0,0:0:0:0:
475,167,79239,5,8,0:3:0:0:
235,181,79382,2,0,L|230:68,1,99.0000030212403,2|8,0:0|0:0,0:0:0:0:
349,82,79667,1,0,0:0:0:0:
109,46,79810,2,0,L|225:44,2,99.0000030212403,2|8|8,0:0|0:3|0:0,0:0:0:0:
342,278,80239,6,0,L|347:165,1,99.0000030212403,2|8,0:0|0:3,0:0:0:0:
228,179,80524,1,0,0:0:0:0:
468,143,80667,2,0,L|352:141,1,99.0000030212403,10|0,0:0|0:0,0:0:0:0:
146,49,80953,2,0,L|36:48,1,99.0000030212403,0|8,0:0|0:3,0:0:0:0:
278,239,81239,2,0,L|388:238,1,99.0000030212403,8|0,0:0|0:0,0:0:0:0:
143,331,81524,6,0,P|88:296|164:206,1,198.000006042481,6|10,0:0|0:0,0:0:0:0:
258,199,81953,1,0,0:0:0:0:
489,106,82095,1,2,0:0:0:0:
357,106,82238,1,8,0:3:0:0:
489,106,82381,1,10,0:0:0:0:
258,199,82524,6,0,P|182:180|129:56,1,198.000006042481,2|2,0:0|0:0,0:0:0:0:
247,80,82953,1,10,0:0:0:0:
127,80,83096,1,0,0:0:0:0:
418,139,83239,2,0,L|419:273,1,99.0000030212403,2|8,0:0|0:3,0:0:0:0:
297,239,83524,1,10,0:0:0:0:
418,238,83667,1,2,0:0:0:0:
297,239,83810,5,8,0:3:0:0:
59,243,83953,2,0,L|48:115,1,99.0000030212403,2|8,0:0|0:0,0:0:0:0:
173,143,84239,1,0,0:0:0:0:
407,117,84382,1,2,0:0:0:0:
291,119,84524,1,8,0:3:0:0:
174,117,84667,1,8,0:0:0:0:
439,194,84810,6,0,P|425:132|290:64,1,198.000006042481,2|0,0:1|0:0,0:0:0:0:
77,212,85239,2,0,P|19:179|93:97,1,198.000006042481,10|0,0:0|0:0,0:0:0:0:
324,92,85667,1,2,0:1:0:0:
79,93,85810,1,10,0:0:0:0:
291,193,86096,6,0,L|422:192,1,99.0000030212403,6|0,0:0|0:0,0:0:0:0:
149,36,86382,2,0,L|21:36,1,99.0000030212403,10|0,0:0|0:0,0:0:0:0:
305,100,86667,1,2,0:0:0:0:
170,100,86810,1,8,0:3:0:0:
305,100,86953,1,10,0:0:0:0:
49,36,87096,6,0,L|46:246,1,198.000006042481,2|2,0:0|0:0,0:0:0:0:
165,230,87524,1,10,0:0:0:0:
46,234,87667,1,0,0:0:0:0:
284,163,87810,2,0,P|334:137|264:39,1,198.000006042481,2|10,0:0|0:0,0:0:0:0:
163,42,88239,1,2,0:0:0:0:
44,43,88382,1,8,0:3:0:0:
278,267,88524,6,0,L|285:152,1,99.0000030212403,2|8,0:0|0:0,0:0:0:0:
164,169,88810,1,0,0:0:0:0:
403,160,88953,2,0,L|410:45,1,99.0000030212403,2|8,0:0|0:3,0:0:0:0:
289,62,89239,1,8,0:0:0:0:
410,62,89382,1,2,0:0:0:0:
167,252,89524,6,0,B|68:216|68:216|41:80,1,233.999989288331,8|10,0:3|0:0,0:0:0:0:
158,133,89953,1,0,0:0:0:0:
414,134,90096,2,0,L|418:269,1,99.0000030212403,0|8,0:0|0:3,0:0:0:0:
297,235,90382,1,8,0:0:0:0:
415,233,90524,1,0,0:0:0:0:
149,35,90667,6,0,L|29:36,1,99.0000030212403,6|0,0:0|0:0,0:0:0:0:
190,117,90953,2,0,L|308:116,1,99.0000030212403,2|0,0:0|0:0,0:0:0:0:
148,254,91239,2,0,P|88:215|177:142,1,198.000006042481,10|2,0:0|0:0,0:0:0:0:
288,129,91667,1,2,0:0:0:0:
60,129,91810,6,0,L|54:257,1,99.0000030212403,4|2,0:0|0:0,0:0:0:0:
199,234,92096,2,0,L|56:237,2,99.0000030212403,8|2|10,0:3|0:0|0:0,0:0:0:0:
424,311,92524,2,0,P|483:285|413:205,1,198.000006042481,8|0,0:3|0:0,0:0:0:0:
200,237,92953,6,0,L|195:107,1,99.0000030212403,4|0,0:0|0:0,0:0:0:0:
327,158,93239,2,0,P|386:132|316:52,1,198.000006042481,0|8,0:0|0:0,0:0:0:0:
188,157,93667,2,0,P|129:131|199:51,1,198.000006042481,8|8,0:3|0:3,0:0:0:0:
423,171,94096,6,0,L|432:289,1,99.0000030212403,4|0,0:0|0:0,0:0:0:0:
287,311,94382,2,0,L|412:311,1,99.0000030212403,8|0,0:3|0:0,0:0:0:0:
102,227,94667,1,8,0:0:0:0:
232,224,94810,1,8,0:3:0:0:
102,227,94953,1,8,0:0:0:0:
232,224,95096,1,8,0:0:0:0:
469,124,95239,6,0,L|361:113,1,99.0000030212403,4|0,0:0|0:0,0:0:0:0:
240,30,95524,2,0,L|372:42,1,99.0000030212403,8|0,0:0|0:0,0:0:0:0:
93,305,95810,2,0,L|201:294,1,99.0000030212403,0|8,0:0|0:3,0:0:0:0:
321,216,96096,2,0,L|189:228,1,99.0000030212403,8|0,0:0|0:0,0:0:0:0:
464,146,96382,6,0,L|469:221,2,49.5000015106202,8|0|0,0:3|0:0|0:0,0:0:0:0:
337,105,96667,2,0,L|452:93,2,99.0000030212403,8|0|0,0:0|0:0|0:0,0:0:0:0:
126,216,97096,1,8,0:3:0:0:
81,193,97167,1,0,0:0:0:0:
61,147,97239,1,8,0:0:0:0:
79,101,97310,1,0,0:0:0:0:
126,86,97382,1,0,0:0:0:0:
263,171,97524,5,8,0:3:0:0:
310,156,97596,1,0,0:0:0:0:
326,109,97667,1,0,0:0:0:0:
309,61,97739,1,0,0:0:0:0:
179,120,97810,2,0,L|117:119,1,49.5000015106202,8|0,0:0|0:0,0:0:0:0:
264,15,97953,2,0,L|337:15,1,49.5000015106202
133,37,98096,2,0,L|-10:34,1,99.0000030212403,0|8,0:0|0:3,0:0:0:0:
317,242,98382,1,8,0:0:0:0:
189,241,98524,1,0,0:0:0:0:
317,242,98667,5,8,0:3:0:0:
68,235,98810,2,0,L|63:166,1,49.5000015106202
210,145,98953,2,0,L|322:147,1,99.0000030212403,8|0,0:0|0:0,0:0:0:0:
259,145,99167,1,0,0:0:0:0:
132,67,99239,2,0,L|19:65,1,99.0000030212403,0|8,0:0|0:3,0:0:0:0:
262,66,99524,2,0,L|395:67,1,99.0000030212403,8|0,0:0|0:0,0:0:0:0:
116,328,99810,6,0,P|57:296|138:218,1,198.000006042481,4|8,0:0|0:0,0:0:0:0:
367,276,100239,2,0,L|464:274,1,49.5000015106202
277,202,100382,2,0,L|218:200,1,49.5000015106202
227,200,100524,2,0,L|277:202,1,49.5000015106202,8|0,0:3|0:0,0:0:0:0:
418,113,100667,2,0,L|477:111,1,49.5000015106202,8|0,0:0|0:0,0:0:0:0:
467,111,100810,2,0,L|417:112,1,49.5000015106202
277,114,100953,5,8,0:3:0:0:
228,106,101024,1,0,0:0:0:0:
192,73,101095,1,0,0:0:0:0:
179,26,101167,1,0,0:0:0:0:
316,206,101239,2,0,L|322:283,3,49.5000015106202,8|0|0|0,0:0|0:0|0:0|0:0,0:0:0:0:
176,358,101524,5,0,0:0:0:0:
135,328,101596,1,0,0:0:0:0:
120,280,101667,1,8,0:3:0:0:
141,235,101739,1,0,0:0:0:0:
187,219,101810,1,8,0:0:0:0:
229,193,101882,1,0,0:0:0:0:
252,149,101953,1,0,0:0:0:0:
236,102,102024,1,0,0:0:0:0:
87,38,102096,6,0,L|84:174,1,99.0000030212403,8|0,0:3|0:0,0:0:0:0:
134,135,102310,1,0,0:0:0:0:
278,249,102382,1,8,0:0:0:0:
327,249,102453,1,0,0:0:0:0:
278,249,102524,1,0,0:0:0:0:
53,351,102667,5,0,0:0:0:0:
60,301,102739,1,0,0:0:0:0:
93,265,102810,1,8,0:3:0:0:
138,245,102882,1,0,0:0:0:0:
273,172,102953,2,0,L|340:172,2,49.5000015106202,8|0|0,0:0|0:0|0:0,0:0:0:0:
47,188,103239,6,0,L|46:126,1,49.5000015106202,8|0,0:3|0:0,0:0:0:0:
192,94,103382,2,0,L|274:95,1,49.5000015106202
103,43,103524,2,0,L|14:42,2,49.5000015106202,8|0|0,0:0|0:0|0:0,0:0:0:0:
360,261,103810,2,0,L|284:261,1,49.5000015106202,8|0,0:0|0:0,0:0:0:0:
151,266,103953,2,0,L|63:265,1,49.5000015106202,8|0,0:3|0:0,0:0:0:0:
258,165,104096,2,0,L|321:164,1,49.5000015106202,8|0,0:0|0:0,0:0:0:0:
307,164,104239,2,0,L|258:165,1,49.5000015106202,8|0,0:0|0:0,0:0:0:0:
64,134,104382,5,4,0:0:0:0:
172,133,104524,1,6,0:1:0:0:
64,134,104667,1,0,0:0:0:0:
363,41,104810,1,12,0:0:0:0:
244,40,104953,1,6,0:1:0:0:
125,40,105096,1,0,0:0:0:0:
464,241,105239,5,12,0:0:0:0:
351,242,105381,1,6,0:1:0:0:
464,241,105524,1,0,0:0:0:0:
149,146,105667,1,12,0:0:0:0:
268,145,105810,1,6,0:1:0:0:
387,145,105953,1,0,0:0:0:0:
48,241,106096,5,12,0:0:0:0:
168,238,106238,1,6,0:1:0:0:
48,241,106381,1,0,0:0:0:0:
294,238,106524,1,12,0:0:0:0:
47,148,106667,1,6,0:1:0:0:
165,148,106810,1,0,0:0:0:0:
464,241,106953,5,12,0:0:0:0:
346,241,107095,1,6,0:1:0:0:
464,241,107238,1,0,0:0:0:0:
201,239,107381,1,12,0:0:0:0:
465,148,107524,1,6,0:1:0:0:
345,148,107667,1,0,0:0:0:0:
62,241,107810,5,12,0:0:0:0:
62,147,107953,1,8,0:3:0:0:
315,66,108096,1,8,0:0:0:0:
196,66,108239,1,8,0:3:0:0:
450,241,108382,1,8,0:0:0:0:
450,147,108525,1,8,0:3:0:0:
195,148,108667,5,12,0:0:0:0:
256,192,108810,12,0,111810,0:0:0:0:
