osu file format v14

[General]
AudioFilename: audio.mp3
AudioLeadIn: 0
PreviewTime: 76882
Countdown: 0
SampleSet: Normal
StackLeniency: 0.7
Mode: 2
LetterboxInBreaks: 0
WidescreenStoryboard: 1

[Editor]
Bookmarks: 10667,19810,28953,38096,56382,76953
DistanceSpacing: 1.2
BeatDivisor: 4
GridSize: 4
TimelineZoom: 2.2

[Metadata]
Title:chaos eater -IIDX edition-
TitleUnicode:chaos eater -IIDX edition-
Artist:Nekomata Master+
ArtistUnicode:猫叉Master+
Creator:Spectator
Version:Lacrima's Overdose
Source:beatmania IIDX 23 copula
Tags:Electronic Instrumental Video Game Bunnrei Chara Ster -Plus- osu_gangster Jemzuu AJamez Lacrima Myle -Rustyy International Cup CTBI CIC vii Finals No Mod NM DDR DanceDanceRevolution GITADORA NEX+AGE
BeatmapID:3178950
BeatmapSetID:1543977

[Difficulty]
HPDrainRate:6
CircleSize:4
OverallDifficulty:9.5
ApproachRate:9.5
SliderMultiplier:1.9
SliderTickRate:2

[Events]
//Background and Video events
0,0,"chaos eater.jpg",0,0
//Break Periods
//Storyboard Layer 0 (Background)
//Storyboard Layer 1 (Fail)
//Storyboard Layer 2 (Pass)
//Storyboard Layer 3 (Foreground)
//Storyboard Layer 4 (Overlay)
//Storyboard Sound Samples

[TimingPoints]
382,285.714285714286,4,1,2,55,1,0
2096,-100,4,1,2,55,0,0
4382,-100,4,1,2,55,0,0
5810,-100,4,1,2,55,0,0
6096,-100,4,1,2,55,0,0
8953,-100,4,1,2,55,0,0
9524,-100,4,1,2,55,0,0
10667,-100,4,1,2,55,0,0
10989,-100,4,1,2,10,0,0
11024,-100,4,1,2,55,0,0
11560,-100,4,1,2,10,0,0
11595,-100,4,1,2,55,0,0
12132,-100,4,1,2,10,0,0
12167,-100,4,1,2,55,0,0
12560,-100,4,1,2,10,0,0
12595,-100,4,1,2,55,0,0
12703,-100,4,1,2,10,0,0
12738,-100,4,1,2,55,0,0
12846,-100,4,1,2,10,0,0
12881,-100,4,1,2,55,0,0
12989,-100,4,1,2,25,0,0
13239,-100,4,1,2,55,0,0
13274,-100,4,1,2,25,0,0
13524,-100,4,1,2,55,0,0
13846,-100,4,1,2,10,0,0
13882,-100,4,1,2,55,0,0
15239,-100,4,1,4,55,0,0
17096,-100,4,1,4,55,0,0
17132,-100,4,1,4,10,0,0
17239,-100,4,1,4,55,0,0
17275,-100,4,1,4,10,0,0
17382,-100,4,1,4,55,0,0
17418,-100,4,1,4,10,0,0
17524,-100,4,1,4,55,0,0
18524,-100,4,1,1,55,0,0
19810,-100,4,1,1,65,0,0
20953,-100,4,1,9,75,0,0
21024,-100,4,1,1,65,0,0
22096,-100,4,1,9,75,0,0
22167,-100,4,1,1,65,0,0
23239,-100,4,1,9,75,0,0
23310,-100,4,1,1,65,0,0
24382,-100,4,1,9,75,0,0
24453,-100,4,1,1,65,0,0
25524,-100,4,1,9,75,0,0
25595,-100,4,1,1,65,0,0
26667,-100,4,1,9,75,0,0
26738,-100,4,1,1,65,0,0
28953,-100,4,1,21,80,0,1
29096,-100,4,1,1,80,0,0
38382,-100,4,1,1,80,0,0
38953,-100,4,1,1,80,0,0
39524,-100,4,1,1,80,0,0
40096,-100,4,1,1,80,0,0
40667,-100,4,1,1,80,0,0
41239,-100,4,1,1,80,0,0
46953,-90.9090909090909,4,1,1,80,0,0
47239,-100,4,1,1,80,0,0
56382,-100,4,1,10,70,0,0
64382,-100,4,1,1,70,0,0
65524,-100,4,1,1,70,0,0
66667,-100,4,1,10,70,0,0
67382,-100,4,1,1,70,0,0
68953,-100,4,1,10,70,0,0
69382,-100,4,1,1,70,0,0
70096,-100,4,1,1,70,0,1
70167,-100,4,1,1,70,0,0
70953,-100,4,1,1,70,0,1
71024,-100,4,1,1,70,0,0
71810,-100,4,1,1,75,0,1
71882,-100,4,1,1,75,0,0
72667,-100,4,1,1,80,0,1
72739,-100,4,1,1,80,0,0
73524,-100,4,1,1,85,0,1
73596,-100,4,1,1,85,0,0
74382,-100,4,1,20,85,0,1
74453,-100,4,1,1,85,0,0
76382,-100,4,1,77,60,0,0
76667,-100,4,1,1,85,0,0
76953,-90.9090909090909,4,1,1,90,0,1
79239,-90.9090909090909,4,1,1,90,0,1
79382,-90.9090909090909,4,1,66,90,0,1
79453,-90.9090909090909,4,1,1,90,0,1
79667,-90.9090909090909,4,1,1,90,0,1
79810,-90.9090909090909,4,1,66,90,0,1
79882,-90.9090909090909,4,1,1,90,0,1
80096,-90.9090909090909,4,1,1,90,0,1
80239,-90.9090909090909,4,1,66,90,0,1
80310,-90.9090909090909,4,1,1,90,0,1
80524,-90.9090909090909,4,1,1,90,0,1
80667,-90.9090909090909,4,1,66,90,0,1
80739,-90.9090909090909,4,1,1,90,0,1
80953,-90.9090909090909,4,1,1,90,0,1
83953,-90.9090909090909,4,1,66,90,0,1
84024,-90.9090909090909,4,1,1,90,0,1
84382,-90.9090909090909,4,1,66,90,0,1
84453,-90.9090909090909,4,1,1,90,0,1
88524,-90.9090909090909,4,1,66,90,0,1
88596,-90.9090909090909,4,1,1,90,0,1
88810,-90.9090909090909,4,1,1,90,0,1
88953,-90.9090909090909,4,1,66,90,0,1
89024,-90.9090909090909,4,1,1,90,0,1
89239,-90.9090909090909,4,1,1,90,0,1
89382,-90.9090909090909,4,1,66,90,0,1
89453,-90.9090909090909,4,1,1,90,0,1
89667,-90.9090909090909,4,1,1,90,0,1
89810,-90.9090909090909,4,1,66,90,0,1
89882,-90.9090909090909,4,1,1,90,0,1
89953,-90.9090909090909,4,1,1,90,0,1
95132,-90.9090909090909,4,1,1,10,0,1
95239,-100,4,1,66,90,0,0
95310,-100,4,1,1,90,0,0
104382,-100,4,1,1,90,0,1
104524,-100,4,1,66,90,0,1
104596,-100,4,1,1,90,0,1
104953,-100,4,1,66,90,0,1
105025,-100,4,1,1,90,0,1
105167,-100,4,1,1,90,0,0
105239,-100,4,1,1,90,0,1
105382,-100,4,1,66,90,0,1
105454,-100,4,1,1,90,0,1
105810,-100,4,1,66,90,0,1
105882,-100,4,1,1,90,0,1
106024,-100,4,1,1,90,0,0
106096,-100,4,1,1,90,0,1
106239,-100,4,1,66,90,0,1
106311,-100,4,1,1,90,0,1
106667,-100,4,1,66,90,0,1
106739,-100,4,1,1,90,0,1
106882,-100,4,1,1,90,0,0
106953,-100,4,1,1,90,0,1
107096,-100,4,1,66,90,0,1
107168,-100,4,1,1,90,0,1
107524,-100,4,1,66,90,0,1
107596,-100,4,1,1,90,0,1
107810,-100,4,1,1,90,0,0
108667,-100,4,1,22,90,0,1
108810,-100,4,1,1,65,0,0

[Colours]
Combo1 : 128,128,128
Combo2 : 192,192,192

[HitObjects]
140,263,810,5,0,0:0:0:0:
137,215,882,1,0,0:0:0:0:
134,167,953,2,0,L|243:167,1,95,8|0,0:0|0:0,0:0:0:0:
92,101,1239,2,0,L|36:101,1,47.5
103,103,1382,2,0,L|159:103,1,47.5,8|0,0:0|0:0,0:0:0:0:
329,193,1524,6,0,L|438:193,2,95,10|0|2,1:3|0:0|0:0,0:0:0:0:
195,193,1953,1,0,0:0:0:0:
329,193,2096,2,0,P|382:221|308:303,1,190,10|0,0:0|0:0,0:0:0:0:
232,305,2524,1,8,0:0:0:0:
367,306,2667,5,2,0:0:0:0:
384,212,2810,1,0,0:0:0:0:
248,199,2953,1,10,1:3:0:0:
265,105,3096,1,0,0:0:0:0:
122,67,3239,2,0,L|321:68,1,190,10|0,0:0|0:0,0:0:0:0:
178,171,3667,1,0,0:0:0:0:
313,285,3810,6,0,L|201:282,2,95,10|0|2,0:3|0:0|0:0,0:0:0:0:
408,289,4239,1,0,0:0:0:0:
271,338,4382,2,0,L|267:145,1,190,10|0,0:0|0:0,0:0:0:0:
123,131,4810,2,0,L|122:27,1,95,8|0,0:0|0:0,0:0:0:0:
337,23,5239,5,8,0:3:0:0:
122,186,5524,1,8,0:0:0:0:
352,319,5810,2,0,L|365:268,3,47.5,2|2|2|2,0:2|0:2|0:2|0:2,0:0:0:0:
217,134,6096,5,2,0:2:0:0:
121,134,6239,1,0,0:0:0:0:
216,135,6382,1,0,0:0:0:0:
310,136,6524,1,0,0:0:0:0:
172,244,6667,2,0,L|275:243,2,95,8|0|0,0:0|0:0|0:0,0:0:0:0:
310,136,7096,1,8,0:0:0:0:
171,245,7239,5,2,0:0:0:0:
275,229,7382,1,0,0:0:0:0:
325,148,7524,1,10,0:3:0:0:
275,229,7667,1,0,0:0:0:0:
133,300,7810,2,0,L|134:99,1,190,10|0,0:0|0:0,0:0:0:0:
229,108,8239,1,0,0:0:0:0:
372,275,8382,5,10,0:3:0:0:
268,259,8525,1,0,0:0:0:0:
218,178,8667,1,2,0:0:0:0:
268,259,8810,1,0,0:0:0:0:
412,211,8953,2,0,L|276:209,2,95,10|0|0,0:0|0:0|0:0,0:0:0:0:
276,318,9382,1,8,0:0:0:0:
420,191,9524,5,0,0:0:0:0:
241,95,9810,5,8,0:3:0:0:
200,117,9881,1,0,0:0:0:0:
185,161,9952,1,0,0:0:0:0:
204,203,10024,1,0,0:0:0:0:
247,222,10096,2,0,L|356:223,1,95,8|0,0:0|0:0,0:0:0:0:
137,310,10382,2,8,L|64:310,1,47.5
292,170,10524,2,8,L|365:170,1,47.5
141,129,10667,6,0,P|77:165|158:221,1,190,4|0,0:0|0:0,0:0:0:0:
275,228,11096,1,0,0:0:0:0:
139,173,11239,2,0,L|239:173,1,95,8|0,0:0|0:0,0:0:0:0:
369,177,11524,1,0,0:0:0:0:
231,248,11667,6,0,L|217:345,2,95,8|0|0,0:0|0:0|0:0,0:0:0:0:
366,274,12096,2,0,L|372:244,4,23.75,8|0|0|0|0,0:3|0:0|0:0|0:0|0:0,0:0:0:0:
220,104,12382,2,0,L|121:102,3,95,8|0|0|0,0:0|0:0|0:0|0:0,0:0:0:0:
268,214,12953,6,0,L|268:183,4,23.75
405,121,13239,2,0,L|405:90,4,23.75
271,127,13524,5,8,0:0:0:0:
404,120,13667,1,0,0:0:0:0:
271,127,13810,2,0,L|271:161,4,23.75,0|0|0|0|8,0:0|0:0|0:0|0:0|0:0,0:0:0:0:
404,120,14096,6,0,L|403:221,1,95
345,215,14310,1,0,0:0:0:0:
174,227,14382,2,0,L|175:328,1,95
233,322,14596,1,0,0:0:0:0:
323,109,14667,2,0,L|322:210,1,95
264,204,14881,1,0,0:0:0:0:
121,147,14953,2,0,L|70:147,1,47.5,2|0,0:2|0:0,0:0:0:0:
242,277,15096,2,2,L|293:277,1,47.5,2|2,0:2|0:2,0:2:0:0:
115,113,15239,6,0,L|17:115,2,95,4|0|8,0:0|0:0|0:0,0:0:0:0:
248,212,15667,1,8,0:0:0:0:
114,112,15810,2,0,L|224:108,1,95,8|0,0:0|0:0,0:0:0:0:
73,264,16096,2,0,L|183:260,1,95,8|8,0:0|0:0,0:0:0:0:
311,331,16382,6,0,L|409:333,2,95,0|8|8,0:0|0:0|0:0,0:0:0:0:
176,197,16810,1,8,0:0:0:0:
311,331,16953,2,0,L|321:214,1,95,8|2,0:0|0:0,0:0:0:0:
176,197,17239,2,0,L|166:80,1,95,2|2,0:0|0:0,0:0:0:0:
313,86,17524,6,0,L|313:56,4,23.75,2|0|0|0|8,0:0|0:0|0:0|0:0|0:0,0:0:0:0:
198,88,17810,1,8,0:0:0:0:
312,88,17953,1,8,0:0:0:0:
170,198,18096,2,0,L|169:296,1,95
305,309,18382,6,0,L|358:309,1,47.5,8|0,0:0|0:0,0:0:0:0:
283,261,18524,2,0,L|230:261,1,47.5
399,184,18667,5,2,0:0:0:0:
246,114,18739,1,0,0:0:0:0:
202,127,18810,1,0,0:0:0:0:
183,170,18881,1,0,0:0:0:0:
203,211,18953,1,2,0:0:0:0:
248,223,19024,1,0,0:0:0:0:
187,267,19096,2,0,L|135:267,1,47.5
300,329,19239,2,0,L|357:328,1,47.5,2|0,0:0|0:0,0:0:0:0:
187,267,19382,1,8,0:3:0:0:
407,196,19524,2,0,L|408:89,1,95,8|0,0:0|0:0,0:0:0:0:
147,115,19810,6,0,L|41:115,1,95,4|0,0:0|0:0,0:0:0:0:
194,197,20096,2,0,L|88:197,1,95
321,179,20382,2,0,L|427:179,1,95,8|0,0:0|0:0,0:0:0:0:
274,261,20668,2,0,L|380:261,2,95,0|0|2,0:0|0:0|0:0,0:0:0:0:
159,262,21096,5,0,0:2:0:0:
304,315,21239,2,0,L|413:314,1,95,8|0,0:3|0:0,0:0:0:0:
162,196,21524,1,8,0:0:0:0:
275,186,21667,1,2,0:2:0:0:
337,90,21810,1,2,0:2:0:0:
275,186,21953,1,2,0:2:0:0:
49,205,22096,6,0,L|43:319,1,95,10|0,0:1|0:0,0:0:0:0:
186,143,22382,2,0,L|186:109,4,23.75
405,264,22667,2,0,L|461:265,2,47.5,8|0|0,0:0|0:0|0:0,0:0:0:0:
290,267,22953,1,0,0:0:0:0:
404,271,23096,1,0,0:0:0:0:
290,267,23239,6,0,L|177:268,1,95,2|0,0:0|0:0,0:0:0:0:
252,266,23453,1,0,0:0:0:0:
392,150,23524,2,0,L|505:151,1,95,8|0,0:3|0:0,0:0:0:0:
430,149,23738,1,0,0:0:0:0:
220,147,23810,2,0,L|216:44,1,95,8|0,0:0|0:0,0:0:0:0:
273,48,24024,1,0,0:0:0:0:
434,21,24096,2,0,L|489:22,1,47.5
419,67,24239,2,0,L|364:68,1,47.5
164,133,24382,6,0,P|119:144|172:237,1,190,10|0,0:1|0:0,0:0:0:0:
276,237,24810,1,0,0:0:0:0:
56,293,24953,2,0,L|151:292,1,95,8|0,0:0|0:0,0:0:0:0:
291,350,25239,2,0,L|194:350,2,95,0|0|2,0:0|0:0|0:0,0:0:0:0:
405,352,25667,5,0,0:0:0:0:
262,281,25810,2,0,L|151:280,1,95,8|0,0:3|0:0,0:0:0:0:
404,175,26096,1,8,0:0:0:0:
267,113,26239,2,0,L|166:114,2,95,2|2|2,0:2|0:2|0:2,0:0:0:0:
496,109,26667,6,0,L|291:108,1,190,10|0,0:1|0:0,0:0:0:0:
420,107,27096,1,0,0:0:0:0:
201,207,27239,2,0,L|201:172,4,23.75,8|0|0|0|0,0:0|0:0|0:0|0:0|0:0,0:0:0:0:
416,255,27524,2,0,L|417:153,1,95
358,160,27739,1,0,0:0:0:0:
140,144,27810,6,0,L|88:144,1,47.5,4|0,0:0|0:0,0:0:0:0:
274,252,27953,2,0,L|329:251,1,47.5
172,196,28096,2,0,L|124:197,1,47.5,2|0,0:2|0:0,0:0:0:0:
191,148,28239,2,0,L|239:149,1,47.5
96,95,28382,2,0,L|-12:95,1,95,2|8,0:2|0:3,0:0:0:0:
220,247,28667,2,0,L|111:251,1,95,8|0,0:0|0:0,0:0:0:0:
429,197,28953,6,0,L|321:198,2,95,4|0|8,0:0|0:0|0:0,0:0:0:0:
208,201,29382,1,0,0:0:0:0:
428,197,29524,2,0,L|431:313,1,95,0|8,0:0|1:3,0:0:0:0:
217,303,29810,2,0,L|318:304,1,95,8|0,0:0|0:0,0:0:0:0:
101,157,30096,6,0,L|211:157,2,95,8|0|8,0:3|0:0|0:0,0:0:0:0:
352,156,30524,1,0,0:0:0:0:
105,237,30667,1,0,0:0:0:0:
103,294,30739,1,0,0:0:0:0:
101,350,30810,1,8,0:3:0:0:
310,353,30953,1,8,0:0:0:0:
101,350,31096,1,0,0:0:0:0:
359,266,31239,6,0,L|471:266,1,95,8|0,0:3|0:0,0:0:0:0:
253,153,31524,2,0,L|363:152,1,95,8|0,0:1|0:0,0:0:0:0:
120,245,31810,2,0,L|26:245,1,95,0|8,0:0|0:3,0:0:0:0:
315,246,32096,1,8,0:0:0:0:
77,215,32239,2,0,L|147:214,1,47.5
315,246,32382,5,8,0:3:0:0:
185,309,32524,2,0,L|120:309,2,47.5,0|0|8,0:0|0:0|0:0,0:0:0:0:
315,246,32810,2,0,L|257:245,1,47.5
124,105,32953,2,0,L|229:105,1,95,0|8,0:0|0:3,0:0:0:0:
434,110,33239,2,0,L|434:55,3,47.5
142,238,33524,6,0,L|141:132,1,95,4|0,0:0|0:0,0:0:0:0:
373,297,33810,2,0,L|258:295,1,95,8|0,0:0|0:0,0:0:0:0:
418,239,34096,2,0,L|533:237,1,95,0|8,0:0|0:3,0:0:0:0:
285,107,34382,2,0,L|400:105,1,95,8|0,0:0|0:0,0:0:0:0:
109,214,34667,6,0,L|212:214,2,95,8|0|8,0:3|0:0|0:0,0:0:0:0:
339,213,35096,1,0,0:0:0:0:
113,213,35239,1,0,0:0:0:0:
97,326,35382,1,8,0:3:0:0:
334,330,35524,1,8,0:0:0:0:
399,318,35596,1,0,0:0:0:0:
426,268,35667,1,0,0:0:0:0:
399,318,35739,1,0,0:0:0:0:
218,190,35810,5,8,0:3:0:0:
429,144,35953,2,0,L|323:142,2,95,0|8|0,0:0|0:0|0:0,0:0:0:0:
189,279,36382,2,0,L|79:280,1,95,0|8,0:0|0:3,0:0:0:0:
334,330,36667,2,0,L|444:331,1,95,8|0,0:0|0:0,0:0:0:0:
187,217,36953,6,0,L|89:218,2,95,8|0|8,0:3|0:0|0:0,0:0:0:0:
332,212,37382,1,0,0:0:0:0:
84,176,37524,2,0,L|76:68,1,95,0|8,0:0|0:3,0:0:0:0:
299,121,37810,1,8,0:0:0:0:
84,176,37882,2,0,L|30:176,2,47.5,2|2|2,0:2|0:2|0:2,0:0:0:0:
325,314,38096,6,0,P|376:292|305:206,1,190,4|8,0:0|0:0,0:0:0:0:
116,151,38524,1,0,0:0:0:0:
173,151,38596,1,0,0:0:0:0:
229,151,38667,1,0,0:2:0:0:
114,155,38810,1,8,0:3:0:0:
327,155,38953,1,8,0:0:0:0:
116,151,39096,6,0,P|56:225|119:268,1,190
371,275,39524,1,8,0:0:0:0:
256,273,39667,1,0,0:0:0:0:
313,271,39739,1,0,0:0:0:0:
369,270,39810,1,0,0:0:0:0:
164,273,39953,1,8,0:3:0:0:
371,275,40096,1,8,0:0:0:0:
164,273,40239,6,0,L|358:269,1,190
142,205,40667,1,8,0:0:0:0:
373,238,40810,2,0,L|264:240,2,95,0|0|8,0:0|0:0|0:3,0:0:0:0:
147,211,41239,1,8,0:0:0:0:
378,236,41382,2,0,P|436:207|362:137,1,190
141,133,41810,1,8,0:0:0:0:
366,137,41953,1,0,0:0:0:0:
309,133,42024,1,0,0:0:0:0:
251,130,42096,1,0,0:0:0:0:
136,124,42239,1,8,0:3:0:0:
366,137,42382,2,0,L|479:132,1,95,8|0,0:0|0:0,0:0:0:0:
227,272,42667,6,0,L|229:170,1,95,4|0,0:0|0:0,0:0:0:0:
360,104,42882,1,0,0:0:0:0:
228,177,42953,2,0,L|165:177,1,47.5,8|0,0:0|0:0,0:0:0:0:
351,251,43096,2,0,L|413:252,1,47.5
228,177,43239,2,0,L|165:177,2,47.5,0|0|8,0:0|0:0|0:3,0:0:0:0:
342,177,43524,1,8,0:0:0:0:
185,124,43596,2,0,L|128:124,1,47.5
197,164,43739,2,0,L|254:164,1,47.5,0|8,0:0|0:3,0:0:0:0:
130,174,43953,5,0,0:0:0:0:
287,121,44025,2,0,L|344:121,1,47.5,0|8,0:0|0:0,0:0:0:0:
275,161,44168,2,0,L|218:161,1,47.5
445,182,44382,2,0,L|449:283,1,95,0|8,0:0|0:3,0:0:0:0:
208,321,44667,2,0,L|308:319,1,95,8|0,0:0|0:0,0:0:0:0:
80,236,44953,5,8,0:3:0:0:
194,236,45096,2,0,L|265:235,1,47.5
86,128,45239,2,0,L|151:127,1,47.5,8|0,0:1|0:0,0:0:0:0:
307,174,45382,2,0,L|369:174,1,47.5
193,270,45524,2,0,L|138:268,2,47.5,0|0|8,0:0|0:0|0:3,0:0:0:0:
424,288,45810,2,0,L|479:286,2,47.5,8|0|8,0:0|0:0|0:3,0:0:0:0:
180,197,46096,6,0,L|292:196,2,95,8|8|8,0:0|0:3|0:0,0:0:0:0:
423,289,46524,1,0,0:0:0:0:
467,277,46595,1,0,0:0:0:0:
488,236,46666,1,8,0:3:0:0:
471,193,46738,1,0,0:0:0:0:
428,177,46809,1,8,0:3:0:0:
299,143,46953,2,0,L|231:143,1,52.2500015945435,8|0,0:0|0:0,0:0:0:0:
425,65,47096,2,0,L|493:65,1,52.2500015945435
171,207,47239,6,0,P|123:237|204:319,1,190,4|8,0:0|0:0,0:0:0:0:
305,321,47667,2,0,L|361:321,1,47.5
200,188,47810,2,0,L|327:190,2,95,0|8|8,0:0|0:3|0:0,0:0:0:0:
422,159,48239,6,0,P|470:189|389:271,1,190
187,259,48667,1,8,0:0:0:0:
301,256,48810,2,0,L|359:254,1,47.5
187,259,48953,6,0,L|302:259,2,95,0|8|8,0:0|0:3|0:0,0:0:0:0:
426,308,49382,2,0,P|476:281|410:183,1,190
192,180,49810,1,8,0:0:0:0:
430,181,49953,1,0,0:0:0:0:
289,99,50096,2,0,L|413:96,2,95,0|8|8,0:0|0:3|0:0,0:0:0:0:
46,285,50524,6,0,L|237:280,1,190
16,207,50953,2,0,L|13:99,1,95,8|0,0:0|0:0,0:0:0:0:
70,109,51167,1,0,0:0:0:0:
277,98,51239,2,0,L|176:97,1,95,0|8,0:0|0:3,0:0:0:0:
409,167,51524,2,0,L|510:166,1,95,8|0,0:0|0:0,0:0:0:0:
246,249,51810,6,0,L|193:249,1,47.5,4|0,0:0|0:0,0:0:0:0:
261,218,51953,2,0,L|314:218,1,47.5
169,147,52096,2,0,L|116:147,1,47.5,8|0,0:0|0:0,0:0:0:0:
314,91,52239,2,0,L|367:91,1,47.5
198,91,52382,2,0,L|145:91,2,47.5,0|0|8,0:0|0:0|0:3,0:0:0:0:
312,94,52667,1,8,0:0:0:0:
166,221,52739,2,0,L|116:221,1,47.5,0|2,0:0|0:0,0:0:0:0:
182,268,52882,2,0,L|232:268,1,47.5
110,122,53096,5,2,0:0:0:0:
256,249,53168,2,0,L|306:249,1,47.5
240,296,53311,2,0,L|190:296,1,47.5
406,331,53524,2,0,L|523:331,1,95,2|8,0:0|0:3,0:0:0:0:
281,209,53810,2,0,L|398:209,1,95,10|0,0:0|0:0,0:0:0:0:
105,92,54096,5,8,0:3:0:0:
150,104,54167,1,0,0:0:0:0:
169,145,54238,1,0,0:0:0:0:
150,187,54310,1,0,0:0:0:0:
104,221,54382,2,0,L|151:221,1,47.5,8|0,0:0|0:0,0:0:0:0:
306,259,54524,2,0,L|361:259,1,47.5
151,221,54667,2,0,L|98:220,2,47.5,0|0|8,0:0|0:0|0:3,0:0:0:0:
403,163,54953,2,0,L|456:162,2,47.5,8|0|2,0:0|0:0|0:0,0:0:0:0:
151,220,55239,6,0,L|252:220,2,95,8|2|8,0:1|0:1|0:0,0:0:0:0:
375,281,55667,2,0,L|255:281,1,95,8|8,0:3|0:0,0:0:0:0:
483,199,55953,2,0,L|372:199,2,95,8|8|8,0:3|0:0|0:3,0:0:0:0:
230,122,56382,6,0,P|169:160|231:232,1,190,4|2,0:0|0:0,0:0:0:0:
364,226,56810,1,0,0:0:0:0:
151,228,56953,2,0,L|45:228,1,95,10|2,0:0|0:0,0:0:0:0:
196,227,57239,2,0,L|69:227,1,95,0|2,0:0|0:0,0:0:0:0:
239,284,57524,2,0,L|342:280,1,95,0|2,0:0|0:0,0:0:0:0:
118,135,57810,2,0,L|221:131,1,95,2|2,0:0|0:0,0:0:0:0:
433,177,58096,5,10,0:0:0:0:
450,289,58239,1,0,0:0:0:0:
311,245,58382,1,0,0:0:0:0:
294,357,58525,1,0,0:0:0:0:
450,289,58667,5,0,0:0:0:0:
256,197,58953,2,0,L|159:193,1,95,2|2,0:0|0:0,0:0:0:0:
394,118,59239,2,0,L|519:117,1,95,10|2,0:0|0:0,0:0:0:0:
349,183,59524,2,0,L|474:182,1,95,0|2,0:0|0:0,0:0:0:0:
172,166,59810,6,0,L|75:167,1,95,2|0,0:0|0:0,0:0:0:0:
134,164,60024,1,0,0:0:0:0:
292,266,60096,2,0,L|389:267,1,95,2|0,0:0|0:0,0:0:0:0:
330,264,60310,1,0,0:0:0:0:
161,261,60382,1,10,0:0:0:0:
158,204,60453,1,0,0:0:0:0:
156,147,60524,1,0,0:0:0:0:
295,134,60667,1,2,0:0:0:0:
310,20,60810,1,0,0:0:0:0:
81,25,60953,5,4,0:0:0:0:
269,153,61239,2,0,L|137:154,1,95,2|2,0:0|0:0,0:0:0:0:
403,273,61524,2,0,L|501:273,1,95,10|2,0:0|0:0,0:0:0:0:
357,169,61810,2,0,L|243:169,1,95,0|2,0:0|0:0,0:0:0:0:
404,90,62096,6,0,L|290:90,1,95,0|2,0:0|0:0,0:0:0:0:
82,194,62382,2,0,L|185:194,1,95,2|2,0:0|0:0,0:0:0:0:
433,261,62667,1,10,0:0:0:0:
442,147,62810,1,0,0:0:0:0:
307,304,62953,1,0,0:0:0:0:
298,190,63096,1,0,0:0:0:0:
433,261,63239,5,0,0:0:0:0:
243,349,63524,2,0,L|349:349,1,95,2|2,0:0|0:0,0:0:0:0:
112,180,63810,2,0,L|245:179,1,95,10|2,0:0|0:0,0:0:0:0:
112,180,64096,1,0,0:0:0:0:
369,178,64239,1,2,0:0:0:0:
90,80,64382,5,2,0:0:0:0:
47,98,64453,1,0,0:0:0:0:
29,140,64524,1,0,0:0:0:0:
46,183,64596,1,0,0:0:0:0:
89,202,64667,2,0,L|222:202,1,95,2|0,0:1|0:0,0:0:0:0:
428,271,64953,2,0,L|295:271,1,95,2|8,0:0|0:3,0:0:0:0:
51,310,65239,2,0,L|184:310,1,95,10|0,0:0|0:0,0:0:0:0:
419,195,65524,6,0,L|306:193,2,95,12|0|0,0:0|0:0|0:0,0:0:0:0:
179,221,65953,1,8,0:0:0:0:
177,106,66096,1,0,0:0:0:0:
291,104,66239,1,0,0:0:0:0:
44,220,66382,6,0,L|157:218,2,95,8|0|2,0:0|0:0|0:0,0:0:0:0:
177,314,66810,1,0,0:0:0:0:
77,307,66953,1,2,0:0:0:0:
33,200,67096,1,0,0:0:0:0:
77,307,67239,1,2,0:0:0:0:
326,317,67382,1,8,0:3:0:0:
62,314,67524,2,0,L|58:201,1,95,8|0,0:0|0:0,0:0:0:0:
327,158,67810,6,0,L|441:158,2,95,12|0|0,0:0|0:0|0:0,0:0:0:0:
114,262,68239,1,8,0:0:0:0:
228,260,68382,1,0,0:0:0:0:
241,147,68524,1,0,0:0:0:0:
452,146,68667,2,0,L|462:42,1,95,8|0,0:0|0:0,0:0:0:0:
220,328,68953,5,2,0:0:0:0:
315,328,69096,1,0,0:0:0:0:
267,325,69167,1,0,0:0:0:0:
219,323,69239,1,2,0:0:0:0:
452,214,69382,2,0,L|355:206,1,95,8|0,0:1|0:0,0:0:0:0:
116,229,69667,1,8,0:3:0:0:
357,206,69810,2,0,L|368:107,1,95,8|0,0:0|0:0,0:0:0:0:
73,152,70096,6,0,L|190:148,2,95,12|0|0,0:0|0:0|0:0,0:0:0:0:
276,262,70524,1,12,0:0:0:0:
73,151,70667,2,0,L|69:53,1,95
339,152,70953,6,0,L|222:148,2,95,12|0|0,0:0|0:0|0:0,0:0:0:0:
117,324,71381,1,12,0:0:0:0:
339,151,71524,2,0,L|343:53,1,95
79,262,71810,6,0,L|192:259,2,95,12|0|0,0:0|0:0|0:0,0:0:0:0:
338,350,72239,2,0,L|344:240,1,95,12|0,0:0|0:0,0:0:0:0:
79,262,72524,1,0,0:0:0:0:
346,143,72667,6,0,L|343:42,1,95,12|0,0:0|0:0,0:0:0:0:
209,25,72953,1,0,0:0:0:0:
464,217,73096,2,0,L|348:212,2,95,12|0|0,0:0|0:0|0:0,0:0:0:0:
192,286,73524,6,0,L|186:155,1,95,12|0,0:0|0:0,0:0:0:0:
408,99,73810,1,0,0:0:0:0:
89,228,73953,2,0,L|83:97,1,95,12|0,0:0|0:0,0:0:0:0:
338,35,74239,1,0,0:0:0:0:
30,78,74382,5,12,0:0:0:0:
256,192,74524,12,0,76096,0:0:0:0:
146,214,76382,5,0,1:1:0:0:
140,157,76453,1,0,1:1:0:0:
133,100,76524,1,0,1:1:0:0:
127,42,76596,1,0,1:1:0:0:
348,20,76667,1,8,2:1:0:0:
168,278,76953,6,0,L|56:277,1,104.500003189087,6|0,0:0|0:0,0:0:0:0:
344,278,77239,2,0,L|456:277,1,104.500003189087,10|0,0:0|0:0,0:0:0:0:
166,276,77524,1,2,0:0:0:0:
367,117,77667,2,0,L|367:67,3,34.8333343963623,8|0|0|10,1:3|0:0|0:0|0:0,0:0:0:0:
166,276,77953,2,0,L|52:273,1,104.500003189087,2|8,0:0|1:3,0:0:0:0:
360,181,78239,6,0,L|232:178,2,104.500003189087,2|10|0,0:0|0:0|0:0,0:0:0:0:
149,252,78667,2,0,L|146:134,1,104.500003189087,2|8,0:0|0:3,0:0:0:0:
370,106,78953,1,10,0:0:0:0:
146,147,79096,2,0,L|41:145,1,104.500003189087,0|8,0:0|0:3,0:0:0:0:
325,243,79382,6,0,L|437:239,2,104.500003189087,2|8|0,0:0|0:0|0:0,0:0:0:0:
120,130,79810,2,0,L|232:126,2,104.500003189087,2|8|8,0:0|0:3|0:0,0:0:0:0:
325,243,80239,2,0,L|437:239,2,104.500003189087,2|8|0,0:0|0:3|0:0,0:0:0:0:
199,243,80667,1,10,0:0:0:0:
414,175,80810,1,0,0:0:0:0:
199,243,80953,2,0,L|189:122,1,104.500003189087,0|8,0:0|0:3,0:0:0:0:
436,316,81239,2,0,L|446:195,1,104.500003189087,8|0,0:0|0:0,0:0:0:0:
176,135,81524,6,0,L|49:137,1,104.500003189087,6|0,0:0|0:0,0:0:0:0:
281,228,81810,2,0,L|154:230,1,104.500003189087,10|0,0:0|0:0,0:0:0:0:
400,323,82096,1,2,0:0:0:0:
192,164,82239,2,0,L|191:117,3,34.8333343963623,8|0|0|10,0:3|0:0|0:0|0:0,0:0:0:0:
400,323,82524,2,0,L|507:319,1,104.500003189087,2|8,0:0|0:3,0:0:0:0:
228,248,82810,5,2,0:0:0:0:
463,197,82953,2,0,L|473:84,1,104.500003189087,10|0,0:0|0:0,0:0:0:0:
232,77,83239,2,0,L|343:75,1,104.500003189087,2|8,0:0|0:3,0:0:0:0:
127,164,83524,2,0,L|16:162,2,104.500003189087,10|2|8,0:0|0:0|0:3,0:0:0:0:
356,270,83953,6,0,L|245:268,2,104.500003189087,2|8|0,0:0|0:0|0:0,0:0:0:0:
127,164,84382,2,0,L|16:162,2,104.500003189087,2|8|8,0:0|0:3|0:0,0:0:0:0:
335,186,84810,1,2,0:1:0:0:
209,186,84953,6,0,L|205:74,1,104.500003189087,2|0,0:1|0:0,0:0:0:0:
451,227,85239,1,10,0:0:0:0:
215,273,85382,2,0,L|80:275,1,104.500003189087
434,321,85667,1,2,0:1:0:0:
28,167,85810,2,0,L|158:158,1,104.500003189087,10|0,0:0|0:0,0:0:0:0:
442,156,86096,6,0,L|328:151,1,104.500003189087,6|0,0:0|0:0,0:0:0:0:
123,258,86382,2,0,L|9:253,1,104.500003189087,10|0,0:0|0:0,0:0:0:0:
287,240,86667,1,2,0:0:0:0:
82,163,86810,2,0,L|82:113,3,34.8333343963623,8|0|0|10,0:3|0:0|0:0|0:0,0:0:0:0:
287,240,87096,2,0,L|165:242,1,104.500003189087,2|8,0:0|0:3,0:0:0:0:
465,312,87382,6,0,L|345:311,2,104.500003189087,2|10|0,0:0|0:0|0:0,0:0:0:0:
221,345,87810,2,0,L|221:223,1,104.500003189087,2|8,0:0|0:3,0:0:0:0:
431,136,88096,1,10,0:0:0:0:
170,123,88239,2,0,L|44:122,1,104.500003189087,2|8,0:0|0:3,0:0:0:0:
336,209,88524,6,0,L|451:208,2,104.500003189087,2|8|0,0:0|0:0|0:0,0:0:0:0:
97,283,88953,2,0,L|212:282,2,104.500003189087,2|8|8,0:0|0:3|0:0,0:0:0:0:
335,208,89382,1,2,0:0:0:0:
98,282,89524,6,0,L|93:175,1,104.500003189087,8|0,0:3|0:0,0:0:0:0:
337,277,89810,2,0,L|448:276,1,104.500003189087,10|0,0:0|0:0,0:0:0:0:
236,184,90096,2,0,L|368:185,1,104.500003189087,0|8,0:0|0:3,0:0:0:0:
131,260,90382,2,0,L|-1:261,1,104.500003189087,8|0,0:0|0:0,0:0:0:0:
315,313,90667,6,0,L|430:308,1,104.500003189087,6|0,0:0|0:0,0:0:0:0:
284,230,90953,2,0,L|399:225,1,104.500003189087,2|0,0:0|0:0,0:0:0:0:
253,190,91239,1,10,0:0:0:0:
388,225,91382,2,0,L|389:184,3,34.8333343963623,0|0|0|2,0:0|0:0|0:0|0:0,0:0:0:0:
253,190,91667,1,2,0:0:0:0:
496,197,91810,6,0,L|375:189,1,104.500003189087,4|2,0:0|0:0,0:0:0:0:
253,283,92096,2,0,L|374:275,1,104.500003189087,8|2,0:3|0:0,0:0:0:0:
219,253,92382,1,10,0:0:0:0:
366,320,92524,2,0,L|476:323,2,104.500003189087,8|0|0,0:3|0:0|0:0,0:0:0:0:
74,320,92953,6,0,L|77:96,1,209.000006378174,4|0,0:0|0:0,0:0:0:0:
303,119,93524,1,8,0:0:0:0:
177,127,93667,2,0,L|167:236,1,104.500003189087,8|0,0:3|0:0,0:0:0:0:
41,236,93953,1,8,0:3:0:0:
291,263,94096,5,4,0:0:0:0:
165,266,94239,2,0,L|46:268,2,104.500003189087,0|8|0,0:0|0:3|0:0,0:0:0:0:
371,168,94667,2,0,L|249:166,1,104.500003189087,8|8,0:0|0:3,0:0:0:0:
496,236,94953,2,0,L|374:234,1,104.500003189087,8|8,0:0|0:0,0:0:0:0:
83,285,95239,6,0,L|79:162,1,95,4|0,0:0|0:0,0:0:0:0:
311,119,95524,2,0,L|192:121,2,95,8|0|0,0:0|0:0|0:0,0:0:0:0:
184,210,95953,2,0,L|125:211,1,47.5,8|0,0:3|0:0,0:0:0:0:
328,296,96096,2,0,L|457:290,1,95,8|0,0:0|0:0,0:0:0:0:
206,123,96382,5,8,0:3:0:0:
163,141,96453,1,0,0:0:0:0:
146,184,96524,1,0,0:0:0:0:
165,226,96596,1,0,0:0:0:0:
208,242,96667,2,0,L|325:244,1,95,8|0,0:0|0:0,0:0:0:0:
245,245,96882,1,0,0:0:0:0:
90,318,96953,6,0,L|39:320,1,47.5
243,168,97096,2,0,L|299:167,1,47.5,8|0,0:3|0:0,0:0:0:0:
105,102,97239,2,0,L|54:101,1,47.5,8|0,0:0|0:0,0:0:0:0:
120,151,97382,2,0,L|179:150,1,47.5
326,148,97524,6,0,L|275:147,1,47.5,8|0,0:3|0:0,0:0:0:0:
341,197,97667,2,0,L|400:196,1,47.5
189,200,97810,2,0,L|138:199,1,47.5,8|0,0:0|0:0,0:0:0:0:
204,249,97953,2,0,L|263:248,1,47.5
72,330,98096,2,0,L|20:329,2,47.5,0|0|8,0:0|0:0|0:3,0:0:0:0:
305,331,98382,1,8,0:0:0:0:
72,330,98524,1,0,0:0:0:0:
305,331,98667,5,8,0:3:0:0:
177,275,98810,2,0,L|122:275,2,47.5,0|0|8,0:0|0:0|0:0,0:0:0:0:
305,331,99096,2,0,L|360:331,2,47.5
103,344,99382,1,8,0:3:0:0:
420,266,99524,2,0,L|424:150,1,95,8|0,0:0|0:0,0:0:0:0:
166,233,99810,6,0,L|50:227,1,95,4|0,0:0|0:0,0:0:0:0:
209,187,100096,2,0,L|325:181,1,95,8|0,0:0|0:0,0:0:0:0:
246,173,100310,1,0,0:0:0:0:
90,127,100382,2,0,L|149:127,1,47.5
328,88,100524,2,0,L|402:89,1,47.5,8|0,0:3|0:0,0:0:0:0:
223,147,100667,2,0,L|167:147,1,47.5,8|0,0:0|0:0,0:0:0:0:
234,204,100810,2,0,L|293:204,1,47.5
105,201,100953,6,0,L|49:201,1,47.5,8|0,0:3|0:0,0:0:0:0:
116,258,101096,2,0,L|175:258,1,47.5
349,317,101239,2,0,L|276:317,1,47.5,8|0,0:0|0:0,0:0:0:0:
141,351,101382,2,0,L|68:350,1,47.5
293,190,101524,2,0,L|356:191,1,47.5
266,242,101667,2,0,L|203:243,1,47.5,8|0,0:3|0:0,0:0:0:0:
293,190,101810,2,0,L|356:191,1,47.5,8|0,0:0|0:0,0:0:0:0:
138,166,101953,2,0,L|75:167,1,47.5
311,102,102096,6,0,L|396:101,1,47.5,8|0,0:3|0:0,0:0:0:0:
176,217,102239,2,0,L|117:217,1,47.5
316,258,102382,1,8,0:0:0:0:
371,248,102453,1,0,0:0:0:0:
400,199,102524,1,0,0:0:0:0:
371,248,102596,1,0,0:0:0:0:
122,170,102667,2,0,L|37:169,1,47.5
331,294,102810,2,0,L|416:293,1,47.5,8|0,0:3|0:0,0:0:0:0:
182,328,102953,1,8,0:0:0:0:
127,318,103024,1,0,0:0:0:0:
99,267,103096,1,0,0:0:0:0:
127,318,103167,1,0,0:0:0:0:
331,153,103239,6,0,L|392:152,1,47.5,8|0,0:3|0:0,0:0:0:0:
179,139,103382,2,0,L|179:71,1,47.5
367,57,103524,2,0,L|310:57,1,47.5,8|0,0:0|0:0,0:0:0:0:
164,204,103667,2,0,L|107:203,1,47.5
464,256,103810,2,0,L|465:190,1,47.5,8|0,0:0|0:0,0:0:0:0:
330,272,103953,1,8,0:3:0:0:
192,271,104024,1,0,0:0:0:0:
47,268,104096,2,0,L|46:206,1,47.5,8|0,0:0|0:0,0:0:0:0:
192,271,104239,1,8,0:0:0:0:
330,272,104310,1,0,0:0:0:0:
477,102,104382,6,0,L|369:101,2,95,4|6|0,0:0|0:1|0:0,0:0:0:0:
163,218,104810,2,0,L|271:217,2,95,12|6|0,0:0|0:1|0:0,0:0:0:0:
403,216,105239,5,12,0:0:0:0:
163,217,105382,2,0,L|163:92,1,95,6|0,0:1|0:0,0:0:0:0:
463,90,105667,2,0,L|358:91,2,95,12|6|0,0:0|0:1|0:0,0:0:0:0:
163,218,106096,5,12,0:0:0:0:
401,88,106239,2,0,L|403:222,1,95,6|0,0:1|0:0,0:0:0:0:
50,253,106524,1,12,0:0:0:0:
296,302,106667,2,0,L|190:303,1,95,6|0,0:1|0:0,0:0:0:0:
495,254,106953,5,12,0:0:0:0:
213,212,107096,2,0,L|337:210,1,95,6|0,0:1|0:0,0:0:0:0:
49,310,107382,1,12,0:0:0:0:
310,311,107524,1,6,0:1:0:0:
49,310,107667,1,0,0:0:0:0:
388,223,107810,6,0,L|512:223,1,95,12|8,0:0|0:3,0:0:0:0:
257,157,108096,2,0,L|368:156,1,95,8|8,0:0|0:3,0:0:0:0:
124,223,108382,2,0,L|0:223,1,95,8|8,0:0|0:3,0:0:0:0:
373,259,108667,5,12,0:0:0:0:
256,192,108810,12,0,111810,0:0:0:0:
