osu file format v14

[General]
AudioFilename: audio.mp3
AudioLeadIn: 0
PreviewTime: 76882
Countdown: 0
SampleSet: Normal
StackLeniency: 0.7
Mode: 2
LetterboxInBreaks: 0
WidescreenStoryboard: 1

[Editor]
Bookmarks: 10667,19810,28953,38096,56382,76953
DistanceSpacing: 1
BeatDivisor: 4
GridSize: 4
TimelineZoom: 1.8

[Metadata]
Title:chaos eater -IIDX edition-
TitleUnicode:chaos eater -IIDX edition-
Artist:Nekomata Master+
ArtistUnicode:猫叉Master+
Creator:Spectator
Version:Cup
Source:beatmania IIDX 23 copula
Tags:Electronic Instrumental Video Game Bunnrei Chara Ster -Plus- osu_gangster Jemzuu AJamez Lacrima Myle -Rustyy International Cup CTBI CIC vii Finals No Mod NM DDR DanceDanceRevolution GITADORA NEX+AGE
BeatmapID:3178948
BeatmapSetID:1543977

[Difficulty]
HPDrainRate:2
CircleSize:2
OverallDifficulty:6.2
ApproachRate:6.2
SliderMultiplier:1.35
SliderTickRate:1

[Events]
//Background and Video events
0,0,"chaos eater.jpg",0,0
//Break Periods
//Storyboard Layer 0 (Background)
//Storyboard Layer 1 (Fail)
//Storyboard Layer 2 (Pass)
//Storyboard Layer 3 (Foreground)
//Storyboard Layer 4 (Overlay)
//Storyboard Sound Samples

[TimingPoints]
382,285.714285714286,4,1,2,55,1,0
1524,-105.263157894737,4,1,2,55,0,0
2096,-105.263157894737,4,1,2,55,0,0
4382,-105.263157894737,4,1,2,55,0,0
5810,-105.263157894737,4,1,2,55,0,0
6096,-105.263157894737,4,1,2,55,0,0
6667,-105.263157894737,4,1,25,55,0,0
6739,-105.263157894737,4,1,2,55,0,0
8953,-105.263157894737,4,1,2,55,0,0
9524,-105.263157894737,4,1,2,55,0,0
10667,-100,4,1,2,55,0,0
10989,-100,4,1,2,10,0,0
11024,-100,4,1,2,55,0,0
11560,-100,4,1,2,10,0,0
11595,-100,4,1,2,55,0,0
12132,-100,4,1,2,10,0,0
12167,-100,4,1,2,55,0,0
12560,-100,4,1,2,10,0,0
12595,-100,4,1,2,55,0,0
12703,-100,4,1,2,10,0,0
12738,-100,4,1,2,55,0,0
12846,-100,4,1,2,10,0,0
12881,-100,4,1,2,55,0,0
12989,-100,4,1,2,25,0,0
13239,-100,4,1,2,55,0,0
13274,-100,4,1,2,25,0,0
13524,-100,4,1,2,55,0,0
13846,-100,4,1,2,10,0,0
13882,-100,4,1,2,55,0,0
15239,-100,4,1,4,55,0,0
17096,-100,4,1,4,55,0,0
17132,-100,4,1,4,10,0,0
17239,-100,4,1,4,55,0,0
17275,-100,4,1,4,10,0,0
17382,-100,4,1,4,55,0,0
17418,-100,4,1,4,10,0,0
17524,-100,4,1,4,55,0,0
18524,-100,4,1,1,55,0,0
19810,-100,4,1,1,65,0,0
20953,-100,4,1,9,75,0,0
21024,-100,4,1,1,65,0,0
22096,-100,4,1,9,75,0,0
22167,-100,4,1,1,65,0,0
23239,-100,4,1,9,75,0,0
23310,-100,4,1,1,65,0,0
24382,-100,4,1,9,75,0,0
24453,-100,4,1,1,65,0,0
25524,-100,4,1,9,75,0,0
25595,-100,4,1,1,65,0,0
26667,-100,4,1,9,75,0,0
26738,-100,4,1,1,65,0,0
28953,-100,4,1,21,80,0,1
29096,-100,4,1,1,80,0,0
38382,-100,4,1,1,80,0,0
38953,-100,4,1,1,80,0,0
39524,-100,4,1,1,80,0,0
40096,-100,4,1,1,80,0,0
40667,-100,4,1,1,80,0,0
41239,-100,4,1,1,80,0,0
46953,-100,4,1,1,80,0,0
47239,-100,4,1,1,80,0,0
56382,-100,4,1,10,70,0,0
64382,-100,4,1,1,70,0,0
65524,-100,4,1,1,70,0,0
66667,-100,4,1,10,70,0,0
67382,-100,4,1,1,70,0,0
68953,-100,4,1,10,70,0,0
69382,-100,4,1,1,70,0,0
70096,-100,4,1,1,70,0,1
70167,-100,4,1,1,70,0,0
70953,-100,4,1,1,70,0,1
71024,-100,4,1,1,70,0,0
71810,-100,4,1,1,75,0,1
71882,-100,4,1,1,75,0,0
72667,-100,4,1,1,80,0,1
72739,-100,4,1,1,80,0,0
73524,-100,4,1,1,85,0,1
73596,-100,4,1,1,85,0,0
74382,-100,4,1,20,85,0,1
74453,-100,4,1,1,85,0,0
76382,-100,4,1,77,60,0,0
76667,-100,4,1,1,85,0,0
76953,-100,4,1,1,90,0,1
79239,-100,4,1,1,90,0,1
79382,-100,4,1,66,90,0,1
79453,-100,4,1,1,90,0,1
79667,-100,4,1,1,90,0,1
79810,-100,4,1,66,90,0,1
79882,-100,4,1,1,90,0,1
80096,-100,4,1,1,90,0,1
80239,-100,4,1,66,90,0,1
80310,-100,4,1,1,90,0,1
80524,-100,4,1,1,90,0,1
80667,-100,4,1,66,90,0,1
80739,-100,4,1,1,90,0,1
80953,-100,4,1,1,90,0,1
83953,-100,4,1,66,90,0,1
84024,-100,4,1,1,90,0,1
84382,-100,4,1,66,90,0,1
84453,-100,4,1,1,90,0,1
88524,-100,4,1,66,90,0,1
88596,-100,4,1,1,90,0,1
88810,-100,4,1,1,90,0,1
88953,-100,4,1,66,90,0,1
89024,-100,4,1,1,90,0,1
89239,-100,4,1,1,90,0,1
89382,-100,4,1,66,90,0,1
89453,-100,4,1,1,90,0,1
89667,-100,4,1,1,90,0,1
89810,-100,4,1,66,90,0,1
89882,-100,4,1,1,90,0,1
89953,-100,4,1,1,90,0,1
95132,-100,4,1,1,10,0,1
95239,-100,4,1,66,90,0,0
95310,-100,4,1,1,90,0,0
104382,-100,4,1,1,90,0,1
104524,-100,4,1,66,90,0,1
104596,-100,4,1,1,90,0,1
104953,-100,4,1,66,90,0,1
105025,-100,4,1,1,90,0,1
105167,-100,4,1,1,90,0,0
105239,-100,4,1,1,90,0,1
105382,-100,4,1,66,90,0,1
105454,-100,4,1,1,90,0,1
105810,-100,4,1,66,90,0,1
105882,-100,4,1,1,90,0,1
106024,-100,4,1,1,90,0,0
106096,-100,4,1,1,90,0,1
106239,-100,4,1,66,90,0,1
106311,-100,4,1,1,90,0,1
106667,-100,4,1,66,90,0,1
106739,-100,4,1,1,90,0,1
106882,-100,4,1,1,90,0,0
106953,-100,4,1,1,90,0,1
107096,-100,4,1,66,90,0,1
107168,-100,4,1,1,90,0,1
107524,-100,4,1,66,90,0,1
107596,-100,4,1,1,90,0,1
107810,-100,4,1,1,90,0,0
108667,-100,4,1,22,90,0,1
108810,-100,4,1,1,65,0,0

[Colours]
Combo1 : 128,128,128
Combo2 : 192,192,192

[HitObjects]
90,81,1524,5,10,1:3:0:0:
90,209,1809,1,2,0:0:0:0:
218,206,2096,1,10,0:0:0:0:
346,204,2382,1,0,0:0:0:0:
346,204,2524,1,8,0:0:0:0:
346,204,2667,1,2,0:0:0:0:
218,206,2953,1,10,1:3:0:0:
346,204,3239,1,10,0:0:0:0:
153,203,3667,5,0,0:0:0:0:
153,203,3810,1,10,0:3:0:0:
281,203,4096,1,2,0:0:0:0:
409,204,4382,1,10,0:0:0:0:
281,203,4810,5,8,0:0:0:0:
281,203,4953,1,0,0:0:0:0:
281,203,5239,1,8,0:3:0:0:
396,146,5524,1,8,0:0:0:0:
396,146,5810,1,2,0:2:0:0:
267,147,6096,5,2,0:2:0:0:
138,147,6381,1,0,0:0:0:0:
138,147,6667,1,8,0:0:0:0:
202,147,6810,1,0,0:0:0:0:
266,148,6953,1,0,0:0:0:0:
394,148,7239,1,2,0:0:0:0:
394,148,7524,1,10,0:3:0:0:
266,148,7810,1,10,0:0:0:0:
73,146,8239,5,0,0:0:0:0:
73,146,8382,1,10,0:3:0:0:
200,147,8667,1,2,0:0:0:0:
328,146,8953,1,10,0:0:0:0:
328,146,9382,5,8,0:0:0:0:
328,146,9525,1,0,0:0:0:0:
213,203,9811,1,8,0:3:0:0:
328,146,10096,1,8,0:0:0:0:
328,146,10382,1,8,0:0:0:0:
192,148,10667,5,4,0:0:0:0:
192,148,10953,1,0,0:0:0:0:
328,146,11239,1,8,0:0:0:0:
328,146,11524,1,0,0:0:0:0:
464,144,11810,5,0,0:0:0:0:
464,144,12096,1,8,0:3:0:0:
328,146,12382,1,8,0:0:0:0:
328,146,12524,1,0,0:0:0:0:
395,146,12667,1,0,0:0:0:0:
464,144,12810,1,0,0:0:0:0:
395,146,12953,5,0,0:0:0:0:
259,146,13239,1,0,0:0:0:0:
124,146,13524,1,8,0:0:0:0:
124,146,13810,1,0,0:0:0:0:
124,146,14096,5,0,0:0:0:0:
124,146,14239,1,0,0:0:0:0:
191,145,14382,1,0,0:0:0:0:
258,144,14524,1,0,0:0:0:0:
191,145,14667,1,0,0:0:0:0:
191,9,14953,1,2,0:2:0:0:
326,7,15239,5,4,0:0:0:0:
330,141,15524,1,8,0:0:0:0:
262,145,15667,1,8,0:0:0:0:
194,149,15810,1,8,0:0:0:0:
194,149,16096,1,8,0:0:0:0:
262,145,16239,1,8,0:0:0:0:
262,145,16524,5,8,0:0:0:0:
194,149,16667,1,8,0:0:0:0:
262,145,16953,1,8,0:0:0:0:
194,149,17096,1,2,0:0:0:0:
126,153,17239,1,2,0:0:0:0:
194,149,17382,1,2,0:0:0:0:
262,145,17524,5,2,0:0:0:0:
397,143,17810,1,8,0:0:0:0:
464,142,17953,1,8,0:0:0:0:
397,143,18096,1,0,0:0:0:0:
262,145,18382,1,8,0:0:0:0:
262,145,18524,1,0,0:0:0:0:
329,143,18667,5,2,0:0:0:0:
193,147,18953,1,2,0:0:0:0:
329,143,19239,1,2,0:0:0:0:
261,145,19382,1,8,0:3:0:0:
193,147,19524,1,8,0:0:0:0:
57,147,19810,5,4,0:0:0:0:
261,145,20382,1,8,0:0:0:0:
45,152,20953,1,2,0:0:0:0:
45,152,21239,1,8,0:3:0:0:
152,150,21524,1,8,0:0:0:0:
260,148,21810,1,2,0:2:0:0:
152,150,22096,5,10,0:1:0:0:
367,148,22667,1,8,0:0:0:0:
258,149,22953,1,0,0:0:0:0:
152,150,23239,1,2,0:0:0:0:
152,150,23524,1,8,0:3:0:0:
258,149,23810,1,8,0:0:0:0:
366,146,24096,1,0,0:0:0:0:
366,146,24382,5,10,0:1:0:0:
366,143,24667,1,0,0:0:0:0:
231,146,24953,1,8,0:0:0:0:
231,146,25239,1,0,0:0:0:0:
95,143,25524,5,2,0:0:0:0:
95,143,25810,1,8,0:3:0:0:
231,146,26096,1,8,0:0:0:0:
298,145,26239,1,2,0:2:0:0:
366,143,26382,1,2,0:2:0:0:
231,146,26667,5,10,0:1:0:0:
231,146,26953,1,0,0:0:0:0:
366,143,27239,1,8,0:0:0:0:
366,143,27524,1,0,0:0:0:0:
231,146,27810,5,4,0:0:0:0:
231,146,28096,1,2,0:2:0:0:
231,146,28382,1,2,0:2:0:0:
163,146,28524,1,8,0:3:0:0:
95,146,28667,1,8,0:0:0:0:
95,146,28953,5,4,0:0:0:0:
232,144,29239,1,8,0:0:0:0:
368,144,29524,1,0,0:0:0:0:
232,144,29810,1,8,0:0:0:0:
299,142,29953,1,0,0:0:0:0:
299,142,30239,5,0,0:0:0:0:
299,142,30524,1,0,0:0:0:0:
366,140,30667,1,0,0:0:0:0:
299,142,30810,1,8,0:3:0:0:
232,140,30953,1,8,0:0:0:0:
368,144,31239,5,8,0:3:0:0:
502,142,31524,1,8,0:1:0:0:
368,144,31810,1,0,0:0:0:0:
232,144,32096,1,8,0:0:0:0:
299,145,32239,1,0,0:0:0:0:
433,145,32524,5,0,0:0:0:0:
299,145,32810,1,0,0:0:0:0:
232,144,32953,1,0,0:0:0:0:
232,144,33096,1,8,0:3:0:0:
232,144,33239,1,8,0:0:0:0:
366,142,33524,5,4,0:0:0:0:
232,144,33810,1,8,0:0:0:0:
96,145,34096,1,0,0:0:0:0:
232,144,34382,1,8,0:0:0:0:
299,143,34524,1,0,0:0:0:0:
299,143,34810,5,0,0:0:0:0:
299,143,35096,1,0,0:0:0:0:
367,146,35239,1,0,0:0:0:0:
299,143,35382,1,8,0:3:0:0:
231,141,35525,1,8,0:0:0:0:
96,140,35810,5,8,0:3:0:0:
96,140,36096,1,8,0:0:0:0:
231,140,36382,1,0,0:0:0:0:
365,140,36667,1,8,0:0:0:0:
231,140,36953,5,8,0:3:0:0:
231,140,37239,1,8,0:0:0:0:
365,140,37524,1,0,0:0:0:0:
432,143,37667,1,8,0:3:0:0:
432,143,37810,1,8,0:0:0:0:
365,140,37953,1,2,0:2:0:0:
297,140,38096,5,4,0:0:0:0:
297,140,38382,1,8,0:0:0:0:
162,140,38667,1,0,0:2:0:0:
230,140,38810,1,8,0:3:0:0:
297,140,38953,1,8,0:0:0:0:
297,140,39096,1,0,0:0:0:0:
94,140,39524,5,8,0:0:0:0:
230,140,39810,1,0,0:0:0:0:
162,140,39953,1,8,0:3:0:0:
95,140,40096,1,8,0:0:0:0:
95,140,40239,1,0,0:0:0:0:
298,140,40667,5,8,0:0:0:0:
162,140,40953,1,0,0:0:0:0:
230,140,41096,1,8,0:3:0:0:
297,140,41239,1,8,0:0:0:0:
297,140,41382,1,0,0:0:0:0:
94,140,41810,5,8,0:0:0:0:
230,140,42096,1,0,0:0:0:0:
162,139,42239,1,8,0:3:0:0:
162,73,42382,1,8,0:0:0:0:
296,74,42667,5,4,0:0:0:0:
431,74,42953,1,8,0:0:0:0:
296,74,43239,1,0,0:0:0:0:
161,71,43524,1,8,0:0:0:0:
296,74,43810,5,8,0:3:0:0:
431,74,44096,1,8,0:0:0:0:
296,74,44382,1,0,0:0:0:0:
296,74,44667,1,8,0:0:0:0:
161,77,44953,5,8,0:3:0:0:
26,77,45239,1,8,0:1:0:0:
161,77,45525,1,0,0:0:0:0:
296,74,45810,1,8,0:0:0:0:
161,77,46096,5,8,0:0:0:0:
26,77,46382,1,8,0:0:0:0:
161,77,46668,1,8,0:3:0:0:
161,77,46953,1,8,0:0:0:0:
161,77,47096,1,0,0:0:0:0:
161,77,47239,5,4,0:0:0:0:
295,75,47524,1,8,0:0:0:0:
161,77,47810,1,0,0:0:0:0:
228,77,47953,1,8,0:3:0:0:
295,75,48096,1,8,0:0:0:0:
295,75,48239,1,0,0:0:0:0:
295,75,48667,5,8,0:0:0:0:
161,77,48953,1,0,0:0:0:0:
228,77,49096,1,8,0:3:0:0:
295,75,49239,1,8,0:0:0:0:
295,75,49382,1,0,0:0:0:0:
295,75,49810,5,8,0:0:0:0:
161,77,50096,1,0,0:0:0:0:
228,77,50239,1,8,0:3:0:0:
295,75,50382,1,8,0:0:0:0:
295,75,50525,1,0,0:0:0:0:
295,75,50953,5,8,0:0:0:0:
159,77,51239,1,0,0:0:0:0:
159,77,51382,1,8,0:3:0:0:
226,78,51524,1,8,0:0:0:0:
295,75,51667,1,0,0:0:0:0:
226,78,51810,5,4,0:0:0:0:
90,78,52096,1,8,0:0:0:0:
226,78,52382,1,0,0:0:0:0:
360,78,52667,1,8,0:0:0:0:
292,77,52810,1,2,0:0:0:0:
427,80,53096,5,2,0:0:0:0:
494,82,53239,1,0,0:0:0:0:
360,78,53524,1,2,0:0:0:0:
360,78,53810,1,10,0:0:0:0:
224,76,54096,5,8,0:3:0:0:
88,76,54382,1,8,0:0:0:0:
224,76,54667,1,0,0:0:0:0:
359,77,54953,1,8,0:0:0:0:
291,77,55096,1,2,0:0:0:0:
155,77,55382,5,2,0:1:0:0:
222,78,55524,1,8,0:0:0:0:
222,78,55810,1,8,0:0:0:0:
155,77,55953,1,8,0:3:0:0:
87,79,56096,1,8,0:0:0:0:
222,78,56382,5,4,0:0:0:0:
222,78,56667,1,2,0:0:0:0:
357,78,56953,1,10,0:0:0:0:
357,78,57239,1,0,0:0:0:0:
222,78,57524,5,0,0:0:0:0:
222,78,57809,1,2,0:0:0:0:
222,78,58096,1,10,0:0:0:0:
222,78,58667,5,0,0:0:0:0:
222,78,58952,1,2,0:0:0:0:
357,78,59238,1,10,0:0:0:0:
357,78,59524,1,0,0:0:0:0:
222,78,59809,5,2,0:0:0:0:
86,79,60096,1,2,0:0:0:0:
222,78,60382,1,10,0:0:0:0:
86,79,60667,1,2,0:0:0:0:
222,78,60953,5,4,0:0:0:0:
222,78,61238,1,2,0:0:0:0:
357,78,61524,1,10,0:0:0:0:
357,78,61810,1,0,0:0:0:0:
222,78,62095,5,0,0:0:0:0:
222,78,62382,1,2,0:0:0:0:
222,78,62667,1,10,0:0:0:0:
222,78,63238,5,0,0:0:0:0:
222,78,63523,1,2,0:0:0:0:
357,78,63809,1,10,0:0:0:0:
357,78,64095,1,0,0:0:0:0:
222,78,64382,5,2,0:0:0:0:
357,78,64667,1,2,0:1:0:0:
492,78,64953,1,2,0:0:0:0:
357,78,65238,1,10,0:0:0:0:
221,72,65524,5,12,0:0:0:0:
356,68,65810,1,0,0:0:0:0:
288,68,65953,1,8,0:0:0:0:
152,65,66239,1,0,0:0:0:0:
220,65,66382,1,8,0:0:0:0:
356,68,66667,5,2,0:0:0:0:
356,68,66953,1,2,0:0:0:0:
356,68,67239,1,2,0:0:0:0:
220,68,67524,1,8,0:0:0:0:
356,68,67810,5,12,0:0:0:0:
220,68,68096,1,0,0:0:0:0:
220,68,68239,1,8,0:0:0:0:
84,64,68524,1,0,0:0:0:0:
84,64,68667,1,8,0:0:0:0:
220,68,68953,5,2,0:0:0:0:
355,67,69239,1,2,0:0:0:0:
220,68,69524,1,0,0:0:0:0:
84,63,69810,1,8,0:0:0:0:
220,68,70096,5,12,0:0:0:0:
219,203,70382,1,0,0:0:0:0:
286,204,70524,1,12,0:0:0:0:
286,204,70810,1,0,0:0:0:0:
219,203,70953,5,12,0:0:0:0:
91,204,71239,1,0,0:0:0:0:
91,204,71382,1,12,0:0:0:0:
219,203,71667,1,0,0:0:0:0:
286,204,71810,5,12,0:0:0:0:
414,205,72096,1,0,0:0:0:0:
414,205,72239,1,12,0:0:0:0:
286,204,72524,1,0,0:0:0:0:
219,203,72667,5,12,0:0:0:0:
354,204,72953,1,0,0:0:0:0:
286,205,73096,1,12,0:0:0:0:
150,203,73382,1,0,0:0:0:0:
219,203,73524,5,12,0:0:0:0:
83,204,73810,1,0,0:0:0:0:
15,205,73953,1,12,0:0:0:0:
150,203,74239,1,0,0:0:0:0:
83,204,74382,5,12,0:0:0:0:
256,192,74667,12,8,76667,2:1:0:0:
199,178,76953,5,6,0:0:0:0:
340,178,77239,1,10,0:0:0:0:
199,178,77524,1,2,0:0:0:0:
124,178,77667,1,8,1:3:0:0:
199,178,77810,1,10,0:0:0:0:
273,178,77953,1,2,0:0:0:0:
417,76,78239,5,2,0:0:0:0:
342,75,78382,1,10,0:0:0:0:
268,76,78524,1,0,0:0:0:0:
268,76,78667,1,2,0:0:0:0:
417,76,78953,1,10,0:0:0:0:
417,76,79095,1,0,0:0:0:0:
268,76,79382,5,2,0:0:0:0:
268,76,79524,1,8,0:0:0:0:
119,78,79810,1,2,0:0:0:0:
119,78,79953,1,8,0:3:0:0:
268,76,80239,5,2,0:0:0:0:
268,76,80382,1,8,0:3:0:0:
417,76,80667,1,10,0:0:0:0:
417,76,80810,1,0,0:0:0:0:
342,75,80953,1,0,0:0:0:0:
268,76,81096,1,8,0:3:0:0:
342,75,81239,1,8,0:0:0:0:
193,75,81524,5,6,0:0:0:0:
44,77,81810,1,10,0:0:0:0:
193,75,82096,1,2,0:0:0:0:
267,75,82239,1,8,0:3:0:0:
193,75,82382,1,10,0:0:0:0:
119,76,82524,1,2,0:0:0:0:
267,75,82810,5,2,0:0:0:0:
341,75,82953,1,10,0:0:0:0:
267,75,83096,1,0,0:0:0:0:
193,76,83238,1,2,0:0:0:0:
44,78,83524,1,10,0:0:0:0:
44,78,83667,1,2,0:0:0:0:
193,76,83953,5,2,0:0:0:0:
193,76,84096,1,8,0:0:0:0:
341,75,84382,1,2,0:0:0:0:
341,75,84524,1,8,0:3:0:0:
193,76,84810,5,2,0:1:0:0:
267,76,84953,1,2,0:1:0:0:
268,224,85239,1,10,0:0:0:0:
193,226,85382,1,0,0:0:0:0:
341,226,85667,1,2,0:1:0:0:
415,226,85810,1,10,0:0:0:0:
268,224,86096,5,6,0:0:0:0:
119,224,86382,1,10,0:0:0:0:
268,224,86667,1,2,0:0:0:0:
193,226,86810,1,8,0:3:0:0:
119,224,86953,1,10,0:0:0:0:
119,224,87096,1,2,0:0:0:0:
268,224,87382,5,2,0:0:0:0:
343,226,87525,1,10,0:0:0:0:
417,224,87668,1,0,0:0:0:0:
417,224,87811,1,2,0:0:0:0:
268,224,88096,1,10,0:0:0:0:
268,224,88239,1,2,0:0:0:0:
119,223,88524,5,2,0:0:0:0:
119,223,88667,1,8,0:0:0:0:
268,224,88953,1,2,0:0:0:0:
268,224,89096,1,8,0:3:0:0:
119,223,89382,5,2,0:0:0:0:
119,223,89524,1,8,0:3:0:0:
268,224,89810,1,10,0:0:0:0:
268,224,89953,1,0,0:0:0:0:
193,224,90096,1,0,0:0:0:0:
118,224,90239,1,8,0:3:0:0:
193,224,90382,1,8,0:0:0:0:
341,223,90667,5,6,0:0:0:0:
341,223,90953,1,2,0:0:0:0:
193,224,91239,1,10,0:0:0:0:
341,223,91524,1,2,0:0:0:0:
193,224,91810,5,4,0:0:0:0:
193,224,92096,1,8,0:3:0:0:
44,221,92382,1,10,0:0:0:0:
193,224,92667,1,0,0:0:0:0:
341,222,92953,5,4,0:0:0:0:
341,222,93239,1,0,0:0:0:0:
193,224,93524,1,8,0:0:0:0:
267,221,93667,1,8,0:3:0:0:
267,221,93953,1,8,0:3:0:0:
193,224,94096,5,4,0:0:0:0:
44,219,94382,1,8,0:3:0:0:
193,224,94667,1,8,0:0:0:0:
118,225,94810,1,8,0:3:0:0:
193,224,94953,1,8,0:0:0:0:
267,224,95096,1,8,0:0:0:0:
341,162,95239,5,4,0:0:0:0:
341,162,95524,1,8,0:0:0:0:
273,162,95667,1,0,0:0:0:0:
205,164,95810,1,0,0:0:0:0:
205,164,96096,1,8,0:0:0:0:
69,164,96382,5,8,0:3:0:0:
205,164,96667,1,8,0:0:0:0:
137,165,96810,1,0,0:0:0:0:
69,164,96953,1,0,0:0:0:0:
69,164,97239,1,8,0:0:0:0:
205,164,97524,5,8,0:3:0:0:
205,164,97810,1,8,0:0:0:0:
69,164,98096,1,0,0:0:0:0:
205,164,98382,1,8,0:0:0:0:
339,162,98667,5,8,0:3:0:0:
339,162,98810,1,0,0:0:0:0:
271,161,98953,1,8,0:0:0:0:
339,162,99096,1,0,0:0:0:0:
406,163,99239,1,0,0:0:0:0:
406,163,99524,1,8,0:0:0:0:
257,163,99810,5,4,0:0:0:0:
108,161,100096,1,8,0:0:0:0:
257,163,100382,1,0,0:0:0:0:
406,163,100667,1,8,0:0:0:0:
270,163,100953,5,8,0:3:0:0:
270,163,101239,1,8,0:0:0:0:
406,163,101524,1,0,0:0:0:0:
406,163,101810,1,8,0:0:0:0:
270,163,102096,5,8,0:3:0:0:
406,163,102382,1,8,0:0:0:0:
406,163,102524,1,0,0:0:0:0:
338,162,102667,1,0,0:0:0:0:
202,162,102953,1,8,0:0:0:0:
202,162,103096,1,0,0:0:0:0:
269,160,103239,5,8,0:3:0:0:
406,163,103524,1,8,0:0:0:0:
338,162,103667,1,0,0:0:0:0:
269,160,103810,1,8,0:0:0:0:
133,157,104096,1,8,0:0:0:0:
269,160,104382,5,4,0:0:0:0:
269,160,104524,1,6,0:1:0:0:
133,157,104810,1,12,0:0:0:0:
133,157,104953,1,6,0:1:0:0:
269,160,105239,5,12,0:0:0:0:
336,160,105382,1,6,0:1:0:0:
201,160,105667,1,12,0:0:0:0:
133,157,105810,1,6,0:1:0:0:
269,224,106096,5,12,0:0:0:0:
194,224,106239,1,6,0:1:0:0:
45,224,106524,1,12,0:0:0:0:
119,224,106667,1,6,0:1:0:0:
269,224,106953,5,12,0:0:0:0:
194,224,107096,1,6,0:1:0:0:
342,224,107382,1,12,0:0:0:0:
269,224,107524,1,6,0:1:0:0:
133,223,107810,5,12,0:0:0:0:
269,224,108096,1,8,0:0:0:0:
403,224,108382,1,8,0:0:0:0:
269,224,108667,5,12,0:0:0:0:
256,192,108953,12,0,111810,0:0:0:0:
