osu file format v14

[General]
AudioFilename: audio.mp3
AudioLeadIn: 0
PreviewTime: 76882
Countdown: 0
SampleSet: Normal
StackLeniency: 0.7
Mode: 1
LetterboxInBreaks: 0
WidescreenStoryboard: 1

[Editor]
DistanceSpacing: 1
BeatDivisor: 4
GridSize: 32
TimelineZoom: 3.799999

[Metadata]
Title:chaos eater -IIDX edition-
TitleUnicode:chaos eater -IIDX edition-
Artist:Nekomata Master+
ArtistUnicode:猫叉Master+
Creator:Skull Kid
Version:the essence of humanity
Source:beatmania IIDX 23 copula
Tags:skid Capu Genjuro eae HiroK DanceDanceRevolution DDR 2014 GITADORA NEX+AGE NEXTAGE 佐藤直之 Naoyuki Sato hard step instrumental Electronic video game
BeatmapID:3069371
BeatmapSetID:1489580

[Difficulty]
HPDrainRate:5.5
CircleSize:4
OverallDifficulty:7
ApproachRate:9
SliderMultiplier:1.4
SliderTickRate:1

[Events]
//Background and Video events
0,0,"bg.jpg",0,60
//Break Periods
//Storyboard Layer 0 (Background)
//Storyboard Layer 1 (Fail)
//Storyboard Layer 2 (Pass)
//Storyboard Layer 3 (Foreground)
//Storyboard Layer 4 (Overlay)
//Storyboard Sound Samples

[TimingPoints]
392,285.714285714286,4,1,0,90,1,8
392,-66.6666666666667,4,1,0,90,0,8
1534,285.714285714286,4,1,0,90,1,0
1534,-111.111111111111,4,1,0,90,0,0
1676,-113.636363636364,4,1,0,90,0,0
1819,-116.279069767442,4,1,0,90,0,0
1962,-119.047619047619,4,1,0,90,0,0
2105,-121.951219512195,4,1,0,90,0,0
2534,-131.578947368421,4,1,0,90,0,0
2676,-113.636363636364,4,1,0,90,0,0
2819,-116.279069767442,4,1,0,90,0,0
2962,-119.047619047619,4,1,0,90,0,0
3105,-121.951219512195,4,1,0,90,0,0
3248,-125,4,1,0,90,0,0
3534,-131.578947368421,4,1,0,90,0,0
3676,-135.135135135135,4,1,0,90,0,0
3748,-136.986301369863,4,1,0,90,0,0
3819,-116.279069767442,4,1,0,90,0,0
3962,-119.047619047619,4,1,0,90,0,0
4105,-121.951219512195,4,1,0,90,0,0
4248,-125,4,1,0,90,0,0
4391,-128.205128205128,4,1,0,90,0,0
4819,-138.888888888889,4,1,0,90,0,0
4962,-119.047619047619,4,1,0,90,0,0
5105,-121.951219512195,4,1,0,90,0,0
5248,-125,4,1,0,90,0,0
5391,-128.205128205128,4,1,0,90,0,0
5534,-131.578947368421,4,1,0,90,0,0
5819,-102.040816326531,4,1,0,90,0,0
5891,-104.166666666667,4,1,0,90,0,0
5962,-106.382978723404,4,1,0,90,0,0
6034,-108.695652173913,4,1,0,90,0,0
6105,-111.111111111111,4,1,0,90,0,0
6246,-113.636363636364,4,1,0,90,0,0
6389,-116.279069767442,4,1,0,90,0,0
6532,-119.047619047619,4,1,0,90,0,0
6675,-121.951219512195,4,1,0,90,0,0
6818,-125,4,1,0,90,0,0
6961,-128.205128205128,4,1,0,90,0,0
7246,-113.636363636364,4,1,0,90,0,0
7389,-116.279069767442,4,1,0,90,0,0
7532,-119.047619047619,4,1,0,90,0,0
7675,-121.951219512195,4,1,0,90,0,0
7818,-125,4,1,0,90,0,0
8246,-135.135135135135,4,1,0,90,0,0
8318,-136.986301369863,4,1,0,90,0,0
8389,-116.279069767442,4,1,0,90,0,0
8532,-119.047619047619,4,1,0,90,0,0
8675,-121.951219512195,4,1,0,90,0,0
8818,-125,4,1,0,90,0,0
8961,-128.205128205128,4,1,0,90,0,0
9246,-135.135135135135,4,1,0,90,0,0
9389,-138.888888888889,4,1,0,90,0,0
9532,-119.047619047619,4,1,0,90,0,0
9675,-121.951219512195,4,1,0,90,0,0
9818,-125,4,1,0,90,0,0
9961,-128.205128205128,4,1,0,90,0,0
10104,-131.578947368421,4,1,0,90,0,0
10246,-135.135135135135,4,1,0,90,0,0
10389,-102.040816326531,4,1,0,90,0,0
10461,-104.166666666667,4,1,0,90,0,0
10532,-106.382978723404,4,1,0,90,0,0
10604,-108.695652173913,4,1,0,90,0,0
10676,-111.111111111111,4,1,0,90,0,0
12534,-113.636363636364,4,1,0,90,0,0
12569,-114.942528735632,4,1,0,90,0,0
12676,-116.279069767442,4,1,0,90,0,0
12712,-117.647058823529,4,1,0,90,0,0
12819,-119.047619047619,4,1,0,90,0,0
12855,-120.481927710843,4,1,0,90,0,0
12962,-121.951219512195,4,1,0,90,0,0
13105,-111.111111111111,4,1,0,90,0,0
14248,-112.359550561798,4,1,0,90,0,0
14319,-113.636363636364,4,1,0,90,0,0
14391,-114.942528735632,4,1,0,90,0,0
14534,-116.279069767442,4,1,0,90,0,0
14605,-117.647058823529,4,1,0,90,0,0
14676,-119.047619047619,4,1,0,90,0,0
14819,-120.481927710843,4,1,0,90,0,0
14891,-121.951219512195,4,1,0,90,0,0
14962,-123.456790123457,4,1,0,90,0,0
15034,-125,4,1,0,90,0,0
15105,-126.582278481013,4,1,0,90,0,0
15176,-128.205128205128,4,1,0,90,0,0
15248,-105.263157894737,4,1,0,90,0,0
15391,-107.52688172043,4,1,0,90,0,0
15534,-109.89010989011,4,1,0,90,0,0
15676,-112.359550561798,4,1,0,90,0,0
15819,-114.942528735632,4,1,0,90,0,0
16105,-120.481927710843,4,1,0,90,0,0
16248,-123.456790123457,4,1,0,90,0,0
16319,-125,4,1,0,90,0,0
16391,-105.263157894737,4,1,0,90,0,0
17105,-107.52688172043,4,1,0,90,0,0
17141,-108.695652173913,4,1,0,90,0,0
17248,-109.89010989011,4,1,0,90,0,0
17284,-111.111111111111,4,1,0,90,0,0
17391,-112.359550561798,4,1,0,90,0,0
17426,-113.636363636364,4,1,0,90,0,0
17534,-114.942528735632,4,1,0,90,0,0
17676,-105.263157894737,4,1,0,90,0,0
18391,-93.4579439252336,4,1,0,90,0,0
18462,-94.3396226415094,4,1,0,90,0,0
18534,-95.2380952380952,4,1,0,90,0,0
18605,-96.1538461538461,4,1,0,90,0,0
18676,-97.0873786407767,4,1,0,90,0,0
18748,-98.0392156862745,4,1,0,90,0,0
18819,-99.009900990099,4,1,0,90,0,0
18891,-100,4,1,0,90,0,0
18962,-101.010101010101,4,1,0,90,0,0
19034,-102.040816326531,4,1,0,90,0,0
19105,-103.092783505155,4,1,0,90,0,0
19176,-104.166666666667,4,1,0,90,0,0
19248,-105.263157894737,4,1,0,90,0,0
19391,-106.382978723404,4,1,0,90,0,0
19534,-40,4,1,0,90,0,0
19819,-100,4,1,0,90,0,0
21676,-102.040816326531,4,1,0,90,0,0
21712,-103.092783505155,4,1,0,90,0,0
21819,-104.166666666667,4,1,0,90,0,0
21855,-105.263157894737,4,1,0,90,0,0
21962,-106.382978723404,4,1,0,90,0,0
21998,-107.52688172043,4,1,0,90,0,0
22105,-108.695652173913,4,1,0,90,0,0
22248,-100,4,1,0,90,0,0
23391,-101.010101010101,4,1,0,90,0,0
23462,-102.040816326531,4,1,0,90,0,0
23534,-103.092783505155,4,1,0,90,0,0
23676,-104.166666666667,4,1,0,90,0,0
23748,-105.263157894737,4,1,0,90,0,0
23819,-106.382978723404,4,1,0,90,0,0
23962,-107.52688172043,4,1,0,90,0,0
24034,-108.695652173913,4,1,0,90,0,0
24105,-109.89010989011,4,1,0,90,0,0
24176,-111.111111111111,4,1,0,90,0,0
24248,-112.359550561798,4,1,0,90,0,0
24319,-113.636363636364,4,1,0,90,0,0
24391,-95.2380952380952,4,1,0,90,0,0
26248,-97.0873786407767,4,1,0,90,0,0
26284,-98.0392156862745,4,1,0,90,0,0
26391,-99.009900990099,4,1,0,90,0,0
26426,-100,4,1,0,90,0,0
26534,-101.010101010101,4,1,0,90,0,0
26569,-102.040816326531,4,1,0,90,0,0
26676,-103.092783505155,4,1,0,90,0,0
26819,-95.2380952380952,4,1,0,90,0,0
27248,-90.0900900900901,4,1,0,90,0,0
27295,-91.743119266055,4,1,0,90,0,0
27343,-93.4579439252336,4,1,0,90,0,0
27391,-95.2380952380952,4,1,0,90,0,0
27676,-86.9565217391304,4,1,0,90,0,0
27748,-87.719298245614,4,1,0,90,0,0
27819,-88.4955752212389,4,1,0,90,0,0
27891,-89.2857142857143,4,1,0,90,0,0
27962,-90.0900900900901,4,1,0,90,0,0
28034,-90.9090909090909,4,1,0,90,0,0
28105,-91.743119266055,4,1,0,90,0,0
28176,-92.5925925925926,4,1,0,90,0,0
28248,-93.4579439252336,4,1,0,90,0,0
28319,-94.3396226415094,4,1,0,90,0,0
28391,-95.2380952380952,4,1,0,90,0,0
28534,-96.1538461538461,4,1,0,90,0,0
28676,-40,4,1,0,90,0,0
28962,-86.9565217391304,4,1,0,90,0,0
37176,-86.2068965517241,4,1,0,90,0,0
37248,-85.4700854700855,4,1,0,90,0,0
37319,-84.7457627118644,4,1,0,90,0,0
37391,-84.0336134453781,4,1,0,90,0,0
37462,-83.3333333333333,4,1,0,90,0,0
37534,-82.6446280991736,4,1,0,90,0,0
37605,-81.9672131147541,4,1,0,90,0,0
37676,-81.3008130081301,4,1,0,90,0,0
37748,-80.6451612903226,4,1,0,90,0,0
37819,-80,4,1,0,90,0,0
37891,-79.3650793650794,4,1,0,90,0,0
37962,-78.7401574803149,4,1,0,90,0,0
38034,-78.125,4,1,0,90,0,0
38105,-77.5193798449612,4,1,0,90,0,0
38391,-99.9999999999999,4,1,0,90,0,0
38534,-100.502512562814,4,1,0,90,0,0
38676,-101.010101010101,4,1,0,90,0,0
38819,-101.522842639594,4,1,0,90,0,0
38962,-102.040816326531,4,1,0,90,0,0
39105,-102.564102564102,4,1,0,90,0,0
39248,-103.092783505155,4,1,0,90,0,0
39391,-103.626943005181,4,1,0,90,0,0
39534,-104.166666666667,4,1,0,90,0,0
39676,-104.712041884816,4,1,0,90,0,0
39819,-105.263157894737,4,1,0,90,0,0
39962,-105.820105820106,4,1,0,90,0,0
40105,-106.382978723404,4,1,0,90,0,0
40248,-106.951871657754,4,1,0,90,0,0
40391,-107.52688172043,4,1,0,90,0,0
40534,-108.108108108108,4,1,0,90,0,0
40676,-108.695652173913,4,1,0,90,0,0
40819,-109.289617486338,4,1,0,90,0,0
40962,-109.89010989011,4,1,0,90,0,0
41105,-110.497237569061,4,1,0,90,0,0
41248,-111.111111111111,4,1,0,90,0,0
41391,-111.731843575419,4,1,0,90,0,0
41534,-112.359550561798,4,1,0,90,0,0
41676,-112.994350282486,4,1,0,90,0,0
41819,-113.636363636364,4,1,0,90,0,0
41962,-114.285714285714,4,1,0,90,0,0
42105,-114.942528735632,4,1,0,90,0,0
42248,-115.606936416185,4,1,0,90,0,0
42391,-116.279069767442,4,1,0,90,0,0
42534,-116.959064327486,4,1,0,90,0,0
42676,-77.5193798449612,4,1,0,90,0,0
42819,-76.9230769230769,4,1,0,90,0,0
42891,-78.7401574803149,4,1,0,90,0,0
42962,-80.6451612903226,4,1,0,90,0,0
43034,-82.6446280991736,4,1,0,90,0,0
43105,-84.7457627118644,4,1,0,90,0,0
43176,-86.9565217391304,4,1,0,90,0,0
43248,-89.2857142857143,4,1,0,90,0,0
43391,-76.9230769230769,4,1,0,90,0,0
43462,-78.7401574803149,4,1,0,90,0,0
43534,-80.6451612903226,4,1,0,90,0,0
43605,-82.6446280991736,4,1,0,90,0,0
43676,-84.7457627118644,4,1,0,90,0,0
43819,-89.2857142857143,4,1,0,90,0,0
43962,-76.9230769230769,4,1,0,90,0,0
44034,-78.7401574803149,4,1,0,90,0,0
44105,-80.6451612903226,4,1,0,90,0,0
44176,-82.6446280991736,4,1,0,90,0,0
44248,-84.7457627118644,4,1,0,90,0,0
44391,-76.9230769230769,4,1,0,90,0,0
44462,-78.7401574803149,4,1,0,90,0,0
44534,-80.6451612903226,4,1,0,90,0,0
44605,-82.6446280991736,4,1,0,90,0,0
44676,-84.7457627118644,4,1,0,90,0,0
44819,-86.9565217391304,4,1,0,90,0,0
44962,-89.2857142857143,4,1,0,90,0,0
45105,-76.9230769230769,4,1,0,90,0,0
45176,-78.7401574803149,4,1,0,90,0,0
45248,-80.6451612903226,4,1,0,90,0,0
45319,-82.6446280991736,4,1,0,90,0,0
45391,-84.7457627118644,4,1,0,90,0,0
45462,-86.9565217391304,4,1,0,90,0,0
45534,-89.2857142857143,4,1,0,90,0,0
45676,-76.9230769230769,4,1,0,90,0,0
45748,-78.7401574803149,4,1,0,90,0,0
45819,-80.6451612903226,4,1,0,90,0,0
45891,-82.6446280991736,4,1,0,90,0,0
45962,-84.7457627118644,4,1,0,90,0,0
46105,-76.9230769230769,4,1,0,90,0,0
46176,-78.7401574803149,4,1,0,90,0,0
46248,-80.6451612903226,4,1,0,90,0,0
46391,-76.9230769230769,4,1,0,90,0,0
46462,-78.7401574803149,4,1,0,90,0,0
46534,-80.6451612903226,4,1,0,90,0,0
46605,-82.6446280991736,4,1,0,90,0,0
46676,-84.7457627118644,4,1,0,90,0,0
46819,-86.9565217391304,4,1,0,90,0,0
46962,-89.2857142857143,4,1,0,90,0,0
47034,-91.743119266055,4,1,0,90,0,0
47105,-94.3396226415094,4,1,0,90,0,0
47248,-77.5193798449612,4,1,0,90,0,0
47534,-99.9999999999999,4,1,0,90,0,0
47676,-100.502512562814,4,1,0,90,0,0
47818,-101.010101010101,4,1,0,90,0,0
47961,-101.522842639594,4,1,0,90,0,0
48104,-102.040816326531,4,1,0,90,0,0
48247,-102.564102564102,4,1,0,90,0,0
48390,-103.092783505155,4,1,0,90,0,0
48533,-103.626943005181,4,1,0,90,0,0
48676,-104.166666666667,4,1,0,90,0,0
48818,-104.712041884816,4,1,0,90,0,0
48961,-105.263157894737,4,1,0,90,0,0
49104,-105.820105820106,4,1,0,90,0,0
49247,-106.382978723404,4,1,0,90,0,0
49390,-106.951871657754,4,1,0,90,0,0
49533,-107.52688172043,4,1,0,90,0,0
49676,-108.108108108108,4,1,0,90,0,0
49818,-108.695652173913,4,1,0,90,0,0
49961,-109.289617486338,4,1,0,90,0,0
50104,-109.89010989011,4,1,0,90,0,0
50247,-110.497237569061,4,1,0,90,0,0
50390,-111.111111111111,4,1,0,90,0,0
50533,-111.731843575419,4,1,0,90,0,0
50676,-112.359550561798,4,1,0,90,0,0
50818,-112.994350282486,4,1,0,90,0,0
50961,-113.636363636364,4,1,0,90,0,0
51104,-114.285714285714,4,1,0,90,0,0
51247,-114.942528735632,4,1,0,90,0,0
51390,-115.606936416185,4,1,0,90,0,0
51533,-116.279069767442,4,1,0,90,0,0
51676,-116.959064327486,4,1,0,90,0,0
51819,-77.5193798449612,4,1,0,90,0,0
51961,-76.9230769230769,4,1,0,90,0,0
52033,-78.7401574803149,4,1,0,90,0,0
52104,-80.6451612903226,4,1,0,90,0,0
52176,-82.6446280991736,4,1,0,90,0,0
52247,-84.7457627118644,4,1,0,90,0,0
52318,-86.9565217391304,4,1,0,90,0,0
52390,-89.2857142857143,4,1,0,90,0,0
52533,-76.9230769230769,4,1,0,90,0,0
52604,-78.7401574803149,4,1,0,90,0,0
52676,-80.6451612903226,4,1,0,90,0,0
52747,-82.6446280991736,4,1,0,90,0,0
52818,-84.7457627118644,4,1,0,90,0,0
52961,-89.2857142857143,4,1,0,90,0,0
53104,-76.9230769230769,4,1,0,90,0,0
53176,-78.7401574803149,4,1,0,90,0,0
53247,-80.6451612903226,4,1,0,90,0,0
53318,-82.6446280991736,4,1,0,90,0,0
53390,-84.7457627118644,4,1,0,90,0,0
53533,-76.9230769230769,4,1,0,90,0,0
53604,-78.7401574803149,4,1,0,90,0,0
53676,-80.6451612903226,4,1,0,90,0,0
53747,-82.6446280991736,4,1,0,90,0,0
53818,-84.7457627118644,4,1,0,90,0,0
53961,-86.9565217391304,4,1,0,90,0,0
54104,-89.2857142857143,4,1,0,90,0,0
54247,-76.9230769230769,4,1,0,90,0,0
54318,-78.7401574803149,4,1,0,90,0,0
54390,-80.6451612903226,4,1,0,90,0,0
54461,-82.6446280991736,4,1,0,90,0,0
54533,-84.7457627118644,4,1,0,90,0,0
54604,-86.9565217391304,4,1,0,90,0,0
54676,-89.2857142857143,4,1,0,90,0,0
54818,-76.9230769230769,4,1,0,90,0,0
54890,-78.7401574803149,4,1,0,90,0,0
54961,-80.6451612903226,4,1,0,90,0,0
55104,-76.9230769230769,4,1,0,90,0,0
55153,-78.7401574803149,4,1,0,90,0,0
55200,-80.6451612903226,4,1,0,90,0,0
55248,-82.6446280991736,4,1,0,90,0,0
55391,-84.7457627118644,4,1,0,90,0,0
55438,-86.9565217391304,4,1,0,90,0,0
55486,-89.2857142857143,4,1,0,90,0,0
55534,-91.743119266055,4,1,0,90,0,0
55676,-76.9230769230769,4,1,0,90,0,0
55748,-79.3650793650794,4,1,0,90,0,0
55819,-81.9672131147541,4,1,0,90,0,0
55962,-84.7457627118644,4,1,0,90,0,0
56105,-87.719298245614,4,1,0,90,0,0
56176,-90.9090909090909,4,1,0,90,0,0
56248,-94.3396226415094,4,1,0,90,0,0
56391,-77.5193798449612,4,1,0,90,0,0
56534,-111.111111111111,4,1,0,90,0,0
56891,-111.731843575419,4,1,0,90,0,0
56962,-112.359550561798,4,1,0,90,0,0
57391,-112.994350282486,4,1,0,90,0,0
57534,-113.636363636364,4,1,0,90,0,0
57962,-114.285714285714,4,1,0,90,0,0
58105,-114.942528735632,4,1,0,90,0,0
58534,-115.606936416185,4,1,0,90,0,0
58676,-116.279069767442,4,1,0,90,0,0
59176,-116.959064327485,4,1,0,90,0,0
59248,-117.647058823529,4,1,0,90,0,0
59676,-118.343195266272,4,1,0,90,0,0
59819,-119.047619047619,4,1,0,90,0,0
60248,-119.760479041916,4,1,0,90,0,0
60391,-120.481927710843,4,1,0,90,0,0
60534,-120.845921450151,4,1,0,90,0,0
60676,-121.212121212121,4,1,0,90,0,0
60819,-121.580547112462,4,1,0,90,0,0
60962,-121.951219512195,4,1,0,90,0,0
61462,-122.699386503067,4,1,0,90,0,0
61534,-123.456790123457,4,1,0,90,0,0
61962,-124.223602484472,4,1,0,90,0,0
62105,-125,4,1,0,90,0,0
62534,-125.786163522013,4,1,0,90,0,0
62676,-126.582278481013,4,1,0,90,0,0
63105,-127.388535031847,4,1,0,90,0,0
63248,-128.205128205128,4,1,0,90,0,0
63748,-129.032258064516,4,1,0,90,0,0
63819,-129.87012987013,4,1,0,90,0,0
64248,-130.718954248366,4,1,0,90,0,0
64391,-131.578947368421,4,1,0,90,0,0
64819,-132.450331125828,4,1,0,90,0,0
64962,-133.333333333333,4,1,0,90,0,0
65105,-133.779264214047,4,1,0,90,0,0
65248,-134.228187919463,4,1,0,90,0,0
65391,-134.680134680135,4,1,0,90,0,0
65534,-83.3333333333333,4,1,0,90,0,0
65676,-100,4,1,0,90,0,0
65962,-83.3333333333333,4,1,0,90,0,0
66105,-100,4,1,0,90,0,0
66391,-83.3333333333333,4,1,0,90,0,0
66534,-142.857142857143,4,1,0,90,0,0
66819,-147.058823529413,4,1,0,90,0,0
66962,-151.515151515153,4,1,0,90,0,0
67105,-156.25,4,1,0,90,0,0
67248,-161.290322580645,4,1,0,90,0,0
67391,-166.666666666667,4,1,0,90,0,0
67462,-172.413793103449,4,1,0,90,0,0
67534,-178.571428571429,4,1,0,90,0,0
67676,-185.185185185185,4,1,0,90,0,0
67819,-83.3333333333333,4,1,0,90,0,0
67962,-100,4,1,0,90,0,0
68248,-83.3333333333333,4,1,0,90,0,0
68391,-100,4,1,0,90,0,0
68676,-83.3333333333333,4,1,0,90,0,0
68819,-142.857142857143,4,1,0,90,0,0
69105,-147.058823529413,4,1,0,90,0,0
69248,-151.515151515153,4,1,0,90,0,0
69391,-156.25,4,1,0,90,0,0
69534,-161.290322580645,4,1,0,90,0,0
69676,-166.666666666667,4,1,0,90,0,0
69748,-172.413793103449,4,1,0,90,0,0
69819,-178.571428571429,4,1,0,90,0,0
69962,-185.185185185185,4,1,0,90,0,0
70105,-83.3333333333333,4,1,0,90,0,0
70248,-80,4,1,0,90,0,0
70391,-76.9230769230769,4,1,0,90,0,0
70534,-74.0740740740741,4,1,0,90,0,0
70676,-71.4285714285714,4,1,0,90,0,0
70819,-68.9655172413793,4,1,0,90,0,0
70962,-66.6666666666667,4,1,0,90,0,0
71105,-64.5161290322581,4,1,0,90,0,0
71248,-62.5,4,1,0,90,0,0
71391,-60.6060606060606,4,1,0,90,0,0
71534,-58.8235294117647,4,1,0,90,0,0
71676,-57.1428571428571,4,1,0,90,0,0
71819,-55.5555555555556,4,1,0,90,0,0
71962,-54.054054054054,4,1,0,90,0,0
72105,-52.6315789473684,4,1,0,90,0,0
72248,-51.2820512820513,4,1,0,90,0,0
72391,-50,4,1,0,90,0,0
72534,-48.780487804878,4,1,0,90,0,0
72676,-47.6190476190476,4,1,0,90,0,0
72819,-46.5116279069767,4,1,0,90,0,0
72962,-45.4545454545455,4,1,0,90,0,0
73105,-44.4444444444445,4,1,0,90,0,0
73248,-43.4782608695652,4,1,0,90,0,0
73391,-42.5531914893617,4,1,0,90,0,0
73534,-41.6666666666667,4,1,0,90,0,0
73676,-40.8163265306122,4,1,0,90,0,0
73819,-40,4,1,0,90,0,0
73962,-39.2156862745098,4,1,0,90,0,0
74105,-38.4615384615385,4,1,0,90,0,0
74248,-37.7358490566038,4,1,0,90,0,0
74391,-37.037037037037,4,1,0,90,0,0
74462,-10,4,1,0,5,0,0
74676,-100,4,1,0,5,0,0
76319,-333.333333333333,4,1,0,90,0,0
76676,-40,4,1,0,90,0,0
76962,-76.9230769230769,4,1,0,90,0,1
90676,-76.9230769230769,4,1,0,90,0,0
90819,-78.125,4,1,0,90,0,0
91819,-76.9230769230769,4,1,0,90,0,0
91962,-79.3650793650794,4,1,0,90,0,0
92962,-76.9230769230769,4,1,0,90,0,0
93105,-80.6451612903226,4,1,0,90,0,0
94105,-76.9230769230769,4,1,0,90,0,0
94248,-81.9672131147541,4,1,0,90,0,0
95248,-76.9230769230769,4,1,0,90,0,0
95391,-83.3333333333333,4,1,0,90,0,0
101891,-82.9875518672199,4,1,0,90,0,0
101962,-82.6446280991736,4,1,0,90,0,0
102034,-82.3045267489712,4,1,0,90,0,0
102105,-81.9672131147541,4,1,0,90,0,0
102462,-81.6326530612245,4,1,0,90,0,0
102534,-81.3008130081301,4,1,0,90,0,0
102605,-80.9716599190283,4,1,0,90,0,0
102676,-80.6451612903226,4,1,0,90,0,0
103034,-80.3212851405623,4,1,0,90,0,0
103105,-80,4,1,0,90,0,0
103176,-79.6812749003984,4,1,0,90,0,0
103248,-79.3650793650794,4,1,0,90,0,0
103605,-79.0513833992095,4,1,0,90,0,0
103676,-78.7401574803149,4,1,0,90,0,0
103748,-78.4313725490196,4,1,0,90,0,0
103819,-78.125,4,1,0,90,0,0
104176,-77.8210116731517,4,1,0,90,0,0
104248,-77.5193798449612,4,1,0,90,0,0
104319,-77.2200772200772,4,1,0,90,0,0
104391,-76.9230769230769,4,1,0,90,0,1
104534,-78.125,4,1,0,90,0,1
104605,-79.3650793650794,4,1,0,90,0,1
104676,-80.6451612903226,4,1,0,90,0,1
104819,-76.3358778625954,4,1,0,90,0,1
104867,-76.9230769230769,4,1,0,90,0,1
104914,-77.5193798449612,4,1,0,90,0,1
104962,-78.125,4,1,0,90,0,1
105034,-79.3650793650794,4,1,0,90,0,1
105105,-80.6451612903226,4,1,0,90,0,1
105176,-81.9672131147541,4,1,0,90,0,1
105248,-75.7575757575758,4,1,0,90,0,1
105391,-76.9230769230769,4,1,0,90,0,1
105462,-78.125,4,1,0,90,0,1
105534,-79.3650793650794,4,1,0,90,0,1
105605,-80.6451612903226,4,1,0,90,0,1
105676,-75.187969924812,4,1,0,90,0,1
105724,-75.7575757575758,4,1,0,90,0,1
105772,-76.3358778625954,4,1,0,90,0,1
105819,-76.9230769230769,4,1,0,90,0,1
105891,-78.125,4,1,0,90,0,1
105962,-79.3650793650794,4,1,0,90,0,1
106034,-80.6451612903226,4,1,0,90,0,1
106105,-74.6268656716418,4,1,0,90,0,1
106248,-75.7575757575758,4,1,0,90,0,1
106319,-76.9230769230769,4,1,0,90,0,1
106391,-78.125,4,1,0,90,0,1
106534,-74.0740740740741,4,1,0,90,0,1
106581,-74.6268656716418,4,1,0,90,0,1
106629,-75.187969924812,4,1,0,90,0,1
106676,-75.7575757575758,4,1,0,90,0,1
106748,-76.9230769230769,4,1,0,90,0,1
106819,-78.125,4,1,0,90,0,1
106891,-79.3650793650794,4,1,0,90,0,1
106962,-73.5294117647059,4,1,0,90,0,1
107105,-74.6268656716418,4,1,0,90,0,1
107176,-75.7575757575758,4,1,0,90,0,1
107248,-76.9230769230769,4,1,0,90,0,1
107319,-78.125,4,1,0,90,0,1
107391,-72.992700729927,4,1,0,90,0,1
107438,-73.5294117647059,4,1,0,90,0,1
107486,-74.0740740740741,4,1,0,90,0,1
107534,-74.6268656716418,4,1,0,90,0,1
107605,-75.7575757575758,4,1,0,90,0,1
107676,-76.9230769230769,4,1,0,90,0,1
107748,-78.125,4,1,0,90,0,1
107819,-71.4285714285714,4,1,0,90,0,1
107867,-72.463768115942,4,1,0,90,0,1
107914,-73.5294117647059,4,1,0,90,0,1
107962,-74.6268656716418,4,1,0,90,0,1
108034,-75.7575757575758,4,1,0,90,0,1
108105,-68.9655172413793,4,1,0,90,0,1
108153,-69.9300699300699,4,1,0,90,0,1
108200,-70.9219858156028,4,1,0,90,0,1
108248,-71.9424460431655,4,1,0,90,0,1
108319,-72.463768115942,4,1,0,90,0,1
108391,-66.6666666666667,4,1,0,90,0,1
108462,-67.7966101694915,4,1,0,90,0,1
108534,-68.9655172413793,4,1,0,90,0,1
108605,-70.1754385964912,4,1,0,90,0,1
108676,-40,4,1,0,90,0,0
108712,-10,4,1,0,5,0,0
108962,-100,4,1,0,5,0,0

[HitObjects]
256,192,820,5,8,0:0:0:0:
256,192,892,1,8,0:0:0:0:
256,192,963,1,8,0:0:0:0:
256,192,1249,1,0,0:0:0:0:
256,192,1320,1,8,0:0:0:0:
256,192,1392,1,8,0:0:0:0:
256,192,1534,1,0,0:0:0:0:
256,192,1676,1,8,0:0:0:0:
256,192,1819,1,0,0:0:0:0:
256,192,1962,1,0,0:0:0:0:
256,192,2105,1,8,0:0:0:0:
256,192,2534,1,8,0:0:0:0:
256,192,2676,1,0,0:0:0:0:
256,192,2819,1,8,0:0:0:0:
256,192,2962,1,0,0:0:0:0:
256,192,3105,1,0,0:0:0:0:
256,192,3248,1,8,0:0:0:0:
256,192,3534,1,0,0:0:0:0:
256,192,3676,1,8,0:0:0:0:
256,192,3748,1,0,0:0:0:0:
256,192,3819,1,0,0:0:0:0:
256,192,3962,1,8,0:0:0:0:
256,192,4105,1,0,0:0:0:0:
256,192,4248,1,0,0:0:0:0:
256,192,4391,1,8,0:0:0:0:
256,192,4819,1,8,0:0:0:0:
256,192,4962,1,0,0:0:0:0:
256,192,5105,1,8,0:0:0:0:
256,192,5248,1,0,0:0:0:0:
256,192,5391,1,0,0:0:0:0:
256,192,5534,1,8,0:0:0:0:
256,192,5819,1,8,0:0:0:0:
256,192,5891,1,8,0:0:0:0:
256,192,5962,1,8,0:0:0:0:
256,192,6034,1,8,0:0:0:0:
256,192,6105,1,0,0:0:0:0:
256,192,6248,1,8,0:0:0:0:
256,192,6391,1,0,0:0:0:0:
256,192,6534,1,0,0:0:0:0:
256,192,6676,1,8,0:0:0:0:
256,192,6819,1,8,0:0:0:0:
256,192,6962,1,8,0:0:0:0:
256,192,7248,1,0,0:0:0:0:
256,192,7391,1,8,0:0:0:0:
256,192,7534,1,0,0:0:0:0:
256,192,7676,1,0,0:0:0:0:
256,192,7819,1,8,0:0:0:0:
256,192,8248,1,8,0:0:0:0:
256,192,8319,1,0,0:0:0:0:
256,192,8391,1,0,0:0:0:0:
256,192,8534,1,8,0:0:0:0:
256,192,8676,1,0,0:0:0:0:
256,192,8819,1,0,0:0:0:0:
256,192,8962,1,8,0:0:0:0:
256,192,9248,1,0,0:0:0:0:
256,192,9391,1,8,0:0:0:0:
256,192,9534,1,0,0:0:0:0:
256,192,9676,1,8,0:0:0:0:
256,192,9819,1,0,0:0:0:0:
256,192,9855,1,0,0:0:0:0:
256,192,9962,1,0,0:0:0:0:
256,192,10105,1,8,0:0:0:0:
256,192,10248,1,0,0:0:0:0:
256,192,10391,1,8,0:0:0:0:
256,192,10462,1,8,0:0:0:0:
256,192,10534,1,8,0:0:0:0:
256,192,10605,1,8,0:0:0:0:
256,192,10676,1,4,0:0:0:0:
256,192,10962,1,0,0:0:0:0:
256,192,11105,1,0,0:0:0:0:
256,192,11248,1,8,0:0:0:0:
256,192,11534,1,0,0:0:0:0:
256,192,11676,1,8,0:0:0:0:
256,192,11962,1,8,0:0:0:0:
256,192,12105,1,0,0:0:0:0:
256,192,12248,1,0,0:0:0:0:
256,192,12319,1,0,0:0:0:0:
256,192,12391,1,8,0:0:0:0:
256,192,12534,1,8,0:0:0:0:
256,192,12569,1,8,0:0:0:0:
256,192,12676,1,8,0:0:0:0:
256,192,12712,1,8,0:0:0:0:
256,192,12819,1,8,0:0:0:0:
256,192,12855,1,8,0:0:0:0:
256,192,12962,1,0,0:0:0:0:
256,192,13248,1,0,0:0:0:0:
256,192,13391,1,0,0:0:0:0:
256,192,13534,1,8,0:0:0:0:
256,192,13819,1,0,0:0:0:0:
256,192,13962,1,8,0:0:0:0:
256,192,14105,1,0,0:0:0:0:
256,192,14248,1,0,0:0:0:0:
256,192,14319,1,0,0:0:0:0:
256,192,14391,1,8,0:0:0:0:
256,192,14534,1,0,0:0:0:0:
256,192,14605,1,8,0:0:0:0:
256,192,14676,1,8,0:0:0:0:
256,192,14819,1,0,0:0:0:0:
256,192,14891,1,0,0:0:0:0:
256,192,14962,1,8,0:0:0:0:
256,192,15034,1,8,0:0:0:0:
256,192,15105,1,8,0:0:0:0:
256,192,15176,1,8,0:0:0:0:
256,192,15248,1,4,0:0:0:0:
256,192,15391,1,8,0:0:0:0:
256,192,15534,1,0,0:0:0:0:
256,192,15676,1,0,0:0:0:0:
256,192,15819,1,8,0:0:0:0:
256,192,16105,1,0,0:0:0:0:
256,192,16248,1,8,0:0:0:0:
256,192,16319,1,0,0:0:0:0:
256,192,16391,1,0,0:0:0:0:
256,192,16534,1,8,0:0:0:0:
256,192,16676,1,0,0:0:0:0:
256,192,16819,1,0,0:0:0:0:
256,192,16962,1,8,0:0:0:0:
256,192,17105,1,8,0:0:0:0:
256,192,17141,1,8,0:0:0:0:
256,192,17248,1,8,0:0:0:0:
256,192,17284,1,8,0:0:0:0:
256,192,17391,1,8,0:0:0:0:
256,192,17426,1,8,0:0:0:0:
256,192,17534,1,0,0:0:0:0:
256,192,17819,1,0,0:0:0:0:
256,192,17962,1,0,0:0:0:0:
256,192,18105,1,8,0:0:0:0:
256,192,18391,1,0,0:0:0:0:
256,192,18462,1,8,0:0:0:0:
256,192,18534,1,0,0:0:0:0:
256,192,18605,1,0,0:0:0:0:
256,192,18676,1,8,0:0:0:0:
256,192,18748,1,8,0:0:0:0:
256,192,18819,1,0,0:0:0:0:
256,192,18891,1,8,0:0:0:0:
256,192,18962,1,0,0:0:0:0:
256,192,19034,1,8,0:0:0:0:
256,192,19105,1,8,0:0:0:0:
256,192,19176,1,8,0:0:0:0:
256,192,19248,1,0,0:0:0:0:
256,192,19391,1,0,0:0:0:0:
256,192,19534,1,12,0:0:0:0:
256,192,19819,1,4,0:0:0:0:
256,192,20034,1,8,0:0:0:0:
256,192,20105,1,0,0:0:0:0:
256,192,20248,1,0,0:0:0:0:
256,192,20391,1,8,0:0:0:0:
256,192,20534,1,0,0:0:0:0:
256,192,20605,1,0,0:0:0:0:
256,192,20676,1,0,0:0:0:0:
256,192,20819,1,8,0:0:0:0:
256,192,21105,1,8,0:0:0:0:
256,192,21248,1,0,0:0:0:0:
256,192,21391,1,0,0:0:0:0:
256,192,21462,1,0,0:0:0:0:
256,192,21534,1,8,0:0:0:0:
256,192,21676,1,8,0:0:0:0:
256,192,21712,1,8,0:0:0:0:
256,192,21819,1,8,0:0:0:0:
256,192,21855,1,8,0:0:0:0:
256,192,21962,1,8,0:0:0:0:
256,192,21998,1,8,0:0:0:0:
256,192,22105,1,0,0:0:0:0:
256,192,22248,1,8,0:0:0:0:
256,192,22319,1,0,0:0:0:0:
256,192,22391,1,0,0:0:0:0:
256,192,22534,1,0,0:0:0:0:
256,192,22676,1,8,0:0:0:0:
256,192,22962,1,0,0:0:0:0:
256,192,23105,1,8,0:0:0:0:
256,192,23248,1,0,0:0:0:0:
256,192,23391,1,0,0:0:0:0:
256,192,23462,1,0,0:0:0:0:
256,192,23534,1,8,0:0:0:0:
256,192,23676,1,0,0:0:0:0:
256,192,23748,1,8,0:0:0:0:
256,192,23819,1,8,0:0:0:0:
256,192,23962,1,0,0:0:0:0:
256,192,24034,1,0,0:0:0:0:
256,192,24105,1,8,0:0:0:0:
256,192,24176,1,8,0:0:0:0:
256,192,24248,1,8,0:0:0:0:
256,192,24319,1,8,0:0:0:0:
256,192,24391,1,4,0:0:0:0:
256,192,24605,1,8,0:0:0:0:
256,192,24676,1,0,0:0:0:0:
256,192,24819,1,0,0:0:0:0:
256,192,24962,1,8,0:0:0:0:
256,192,25105,1,0,0:0:0:0:
256,192,25176,1,0,0:0:0:0:
256,192,25248,1,0,0:0:0:0:
256,192,25391,1,8,0:0:0:0:
256,192,25534,1,0,0:0:0:0:
256,192,25676,1,8,0:0:0:0:
256,192,25819,1,0,0:0:0:0:
256,192,25962,1,0,0:0:0:0:
256,192,26034,1,0,0:0:0:0:
256,192,26105,1,8,0:0:0:0:
256,192,26248,1,8,0:0:0:0:
256,192,26284,1,8,0:0:0:0:
256,192,26391,1,8,0:0:0:0:
256,192,26426,1,8,0:0:0:0:
256,192,26534,1,8,0:0:0:0:
256,192,26569,1,8,0:0:0:0:
256,192,26676,1,0,0:0:0:0:
256,192,26819,1,8,0:0:0:0:
256,192,26891,1,0,0:0:0:0:
256,192,26962,1,0,0:0:0:0:
256,192,27105,1,0,0:0:0:0:
256,192,27248,1,8,0:0:0:0:
256,192,27295,1,8,0:0:0:0:
256,192,27343,1,8,0:0:0:0:
256,192,27391,1,0,0:0:0:0:
256,192,27534,1,8,0:0:0:0:
256,192,27676,1,0,0:0:0:0:
256,192,27748,1,0,0:0:0:0:
256,192,27819,1,8,0:0:0:0:
256,192,27891,1,8,0:0:0:0:
256,192,27962,1,0,0:0:0:0:
256,192,28034,1,8,0:0:0:0:
256,192,28105,1,0,0:0:0:0:
256,192,28176,1,8,0:0:0:0:
256,192,28248,1,8,0:0:0:0:
256,192,28319,1,8,0:0:0:0:
256,192,28391,1,0,0:0:0:0:
256,192,28534,1,0,0:0:0:0:
256,192,28676,1,12,0:0:0:0:
256,192,28962,1,4,0:0:0:0:
256,192,29105,1,0,0:0:0:0:
256,192,29176,1,0,0:0:0:0:
256,192,29248,1,8,0:0:0:0:
256,192,29284,1,8,0:0:0:0:
256,192,29391,1,0,0:0:0:0:
256,192,29534,1,8,0:0:0:0:
256,192,29581,1,8,0:0:0:0:
256,192,29629,1,0,0:0:0:0:
256,192,29676,1,0,0:0:0:0:
256,192,29819,1,0,0:0:0:0:
256,192,29962,1,8,0:0:0:0:
256,192,30034,1,0,0:0:0:0:
256,192,30105,1,0,0:0:0:0:
256,192,30248,1,8,0:0:0:0:
256,192,30319,1,8,0:0:0:0:
256,192,30391,1,0,0:0:0:0:
256,192,30534,1,8,0:0:0:0:
256,192,30676,1,0,0:0:0:0:
256,192,30748,1,8,0:0:0:0:
256,192,30819,1,0,0:0:0:0:
256,192,30891,1,0,0:0:0:0:
256,192,30962,1,8,0:0:0:0:
256,192,31105,1,8,0:0:0:0:
256,192,31248,1,0,0:0:0:0:
256,192,31391,1,0,0:0:0:0:
256,192,31462,1,0,0:0:0:0:
256,192,31534,1,8,0:0:0:0:
256,192,31569,1,8,0:0:0:0:
256,192,31676,1,0,0:0:0:0:
256,192,31819,1,8,0:0:0:0:
256,192,31867,1,8,0:0:0:0:
256,192,31914,1,8,0:0:0:0:
256,192,31962,1,0,0:0:0:0:
256,192,32105,1,0,0:0:0:0:
256,192,32248,1,8,0:0:0:0:
256,192,32319,1,8,0:0:0:0:
256,192,32391,1,0,0:0:0:0:
256,192,32534,1,8,0:0:0:0:
256,192,32605,1,0,0:0:0:0:
256,192,32676,1,0,0:0:0:0:
256,192,32819,1,8,0:0:0:0:
256,192,32891,1,8,0:0:0:0:
256,192,32962,1,0,0:0:0:0:
256,192,33105,1,8,0:0:0:0:
256,192,33248,1,0,0:0:0:0:
256,192,33319,1,8,0:0:0:0:
256,192,33391,1,8,0:0:0:0:
256,192,33462,1,8,0:0:0:0:
256,192,33534,1,4,0:0:0:0:
256,192,33676,1,0,0:0:0:0:
256,192,33748,1,0,0:0:0:0:
256,192,33819,1,8,0:0:0:0:
256,192,33855,1,8,0:0:0:0:
256,192,33962,1,0,0:0:0:0:
256,192,34105,1,8,0:0:0:0:
256,192,34153,1,8,0:0:0:0:
256,192,34200,1,0,0:0:0:0:
256,192,34248,1,0,0:0:0:0:
256,192,34391,1,0,0:0:0:0:
256,192,34534,1,8,0:0:0:0:
256,192,34605,1,0,0:0:0:0:
256,192,34676,1,0,0:0:0:0:
256,192,34819,1,8,0:0:0:0:
256,192,34891,1,8,0:0:0:0:
256,192,34962,1,0,0:0:0:0:
256,192,35105,1,8,0:0:0:0:
256,192,35248,1,0,0:0:0:0:
256,192,35319,1,8,0:0:0:0:
256,192,35391,1,0,0:0:0:0:
256,192,35462,1,0,0:0:0:0:
256,192,35534,1,8,0:0:0:0:
256,192,35605,1,0,0:0:0:0:
256,192,35676,1,8,0:0:0:0:
256,192,35748,1,8,0:0:0:0:
256,192,35819,1,0,0:0:0:0:
256,192,35962,1,0,0:0:0:0:
256,192,36034,1,0,0:0:0:0:
256,192,36105,1,8,0:0:0:0:
256,192,36141,1,8,0:0:0:0:
256,192,36248,1,0,0:0:0:0:
256,192,36391,1,8,0:0:0:0:
256,192,36438,1,8,0:0:0:0:
256,192,36486,1,8,0:0:0:0:
256,192,36534,1,0,0:0:0:0:
256,192,36676,1,0,0:0:0:0:
256,192,36819,1,8,0:0:0:0:
256,192,36891,1,8,0:0:0:0:
256,192,36962,1,0,0:0:0:0:
256,192,37105,1,8,0:0:0:0:
256,192,37176,1,0,0:0:0:0:
256,192,37248,1,0,0:0:0:0:
256,192,37319,1,0,0:0:0:0:
256,192,37391,1,8,0:0:0:0:
256,192,37462,1,8,0:0:0:0:
256,192,37534,1,0,0:0:0:0:
256,192,37605,1,8,0:0:0:0:
256,192,37676,1,0,0:0:0:0:
256,192,37748,1,0,0:0:0:0:
256,192,37819,1,8,0:0:0:0:
256,192,37891,1,8,0:0:0:0:
256,192,37962,1,8,0:0:0:0:
256,192,38034,1,8,0:0:0:0:
256,192,38105,1,4,0:0:0:0:
256,192,38391,1,8,0:0:0:0:
256,192,38534,1,0,0:0:0:0:
256,192,38605,1,0,0:0:0:0:
256,192,38676,1,8,0:0:0:0:
256,192,38819,1,0,0:0:0:0:
256,192,38962,1,8,0:0:0:0:
256,192,39105,1,0,0:0:0:0:
256,192,39176,1,0,0:0:0:0:
256,192,39248,1,8,0:0:0:0:
256,192,39319,1,8,0:0:0:0:
256,192,39391,1,0,0:0:0:0:
256,192,39534,1,8,0:0:0:0:
256,192,39676,1,0,0:0:0:0:
256,192,39748,1,0,0:0:0:0:
256,192,39819,1,8,0:0:0:0:
256,192,39962,1,0,0:0:0:0:
256,192,40105,1,8,0:0:0:0:
256,192,40248,1,8,0:0:0:0:
256,192,40319,1,0,0:0:0:0:
256,192,40391,1,0,0:0:0:0:
256,192,40534,1,0,0:0:0:0:
256,192,40676,1,8,0:0:0:0:
256,192,40891,1,0,0:0:0:0:
256,192,40962,1,8,0:0:0:0:
256,192,41105,1,0,0:0:0:0:
256,192,41248,1,8,0:0:0:0:
256,192,41391,1,0,0:0:0:0:
256,192,41462,1,0,0:0:0:0:
256,192,41534,1,8,0:0:0:0:
256,192,41605,1,8,0:0:0:0:
256,192,41676,1,0,0:0:0:0:
256,192,41819,1,8,0:0:0:0:
256,192,41962,1,0,0:0:0:0:
256,192,42034,1,0,0:0:0:0:
256,192,42105,1,8,0:0:0:0:
256,192,42248,1,0,0:0:0:0:
256,192,42391,1,8,0:0:0:0:
256,192,42462,1,8,0:0:0:0:
256,192,42534,1,8,0:0:0:0:
256,192,42605,1,8,0:0:0:0:
256,192,42676,1,4,0:0:0:0:
256,192,42819,1,8,0:0:0:0:
256,192,42891,1,0,0:0:0:0:
256,192,42962,1,8,0:0:0:0:
256,192,43034,1,8,0:0:0:0:
256,192,43105,1,0,0:0:0:0:
256,192,43176,1,8,0:0:0:0:
256,192,43248,1,0,0:0:0:0:
256,192,43391,1,8,0:0:0:0:
256,192,43462,1,0,0:0:0:0:
256,192,43534,1,8,0:0:0:0:
256,192,43605,1,0,0:0:0:0:
256,192,43676,1,0,0:0:0:0:
256,192,43819,1,0,0:0:0:0:
256,192,43962,1,8,0:0:0:0:
256,192,44034,1,8,0:0:0:0:
256,192,44105,1,0,0:0:0:0:
256,192,44176,1,8,0:0:0:0:
256,192,44248,1,0,0:0:0:0:
256,192,44391,1,0,0:0:0:0:
256,192,44462,1,0,0:0:0:0:
256,192,44534,1,8,0:0:0:0:
256,192,44605,1,8,0:0:0:0:
256,192,44676,1,0,0:0:0:0:
256,192,44819,1,8,0:0:0:0:
256,192,44962,1,0,0:0:0:0:
256,192,45105,1,8,0:0:0:0:
256,192,45176,1,0,0:0:0:0:
256,192,45248,1,8,0:0:0:0:
256,192,45319,1,0,0:0:0:0:
256,192,45391,1,0,0:0:0:0:
256,192,45462,1,8,0:0:0:0:
256,192,45534,1,0,0:0:0:0:
256,192,45676,1,8,0:0:0:0:
256,192,45748,1,8,0:0:0:0:
256,192,45819,1,0,0:0:0:0:
256,192,45891,1,8,0:0:0:0:
256,192,45962,1,0,0:0:0:0:
256,192,46105,1,8,0:0:0:0:
256,192,46176,1,0,0:0:0:0:
256,192,46248,1,0,0:0:0:0:
256,192,46391,1,8,0:0:0:0:
256,192,46462,1,0,0:0:0:0:
256,192,46534,1,8,0:0:0:0:
256,192,46605,1,0,0:0:0:0:
256,192,46676,1,0,0:0:0:0:
256,192,46819,1,8,0:0:0:0:
256,192,46962,1,0,0:0:0:0:
256,192,47034,1,8,0:0:0:0:
256,192,47105,1,8,0:0:0:0:
256,192,47248,1,4,0:0:0:0:
256,192,47534,1,8,0:0:0:0:
256,192,47676,1,0,0:0:0:0:
256,192,47748,1,0,0:0:0:0:
256,192,47819,1,8,0:0:0:0:
256,192,47962,1,0,0:0:0:0:
256,192,48105,1,8,0:0:0:0:
256,192,48248,1,0,0:0:0:0:
256,192,48319,1,0,0:0:0:0:
256,192,48391,1,8,0:0:0:0:
256,192,48462,1,8,0:0:0:0:
256,192,48534,1,0,0:0:0:0:
256,192,48676,1,8,0:0:0:0:
256,192,48819,1,0,0:0:0:0:
256,192,48891,1,0,0:0:0:0:
256,192,48962,1,8,0:0:0:0:
256,192,49105,1,0,0:0:0:0:
256,192,49248,1,8,0:0:0:0:
256,192,49391,1,8,0:0:0:0:
256,192,49462,1,0,0:0:0:0:
256,192,49534,1,0,0:0:0:0:
256,192,49676,1,0,0:0:0:0:
256,192,49819,1,8,0:0:0:0:
256,192,50034,1,0,0:0:0:0:
256,192,50105,1,8,0:0:0:0:
256,192,50248,1,0,0:0:0:0:
256,192,50391,1,8,0:0:0:0:
256,192,50534,1,0,0:0:0:0:
256,192,50605,1,0,0:0:0:0:
256,192,50676,1,8,0:0:0:0:
256,192,50748,1,8,0:0:0:0:
256,192,50819,1,0,0:0:0:0:
256,192,50962,1,8,0:0:0:0:
256,192,51105,1,0,0:0:0:0:
256,192,51176,1,0,0:0:0:0:
256,192,51248,1,8,0:0:0:0:
256,192,51391,1,0,0:0:0:0:
256,192,51534,1,8,0:0:0:0:
256,192,51605,1,8,0:0:0:0:
256,192,51676,1,8,0:0:0:0:
256,192,51748,1,8,0:0:0:0:
256,192,51819,1,4,0:0:0:0:
256,192,51962,1,8,0:0:0:0:
256,192,52034,1,0,0:0:0:0:
256,192,52105,1,8,0:0:0:0:
256,192,52176,1,8,0:0:0:0:
256,192,52248,1,0,0:0:0:0:
256,192,52319,1,8,0:0:0:0:
256,192,52391,1,0,0:0:0:0:
256,192,52534,1,8,0:0:0:0:
256,192,52605,1,0,0:0:0:0:
256,192,52676,1,8,0:0:0:0:
256,192,52748,1,0,0:0:0:0:
256,192,52819,1,0,0:0:0:0:
256,192,52962,1,0,0:0:0:0:
256,192,53105,1,8,0:0:0:0:
256,192,53176,1,8,0:0:0:0:
256,192,53248,1,0,0:0:0:0:
256,192,53319,1,8,0:0:0:0:
256,192,53391,1,0,0:0:0:0:
256,192,53534,1,0,0:0:0:0:
256,192,53605,1,0,0:0:0:0:
256,192,53676,1,8,0:0:0:0:
256,192,53748,1,8,0:0:0:0:
256,192,53819,1,0,0:0:0:0:
256,192,53962,1,8,0:0:0:0:
256,192,54105,1,0,0:0:0:0:
256,192,54248,1,8,0:0:0:0:
256,192,54319,1,0,0:0:0:0:
256,192,54391,1,8,0:0:0:0:
256,192,54462,1,0,0:0:0:0:
256,192,54534,1,0,0:0:0:0:
256,192,54605,1,8,0:0:0:0:
256,192,54676,1,0,0:0:0:0:
256,192,54819,1,8,0:0:0:0:
256,192,54891,1,8,0:0:0:0:
256,192,54962,1,0,0:0:0:0:
256,192,55105,1,8,0:0:0:0:
256,192,55153,1,8,0:0:0:0:
256,192,55200,1,8,0:0:0:0:
256,192,55248,1,0,0:0:0:0:
256,192,55391,1,0,0:0:0:0:
256,192,55438,1,8,0:0:0:0:
256,192,55486,1,8,0:0:0:0:
256,192,55534,1,0,0:0:0:0:
256,192,55676,1,8,0:0:0:0:
256,192,55748,1,0,0:0:0:0:
256,192,55819,1,0,0:0:0:0:
256,192,55962,1,8,0:0:0:0:
256,192,56105,1,0,0:0:0:0:
256,192,56176,1,8,0:0:0:0:
256,192,56248,1,8,0:0:0:0:
256,192,56391,1,4,0:0:0:0:
256,192,56676,1,0,0:0:0:0:
256,192,56819,1,8,0:0:0:0:
256,192,56891,1,0,0:0:0:0:
256,192,56962,1,8,0:0:0:0:
256,192,57105,1,0,0:0:0:0:
256,192,57176,1,0,0:0:0:0:
256,192,57248,1,8,0:0:0:0:
256,192,57391,1,0,0:0:0:0:
256,192,57534,1,0,0:0:0:0:
256,192,57605,1,0,0:0:0:0:
256,192,57676,1,0,0:0:0:0:
256,192,57819,1,8,0:0:0:0:
256,192,57962,1,8,0:0:0:0:
256,192,58105,1,0,0:0:0:0:
256,192,58391,1,8,0:0:0:0:
256,192,58534,1,0,0:0:0:0:
256,192,58676,1,0,0:0:0:0:
256,192,58962,1,0,0:0:0:0:
256,192,59105,1,8,0:0:0:0:
256,192,59176,1,0,0:0:0:0:
256,192,59248,1,8,0:0:0:0:
256,192,59391,1,0,0:0:0:0:
256,192,59462,1,0,0:0:0:0:
256,192,59534,1,0,0:0:0:0:
256,192,59676,1,0,0:0:0:0:
256,192,59819,1,8,0:0:0:0:
256,192,59891,1,0,0:0:0:0:
256,192,59962,1,0,0:0:0:0:
256,192,60034,1,0,0:0:0:0:
256,192,60105,1,8,0:0:0:0:
256,192,60248,1,0,0:0:0:0:
256,192,60391,1,8,0:0:0:0:
256,192,60462,1,0,0:0:0:0:
256,192,60534,1,0,0:0:0:0:
256,192,60605,1,0,0:0:0:0:
256,192,60676,1,8,0:0:0:0:
256,192,60748,1,8,0:0:0:0:
256,192,60819,1,8,0:0:0:0:
256,192,60962,1,4,0:0:0:0:
256,192,61248,1,0,0:0:0:0:
256,192,61391,1,8,0:0:0:0:
256,192,61462,1,0,0:0:0:0:
256,192,61534,1,8,0:0:0:0:
256,192,61676,1,0,0:0:0:0:
256,192,61748,1,0,0:0:0:0:
256,192,61819,1,8,0:0:0:0:
256,192,61962,1,0,0:0:0:0:
256,192,62105,1,0,0:0:0:0:
256,192,62176,1,0,0:0:0:0:
256,192,62248,1,0,0:0:0:0:
256,192,62391,1,8,0:0:0:0:
256,192,62534,1,8,0:0:0:0:
256,192,62676,1,0,0:0:0:0:
256,192,62962,1,8,0:0:0:0:
256,192,63105,1,0,0:0:0:0:
256,192,63248,1,0,0:0:0:0:
256,192,63534,1,0,0:0:0:0:
256,192,63676,1,8,0:0:0:0:
256,192,63748,1,0,0:0:0:0:
256,192,63819,1,8,0:0:0:0:
256,192,63962,1,0,0:0:0:0:
256,192,64034,1,0,0:0:0:0:
256,192,64105,1,0,0:0:0:0:
256,192,64248,1,0,0:0:0:0:
256,192,64391,1,8,0:0:0:0:
256,192,64462,1,0,0:0:0:0:
256,192,64534,1,0,0:0:0:0:
256,192,64605,1,0,0:0:0:0:
256,192,64676,1,8,0:0:0:0:
256,192,64819,1,0,0:0:0:0:
256,192,64891,1,0,0:0:0:0:
256,192,64962,1,8,0:0:0:0:
256,192,65034,1,8,0:0:0:0:
256,192,65105,1,0,0:0:0:0:
256,192,65176,1,0,0:0:0:0:
256,192,65248,1,8,0:0:0:0:
256,192,65319,1,0,0:0:0:0:
256,192,65391,1,8,0:0:0:0:
256,192,65462,1,8,0:0:0:0:
256,192,65534,1,4,0:0:0:0:
256,192,65819,1,8,0:0:0:0:
256,192,65962,1,4,0:0:0:0:
256,192,66248,1,0,0:0:0:0:
256,192,66391,1,12,0:0:0:0:
256,192,66676,1,0,0:0:0:0:
256,192,66819,1,8,0:0:0:0:
256,192,66962,1,8,0:0:0:0:
256,192,67105,1,0,0:0:0:0:
256,192,67248,1,8,0:0:0:0:
256,192,67391,1,0,0:0:0:0:
256,192,67462,1,0,0:0:0:0:
256,192,67534,1,8,0:0:0:0:
256,192,67676,1,8,0:0:0:0:
256,192,67819,1,4,0:0:0:0:
256,192,68105,1,8,0:0:0:0:
256,192,68248,1,4,0:0:0:0:
256,192,68534,1,0,0:0:0:0:
256,192,68676,1,12,0:0:0:0:
256,192,68962,1,8,0:0:0:0:
256,192,69105,1,0,0:0:0:0:
256,192,69248,1,8,0:0:0:0:
256,192,69391,1,0,0:0:0:0:
256,192,69534,1,8,0:0:0:0:
256,192,69676,1,0,0:0:0:0:
256,192,69748,1,0,0:0:0:0:
256,192,69819,1,8,0:0:0:0:
256,192,69962,1,0,0:0:0:0:
256,192,70105,1,12,0:0:0:0:
256,192,70248,1,0,0:0:0:0:
256,192,70391,1,0,0:0:0:0:
256,192,70534,1,12,0:0:0:0:
256,192,70676,1,0,0:0:0:0:
256,192,70819,1,0,0:0:0:0:
256,192,70962,1,12,0:0:0:0:
256,192,71105,1,0,0:0:0:0:
256,192,71248,1,0,0:0:0:0:
256,192,71391,1,12,0:0:0:0:
256,192,71534,1,0,0:0:0:0:
256,192,71676,1,0,0:0:0:0:
256,192,71819,1,12,0:0:0:0:
256,192,71962,1,0,0:0:0:0:
256,192,72105,1,0,0:0:0:0:
256,192,72248,1,12,0:0:0:0:
256,192,72391,1,0,0:0:0:0:
256,192,72534,1,0,0:0:0:0:
256,192,72676,1,12,0:0:0:0:
256,192,72819,1,0,0:0:0:0:
256,192,72962,1,0,0:0:0:0:
256,192,73105,1,12,0:0:0:0:
256,192,73248,1,0,0:0:0:0:
256,192,73391,1,0,0:0:0:0:
256,192,73534,1,12,0:0:0:0:
256,192,73676,1,0,0:0:0:0:
256,192,73819,1,0,0:0:0:0:
256,192,73962,1,12,0:0:0:0:
256,192,74105,1,0,0:0:0:0:
256,192,74248,1,0,0:0:0:0:
256,192,74391,1,12,0:0:0:0:
256,192,74462,12,0,76248,0:0:0:0:
256,192,76391,5,0,0:0:0:0:
256,192,76462,1,0,0:0:0:0:
256,192,76534,1,0,0:0:0:0:
256,192,76605,1,0,0:0:0:0:
256,192,76676,1,12,0:0:0:0:
256,192,76962,1,4,0:0:0:0:
256,192,77105,1,0,0:0:0:0:
256,192,77176,1,0,0:0:0:0:
256,192,77248,1,8,0:0:0:0:
256,192,77391,1,0,0:0:0:0:
256,192,77534,1,8,0:0:0:0:
256,192,77581,1,8,0:0:0:0:
256,192,77629,1,8,0:0:0:0:
256,192,77676,1,0,0:0:0:0:
256,192,77748,1,8,0:0:0:0:
256,192,77819,1,0,0:0:0:0:
256,192,77891,1,0,0:0:0:0:
256,192,77962,1,8,0:0:0:0:
256,192,78105,1,0,0:0:0:0:
256,192,78248,1,8,0:0:0:0:
256,192,78319,1,0,0:0:0:0:
256,192,78391,1,8,0:0:0:0:
256,192,78462,1,0,0:0:0:0:
256,192,78534,1,0,0:0:0:0:
256,192,78605,1,0,0:0:0:0:
256,192,78676,1,8,0:0:0:0:
256,192,78819,1,0,0:0:0:0:
256,192,78891,1,8,0:0:0:0:
256,192,78962,1,8,0:0:0:0:
256,192,79034,1,0,0:0:0:0:
256,192,79105,1,8,0:0:0:0:
256,192,79248,1,0,0:0:0:0:
256,192,79391,1,8,0:0:0:0:
256,192,79462,1,0,0:0:0:0:
256,192,79534,1,0,0:0:0:0:
256,192,79605,1,8,0:0:0:0:
256,192,79676,1,0,0:0:0:0:
256,192,79819,1,8,0:0:0:0:
256,192,79891,1,0,0:0:0:0:
256,192,79962,1,8,0:0:0:0:
256,192,80034,1,0,0:0:0:0:
256,192,80105,1,0,0:0:0:0:
256,192,80248,1,8,0:0:0:0:
256,192,80319,1,8,0:0:0:0:
256,192,80391,1,0,0:0:0:0:
256,192,80462,1,8,0:0:0:0:
256,192,80534,1,0,0:0:0:0:
256,192,80605,1,0,0:0:0:0:
256,192,80676,1,8,0:0:0:0:
256,192,80819,1,0,0:0:0:0:
256,192,80891,1,8,0:0:0:0:
256,192,80962,1,8,0:0:0:0:
256,192,81034,1,8,0:0:0:0:
256,192,81105,1,0,0:0:0:0:
256,192,81176,1,0,0:0:0:0:
256,192,81248,1,8,0:0:0:0:
256,192,81319,1,0,0:0:0:0:
256,192,81391,1,8,0:0:0:0:
256,192,81462,1,8,0:0:0:0:
256,192,81534,1,4,0:0:0:0:
256,192,81676,1,0,0:0:0:0:
256,192,81748,1,0,0:0:0:0:
256,192,81819,1,8,0:0:0:0:
256,192,81962,1,0,0:0:0:0:
256,192,82105,1,8,0:0:0:0:
256,192,82153,1,8,0:0:0:0:
256,192,82200,1,8,0:0:0:0:
256,192,82248,1,0,0:0:0:0:
256,192,82319,1,8,0:0:0:0:
256,192,82391,1,0,0:0:0:0:
256,192,82462,1,0,0:0:0:0:
256,192,82534,1,8,0:0:0:0:
256,192,82676,1,0,0:0:0:0:
256,192,82819,1,8,0:0:0:0:
256,192,82891,1,0,0:0:0:0:
256,192,82962,1,8,0:0:0:0:
256,192,83034,1,0,0:0:0:0:
256,192,83105,1,0,0:0:0:0:
256,192,83176,1,0,0:0:0:0:
256,192,83248,1,8,0:0:0:0:
256,192,83391,1,0,0:0:0:0:
256,192,83462,1,8,0:0:0:0:
256,192,83534,1,0,0:0:0:0:
256,192,83605,1,0,0:0:0:0:
256,192,83676,1,8,0:0:0:0:
256,192,83819,1,0,0:0:0:0:
256,192,83962,1,8,0:0:0:0:
256,192,84034,1,8,0:0:0:0:
256,192,84105,1,0,0:0:0:0:
256,192,84176,1,8,0:0:0:0:
256,192,84248,1,0,0:0:0:0:
256,192,84391,1,8,0:0:0:0:
256,192,84462,1,0,0:0:0:0:
256,192,84534,1,0,0:0:0:0:
256,192,84605,1,8,0:0:0:0:
256,192,84676,1,0,0:0:0:0:
256,192,84819,1,8,0:0:0:0:
256,192,84891,1,0,0:0:0:0:
256,192,84962,1,0,0:0:0:0:
256,192,85034,1,0,0:0:0:0:
256,192,85105,1,8,0:0:0:0:
256,192,85176,1,0,0:0:0:0:
256,192,85248,1,8,0:0:0:0:
256,192,85295,1,0,0:0:0:0:
256,192,85343,1,0,0:0:0:0:
256,192,85391,1,8,0:0:0:0:
256,192,85462,1,8,0:0:0:0:
256,192,85534,1,0,0:0:0:0:
256,192,85605,1,0,0:0:0:0:
256,192,85676,1,8,0:0:0:0:
256,192,85724,1,8,0:0:0:0:
256,192,85772,1,8,0:0:0:0:
256,192,85819,1,8,0:0:0:0:
256,192,85891,1,8,0:0:0:0:
256,192,85962,1,0,0:0:0:0:
256,192,86105,1,4,0:0:0:0:
256,192,86248,1,0,0:0:0:0:
256,192,86319,1,0,0:0:0:0:
256,192,86391,1,8,0:0:0:0:
256,192,86534,1,0,0:0:0:0:
256,192,86676,1,8,0:0:0:0:
256,192,86724,1,8,0:0:0:0:
256,192,86772,1,8,0:0:0:0:
256,192,86819,1,0,0:0:0:0:
256,192,86891,1,8,0:0:0:0:
256,192,86962,1,0,0:0:0:0:
256,192,87034,1,0,0:0:0:0:
256,192,87105,1,8,0:0:0:0:
256,192,87248,1,0,0:0:0:0:
256,192,87391,1,8,0:0:0:0:
256,192,87462,1,0,0:0:0:0:
256,192,87534,1,8,0:0:0:0:
256,192,87605,1,0,0:0:0:0:
256,192,87676,1,0,0:0:0:0:
256,192,87748,1,0,0:0:0:0:
256,192,87819,1,8,0:0:0:0:
256,192,87962,1,0,0:0:0:0:
256,192,88034,1,8,0:0:0:0:
256,192,88105,1,8,0:0:0:0:
256,192,88177,1,0,0:0:0:0:
256,192,88248,1,8,0:0:0:0:
256,192,88391,1,0,0:0:0:0:
256,192,88534,1,8,0:0:0:0:
256,192,88605,1,0,0:0:0:0:
256,192,88677,1,0,0:0:0:0:
256,192,88748,1,8,0:0:0:0:
256,192,88819,1,0,0:0:0:0:
256,192,88962,1,8,0:0:0:0:
256,192,89034,1,0,0:0:0:0:
256,192,89105,1,8,0:0:0:0:
256,192,89177,1,0,0:0:0:0:
256,192,89248,1,0,0:0:0:0:
256,192,89391,1,8,0:0:0:0:
256,192,89462,1,8,0:0:0:0:
256,192,89534,1,0,0:0:0:0:
256,192,89605,1,8,0:0:0:0:
256,192,89677,1,0,0:0:0:0:
256,192,89748,1,0,0:0:0:0:
256,192,89819,1,8,0:0:0:0:
256,192,89962,1,0,0:0:0:0:
256,192,90034,1,8,0:0:0:0:
256,192,90105,1,8,0:0:0:0:
256,192,90176,1,8,0:0:0:0:
256,192,90248,1,0,0:0:0:0:
256,192,90319,1,0,0:0:0:0:
256,192,90391,1,8,0:0:0:0:
256,192,90462,1,0,0:0:0:0:
256,192,90534,1,8,0:0:0:0:
256,192,90605,1,8,0:0:0:0:
256,192,90677,1,4,0:0:0:0:
256,192,90819,1,0,0:0:0:0:
256,192,90891,1,0,0:0:0:0:
256,192,90962,1,8,0:0:0:0:
256,192,91105,1,0,0:0:0:0:
256,192,91248,1,8,0:0:0:0:
256,192,91295,1,8,0:0:0:0:
256,192,91343,1,8,0:0:0:0:
256,192,91391,1,0,0:0:0:0:
256,192,91462,1,8,0:0:0:0:
256,192,91534,1,0,0:0:0:0:
256,192,91676,1,8,0:0:0:0:
256,192,91819,1,4,0:0:0:0:
256,192,91962,1,8,0:0:0:0:
256,192,92034,1,0,0:0:0:0:
256,192,92105,1,8,0:0:0:0:
256,192,92248,1,0,0:0:0:0:
256,192,92391,1,8,0:0:0:0:
256,192,92534,1,0,0:0:0:0:
256,192,92605,1,0,0:0:0:0:
256,192,92676,1,8,0:0:0:0:
256,192,92748,1,0,0:0:0:0:
256,192,92819,1,8,0:0:0:0:
256,192,92962,1,4,0:0:0:0:
256,192,93105,1,0,0:0:0:0:
256,192,93176,1,0,0:0:0:0:
256,192,93248,1,8,0:0:0:0:
256,192,93391,1,0,0:0:0:0:
256,192,93534,1,8,0:0:0:0:
256,192,93605,1,8,0:0:0:0:
256,192,93676,1,8,0:0:0:0:
256,192,93819,1,0,0:0:0:0:
256,192,93962,1,8,0:0:0:0:
256,192,94105,1,4,0:0:0:0:
256,192,94248,1,8,0:0:0:0:
256,192,94319,1,0,0:0:0:0:
256,192,94391,1,8,0:0:0:0:
256,192,94534,1,8,0:0:0:0:
256,192,94676,1,0,0:0:0:0:
256,192,94748,1,8,0:0:0:0:
256,192,94819,1,0,0:0:0:0:
256,192,94891,1,0,0:0:0:0:
256,192,94962,1,8,0:0:0:0:
256,192,95034,1,8,0:0:0:0:
256,192,95105,1,8,0:0:0:0:
256,192,95176,1,8,0:0:0:0:
256,192,95248,1,4,0:0:0:0:
256,192,95462,1,0,0:0:0:0:
256,192,95534,1,8,0:0:0:0:
256,192,95676,1,0,0:0:0:0:
256,192,95748,1,0,0:0:0:0:
256,192,95819,1,8,0:0:0:0:
256,192,95891,1,8,0:0:0:0:
256,192,95962,1,8,0:0:0:0:
256,192,96105,1,0,0:0:0:0:
256,192,96248,1,8,0:0:0:0:
256,192,96391,1,0,0:0:0:0:
256,192,96462,1,8,0:0:0:0:
256,192,96534,1,0,0:0:0:0:
256,192,96605,1,0,0:0:0:0:
256,192,96676,1,8,0:0:0:0:
256,192,96819,1,0,0:0:0:0:
256,192,96891,1,0,0:0:0:0:
256,192,96962,1,8,0:0:0:0:
256,192,97034,1,8,0:0:0:0:
256,192,97105,1,0,0:0:0:0:
256,192,97176,1,0,0:0:0:0:
256,192,97248,1,8,0:0:0:0:
256,192,97391,1,0,0:0:0:0:
256,192,97462,1,8,0:0:0:0:
256,192,97534,1,0,0:0:0:0:
256,192,97605,1,0,0:0:0:0:
256,192,97676,1,8,0:0:0:0:
256,192,97748,1,8,0:0:0:0:
256,192,97819,1,0,0:0:0:0:
256,192,97891,1,8,0:0:0:0:
256,192,97962,1,0,0:0:0:0:
256,192,98034,1,0,0:0:0:0:
256,192,98105,1,8,0:0:0:0:
256,192,98176,1,8,0:0:0:0:
256,192,98248,1,8,0:0:0:0:
256,192,98319,1,8,0:0:0:0:
256,192,98391,1,0,0:0:0:0:
256,192,98534,1,0,0:0:0:0:
256,192,98676,1,8,0:0:0:0:
256,192,98819,1,8,0:0:0:0:
256,192,98891,1,8,0:0:0:0:
256,192,98962,1,8,0:0:0:0:
256,192,99105,1,8,0:0:0:0:
256,192,99176,1,8,0:0:0:0:
256,192,99248,1,8,0:0:0:0:
256,192,99391,1,0,0:0:0:0:
256,192,99462,1,0,0:0:0:0:
256,192,99534,1,8,0:0:0:0:
256,192,99605,1,8,0:0:0:0:
256,192,99676,1,8,0:0:0:0:
256,192,99748,1,8,0:0:0:0:
256,192,99819,1,4,0:0:0:0:
256,192,100034,1,0,0:0:0:0:
256,192,100105,1,8,0:0:0:0:
256,192,100248,1,8,0:0:0:0:
256,192,100319,1,0,0:0:0:0:
256,192,100391,1,8,0:0:0:0:
256,192,100462,1,0,0:0:0:0:
256,192,100534,1,0,0:0:0:0:
256,192,100605,1,0,0:0:0:0:
256,192,100676,1,8,0:0:0:0:
256,192,100748,1,8,0:0:0:0:
256,192,100819,1,0,0:0:0:0:
256,192,100891,1,8,0:0:0:0:
256,192,100962,1,0,0:0:0:0:
256,192,101034,1,0,0:0:0:0:
256,192,101105,1,8,0:0:0:0:
256,192,101176,1,0,0:0:0:0:
256,192,101248,1,8,0:0:0:0:
256,192,101319,1,8,0:0:0:0:
256,192,101391,1,8,0:0:0:0:
256,192,101462,1,0,0:0:0:0:
256,192,101534,1,0,0:0:0:0:
256,192,101605,1,0,0:0:0:0:
256,192,101676,1,8,0:0:0:0:
256,192,101748,1,8,0:0:0:0:
256,192,101819,1,0,0:0:0:0:
256,192,101891,1,8,0:0:0:0:
256,192,101962,1,0,0:0:0:0:
256,192,102034,1,0,0:0:0:0:
256,192,102105,1,8,0:0:0:0:
256,192,102153,1,8,0:0:0:0:
256,192,102200,1,8,0:0:0:0:
256,192,102248,1,0,0:0:0:0:
256,192,102319,1,8,0:0:0:0:
256,192,102391,1,0,0:0:0:0:
256,192,102462,1,0,0:0:0:0:
256,192,102534,1,8,0:0:0:0:
256,192,102605,1,0,0:0:0:0:
256,192,102676,1,8,0:0:0:0:
256,192,102724,1,0,0:0:0:0:
256,192,102772,1,0,0:0:0:0:
256,192,102819,1,8,0:0:0:0:
256,192,102891,1,8,0:0:0:0:
256,192,102962,1,0,0:0:0:0:
256,192,103034,1,8,0:0:0:0:
256,192,103105,1,0,0:0:0:0:
256,192,103176,1,0,0:0:0:0:
256,192,103248,1,8,0:0:0:0:
256,192,103295,1,8,0:0:0:0:
256,192,103343,1,8,0:0:0:0:
256,192,103391,1,0,0:0:0:0:
256,192,103462,1,8,0:0:0:0:
256,192,103534,1,0,0:0:0:0:
256,192,103605,1,0,0:0:0:0:
256,192,103676,1,8,0:0:0:0:
256,192,103748,1,0,0:0:0:0:
256,192,103819,1,8,0:0:0:0:
256,192,103867,1,0,0:0:0:0:
256,192,103914,1,0,0:0:0:0:
256,192,103962,1,8,0:0:0:0:
256,192,104034,1,8,0:0:0:0:
256,192,104105,1,0,0:0:0:0:
256,192,104176,1,8,0:0:0:0:
256,192,104248,1,0,0:0:0:0:
256,192,104319,1,0,0:0:0:0:
256,192,104391,1,12,0:0:0:0:
256,192,104534,1,0,0:0:0:0:
256,192,104605,1,8,0:0:0:0:
256,192,104676,1,0,0:0:0:0:
256,192,104819,1,8,0:0:0:0:
256,192,104867,1,8,0:0:0:0:
256,192,104914,1,8,0:0:0:0:
256,192,104962,1,0,0:0:0:0:
256,192,105034,1,8,0:0:0:0:
256,192,105105,1,0,0:0:0:0:
256,192,105176,1,0,0:0:0:0:
256,192,105248,1,12,0:0:0:0:
256,192,105391,1,0,0:0:0:0:
256,192,105462,1,8,0:0:0:0:
256,192,105534,1,0,0:0:0:0:
256,192,105605,1,0,0:0:0:0:
256,192,105676,1,8,0:0:0:0:
256,192,105724,1,0,0:0:0:0:
256,192,105772,1,0,0:0:0:0:
256,192,105819,1,8,0:0:0:0:
256,192,105891,1,8,0:0:0:0:
256,192,105962,1,0,0:0:0:0:
256,192,106034,1,0,0:0:0:0:
256,192,106105,1,12,0:0:0:0:
256,192,106248,1,0,0:0:0:0:
256,192,106319,1,8,0:0:0:0:
256,192,106391,1,0,0:0:0:0:
256,192,106534,1,8,0:0:0:0:
256,192,106581,1,8,0:0:0:0:
256,192,106629,1,8,0:0:0:0:
256,192,106676,1,0,0:0:0:0:
256,192,106748,1,8,0:0:0:0:
256,192,106819,1,0,0:0:0:0:
256,192,106891,1,0,0:0:0:0:
256,192,106962,1,12,0:0:0:0:
256,192,107105,1,0,0:0:0:0:
256,192,107176,1,8,0:0:0:0:
256,192,107248,1,0,0:0:0:0:
256,192,107319,1,0,0:0:0:0:
256,192,107391,1,8,0:0:0:0:
256,192,107438,1,0,0:0:0:0:
256,192,107486,1,0,0:0:0:0:
256,192,107534,1,8,0:0:0:0:
256,192,107605,1,8,0:0:0:0:
256,192,107676,1,0,0:0:0:0:
256,192,107748,1,0,0:0:0:0:
256,192,107819,1,8,0:0:0:0:
256,192,107867,1,8,0:0:0:0:
256,192,107914,1,8,0:0:0:0:
256,192,107962,1,0,0:0:0:0:
256,192,108034,1,8,0:0:0:0:
256,192,108105,1,0,0:0:0:0:
256,192,108153,1,0,0:0:0:0:
256,192,108200,1,0,0:0:0:0:
256,192,108248,1,8,0:0:0:0:
256,192,108319,1,8,0:0:0:0:
256,192,108391,1,0,0:0:0:0:
256,192,108462,1,8,0:0:0:0:
256,192,108534,1,0,0:0:0:0:
256,192,108605,1,0,0:0:0:0:
256,192,108676,1,12,0:0:0:0:
256,192,108748,12,0,111819,0:0:0:0:
