osu file format v14

[General]
AudioFilename: audio.mp3
AudioLeadIn: 0
PreviewTime: 76882
Countdown: 0
SampleSet: Normal
StackLeniency: 0.7
Mode: 1
LetterboxInBreaks: 0
WidescreenStoryboard: 1

[Editor]
DistanceSpacing: 1
BeatDivisor: 8
GridSize: 32
TimelineZoom: 3.399999

[Metadata]
Title:chaos eater -IIDX edition-
TitleUnicode:chaos eater -IIDX edition-
Artist:Nekomata Master+
ArtistUnicode:猫叉Master+
Creator:Skull Kid
Version:HiroK's Inner Oni
Source:beatmania IIDX 23 copula
Tags:skid Capu Genjuro eae HiroK DanceDanceRevolution DDR 2014 GITADORA NEX+AGE NEXTAGE 佐藤直之 Naoyuki Sato hard step instrumental Electronic video game
BeatmapID:3116845
BeatmapSetID:1489580

[Difficulty]
HPDrainRate:6
CircleSize:2
OverallDifficulty:6.5
ApproachRate:10
SliderMultiplier:1.4
SliderTickRate:1

[Events]
//Background and Video events
0,0,"bg.jpg",0,60
//Break Periods
//Storyboard Layer 0 (Background)
//Storyboard Layer 1 (Fail)
//Storyboard Layer 2 (Pass)
//Storyboard Layer 3 (Foreground)
//Storyboard Layer 4 (Overlay)
//Storyboard Sound Samples

[TimingPoints]
392,285.714285714286,4,1,0,90,1,8
677,-76.9230769230769,4,1,0,90,0,0
856,-80,4,1,0,90,0,0
927,-83.3333333333333,4,1,0,90,0,0
1213,-90.9090909090909,4,1,0,90,0,0
1284,-95.2380952380952,4,1,0,90,0,0
1356,-100,4,1,0,90,0,0
1534,285.714285714286,4,1,0,90,1,0
1534,-105.263157894737,4,1,0,90,0,0
1605,-108.108108108108,4,1,0,90,0,0
1748,-111.111111111111,4,1,0,90,0,0
1891,-114.285714285714,4,1,0,90,0,0
2034,-117.647058823529,4,1,0,90,0,0
2319,-125,4,1,0,90,0,0
2462,-129.032258064516,4,1,0,90,0,0
2605,-133.333333333333,4,1,0,90,0,0
2748,-137.931034482759,4,1,0,90,0,0
2891,-142.857142857143,4,1,0,90,0,0
3034,-148.148148148148,4,1,0,90,0,0
3176,-153.846153846154,4,1,0,90,0,0
3462,-166.666666666667,4,1,0,90,0,0
3605,-173.913043478261,4,1,0,90,0,0
3748,-105.263157894737,4,1,0,90,0,0
3891,-108.108108108108,4,1,0,90,0,0
4034,-111.111111111111,4,1,0,90,0,0
4176,-114.285714285714,4,1,0,90,0,0
4319,-117.647058823529,4,1,0,90,0,0
4534,-125,4,1,0,90,0,0
4748,-129.032258064516,4,1,0,90,0,0
4891,-133.333333333333,4,1,0,90,0,0
5034,-137.931034482759,4,1,0,90,0,0
5176,-142.857142857143,4,1,0,90,0,0
5462,-153.846153846154,4,1,0,90,0,0
5605,-160,4,1,0,90,0,0
5748,-86.9565217391304,4,1,0,90,0,0
5855,-90.9090909090909,4,1,0,90,0,0
5926,-95.2380952380952,4,1,0,90,0,0
5998,-100,4,1,0,90,0,0
6069,-105.263157894737,4,1,0,90,0,0
6176,-108.108108108108,4,1,0,90,0,0
6319,-111.111111111111,4,1,0,90,0,0
6462,-114.285714285714,4,1,0,90,0,0
6605,-117.647058823529,4,1,0,90,0,0
6748,-121.212121212121,4,1,0,90,0,0
6891,-125,4,1,0,90,0,0
7105,-133.333333333333,4,1,0,90,0,0
7319,-137.931034482759,4,1,0,90,0,0
7462,-142.857142857143,4,1,0,90,0,0
7605,-148.148148148148,4,1,0,90,0,0
7748,-153.846153846154,4,1,0,90,0,0
8034,-166.666666666667,4,1,0,90,0,0
8176,-173.913043478261,4,1,0,90,0,0
8319,-105.263157894737,4,1,0,90,0,0
8462,-108.108108108108,4,1,0,90,0,0
8605,-111.111111111111,4,1,0,90,0,0
8748,-114.285714285714,4,1,0,90,0,0
8891,-117.647058823529,4,1,0,90,0,0
9176,-125,4,1,0,90,0,0
9319,-129.032258064516,4,1,0,90,0,0
9462,-133.333333333333,4,1,0,90,0,0
9676,-142.857142857143,4,1,0,90,0,0
10034,-153.846153846154,4,1,0,90,0,0
10176,-160,4,1,0,90,0,0
10319,-86.9565217391304,4,1,0,90,0,0
10426,-90.9090909090909,4,1,0,90,0,0
10498,-95.2380952380952,4,1,0,90,0,0
10569,-100,4,1,0,90,0,0
10641,-76.9230769230769,4,1,0,90,0,0
10819,-125,4,1,0,90,0,0
14176,-123.456790123457,4,1,0,90,0,0
14284,-121.951219512195,4,1,0,90,0,0
14355,-120.481927710843,4,1,0,90,0,0
14462,-117.647058823529,4,1,0,90,0,0
14569,-116.279069767442,4,1,0,90,0,0
14641,-114.942528735632,4,1,0,90,0,0
14748,-112.359550561798,4,1,0,90,0,0
14891,-109.89010989011,4,1,0,90,0,0
15034,-107.52688172043,4,1,0,90,0,0
15141,-106.382978723404,4,1,0,90,0,0
15212,-105.263157894737,4,1,0,90,0,0
15319,-108.108108108108,4,1,0,90,0,0
15462,-111.111111111111,4,1,0,90,0,0
15605,-114.285714285714,4,1,0,90,0,0
15748,-117.647058823529,4,1,0,90,0,0
15962,-125,4,1,0,90,0,0
16176,-129.032258064516,4,1,0,90,0,0
16319,-133.333333333333,4,1,0,90,0,0
16462,-137.931034482759,4,1,0,90,0,0
16605,-142.857142857143,4,1,0,90,0,0
16748,-148.148148148148,4,1,0,90,0,0
16891,-153.846153846154,4,1,0,90,0,0
17034,-160,4,1,0,90,0,0
17176,-166.666666666667,4,1,0,90,0,0
17319,-173.913043478261,4,1,0,90,0,0
17462,-105.263157894737,4,1,0,90,0,0
17676,-111.111111111111,4,1,0,90,0,0
17891,-114.285714285714,4,1,0,90,0,0
18034,-117.647058823529,4,1,0,90,0,0
18319,-125,4,1,0,90,0,0
18462,-83.3333333333333,4,1,0,90,0,0
18569,-84.7457627118644,4,1,0,90,0,0
18641,-86.2068965517241,4,1,0,90,0,0
18712,-87.719298245614,4,1,0,90,0,0
18784,-89.2857142857143,4,1,0,90,0,0
18855,-90.9090909090909,4,1,0,90,0,0
18926,-92.5925925925926,4,1,0,90,0,0
18998,-94.3396226415094,4,1,0,90,0,0
19069,-96.1538461538461,4,1,0,90,0,0
19141,-98.0392156862745,4,1,0,90,0,0
19212,-100,4,1,0,90,0,0
19319,-102.564102564103,4,1,0,90,0,0
19462,-76.9230769230769,4,1,0,90,0,0
19676,-111.111111111111,4,1,0,90,0,0
27891,-83.3333333333333,4,1,0,90,0,0
27998,-85.7142857142906,4,1,0,90,0,0
28069,-88.2352941176471,4,1,0,90,0,0
28141,-90.9090909090909,4,1,0,90,0,0
28212,-93.75,4,1,0,90,0,0
28284,-96.7741935483871,4,1,0,90,0,0
28355,-100,4,1,0,90,0,0
28462,-105.263157894737,4,1,0,90,0,0
28605,-76.9230769230769,4,1,0,90,0,0
28891,-95.2380952380952,4,1,0,90,0,0
37605,-93.0232558139535,4,1,0,90,0,0
37712,-90.9090909090909,4,1,0,90,0,0
37784,-88.8888888888889,4,1,0,90,0,0
37855,-86.9565217391304,4,1,0,90,0,0
37926,-85.1063829787234,4,1,0,90,0,0
37998,-83.3333333333333,4,1,0,90,0,0
38069,-76.9230769230769,4,1,0,90,0,0
38176,-133.333333333333,4,1,0,90,0,0
42534,-80,4,1,0,90,0,0
42748,-83.3333333333333,4,1,0,90,0,0
42855,-85.1063829787234,4,1,0,90,0,0
42926,-86.9565217391304,4,1,0,90,0,0
42998,-88.8888888888889,4,1,0,90,0,0
43069,-90.9090909090909,4,1,0,90,0,0
43141,-93.0232558139535,4,1,0,90,0,0
43212,-95.2380952380952,4,1,0,90,0,0
43284,-97.5609756097561,4,1,0,90,0,0
43355,-100,4,1,0,90,0,0
43462,-83.3333333333333,4,1,0,90,0,0
43569,-85.1063829787234,4,1,0,90,0,0
43641,-86.9565217391304,4,1,0,90,0,0
43712,-88.8888888888889,4,1,0,90,0,0
43784,-90.9090909090909,4,1,0,90,0,0
43891,-83.3333333333333,4,1,0,90,0,0
43998,-85.1063829787234,4,1,0,90,0,0
44069,-86.9565217391304,4,1,0,90,0,0
44141,-88.8888888888889,4,1,0,90,0,0
44212,-90.9090909090909,4,1,0,90,0,0
44319,-95.2380952380952,4,1,0,90,0,0
44462,-100,4,1,0,90,0,0
44605,-105.263157894737,4,1,0,90,0,0
44891,-80,4,1,0,90,0,0
45034,-83.3333333333333,4,1,0,90,0,0
45141,-85.1063829787234,4,1,0,90,0,0
45212,-86.9565217391304,4,1,0,90,0,0
45284,-88.8888888888889,4,1,0,90,0,0
45355,-90.9090909090909,4,1,0,90,0,0
45426,-93.0232558139535,4,1,0,90,0,0
45498,-95.2380952380952,4,1,0,90,0,0
45569,-97.5609756097561,4,1,0,90,0,0
45641,-100,4,1,0,90,0,0
45748,-83.3333333333333,4,1,0,90,0,0
45855,-85.1063829787234,4,1,0,90,0,0
45926,-86.9565217391304,4,1,0,90,0,0
45998,-88.8888888888889,4,1,0,90,0,0
46069,-90.9090909090909,4,1,0,90,0,0
46176,-95.2380952380952,4,1,0,90,0,0
46319,-100,4,1,0,90,0,0
46462,-105.263157894737,4,1,0,90,0,0
46569,-108.108108108108,4,1,0,90,0,0
46641,-111.111111111111,4,1,0,90,0,0
46712,-114.285714285714,4,1,0,90,0,0
46784,-117.647058823529,4,1,0,90,0,0
46891,-125,4,1,0,90,0,0
46998,-129.032258064516,4,1,0,90,0,0
47069,-133.333333333333,4,1,0,90,0,0
47176,-76.9230769230769,4,1,0,90,0,0
47391,-133.333333333333,4,1,0,90,0,0
51676,-80,4,1,0,90,0,0
51891,-83.3333333333333,4,1,0,90,0,0
51998,-85.1063829787234,4,1,0,90,0,0
52069,-86.9565217391304,4,1,0,90,0,0
52141,-88.8888888888889,4,1,0,90,0,0
52212,-90.9090909090909,4,1,0,90,0,0
52284,-93.0232558139535,4,1,0,90,0,0
52355,-95.2380952380952,4,1,0,90,0,0
52426,-97.5609756097561,4,1,0,90,0,0
52498,-100,4,1,0,90,0,0
52605,-83.3333333333333,4,1,0,90,0,0
52712,-85.1063829787234,4,1,0,90,0,0
52784,-86.9565217391304,4,1,0,90,0,0
52855,-88.8888888888889,4,1,0,90,0,0
52926,-90.9090909090909,4,1,0,90,0,0
53034,-83.3333333333333,4,1,0,90,0,0
53141,-85.1063829787234,4,1,0,90,0,0
53212,-86.9565217391304,4,1,0,90,0,0
53284,-88.8888888888889,4,1,0,90,0,0
53355,-90.9090909090909,4,1,0,90,0,0
53426,-93.0232558139535,4,1,0,90,0,0
53498,-95.2380952380952,4,1,0,90,0,0
53605,-100,4,1,0,90,0,0
53748,-105.263157894737,4,1,0,90,0,0
54034,-80,4,1,0,90,0,0
54176,-83.3333333333333,4,1,0,90,0,0
54284,-85.1063829787234,4,1,0,90,0,0
54355,-86.9565217391304,4,1,0,90,0,0
54426,-88.8888888888889,4,1,0,90,0,0
54498,-90.9090909090909,4,1,0,90,0,0
54569,-93.0232558139535,4,1,0,90,0,0
54641,-95.2380952380952,4,1,0,90,0,0
54712,-97.5609756097561,4,1,0,90,0,0
54784,-100,4,1,0,90,0,0
54891,-83.3333333333333,4,1,0,90,0,0
54998,-85.1063829787234,4,1,0,90,0,0
55069,-86.9565217391304,4,1,0,90,0,0
55141,-88.8888888888889,4,1,0,90,0,0
55212,-90.9090909090909,4,1,0,90,0,0
55319,-95.2380952380952,4,1,0,90,0,0
55426,-97.5609756097561,4,1,0,90,0,0
55498,-100,4,1,0,90,0,0
55569,-102.564102564103,4,1,0,90,0,0
55641,-105.263157894737,4,1,0,90,0,0
55748,-111.111111111111,4,1,0,90,0,0
55891,-117.647058823529,4,1,0,90,0,0
56034,-125,4,1,0,90,0,0
56319,-76.9230769230769,4,1,0,90,0,0
56534,-142.857142857143,4,1,0,90,0,0
60819,-76.9230769230769,4,1,0,90,0,0
61176,-142.857142857143,4,1,0,90,0,0
65391,-83.3333333333333,4,1,0,90,0,0
66534,-142.857142857143,4,1,0,90,0,0
67676,-83.3333333333333,4,1,0,90,0,0
68819,-142.857142857143,4,1,0,90,0,0
70034,-133.333333333333,4,1,0,90,0,0
70176,-129.032258064516,4,1,0,90,0,0
70319,-125,4,1,0,90,0,0
70462,-121.212121212121,4,1,0,90,0,0
70605,-117.647058823529,4,1,0,90,0,0
70748,-114.285714285714,4,1,0,90,0,0
70891,-111.111111111111,4,1,0,90,0,0
71034,-108.108108108108,4,1,0,90,0,0
71176,-105.263157894737,4,1,0,90,0,0
71319,-102.564102564103,4,1,0,90,0,0
71462,-100,4,1,0,90,0,0
71605,-97.5609756097561,4,1,0,90,0,0
71748,-95.2380952380952,4,1,0,90,0,0
71891,-93.0232558139535,4,1,0,90,0,0
72034,-90.9090909090909,4,1,0,90,0,0
72176,-88.8888888888889,4,1,0,90,0,0
72319,-86.9565217391304,4,1,0,90,0,0
72462,-85.1063829787234,4,1,0,90,0,0
72605,-83.3333333333333,4,1,0,90,0,0
72748,-81.6326530612245,4,1,0,90,0,0
72891,-80,4,1,0,90,0,0
73034,-78.4313725490196,4,1,0,90,0,0
73176,-76.9230769230769,4,1,0,90,0,0
73319,-75.4716981132076,4,1,0,90,0,0
73462,-74.0740740740741,4,1,0,90,0,0
73605,-72.7272727272727,4,1,0,90,0,0
73748,-71.4285714285714,4,1,0,90,0,0
73891,-70.1754385964912,4,1,0,90,0,0
74034,-68.9655172413793,4,1,0,90,0,0
74176,-67.7966101694915,4,1,0,90,0,0
74319,-66.6666666666667,4,1,0,90,0,0
74426,-25,4,1,0,50,0,0
74534,-111.111111111111,4,1,0,50,0,0
76962,-90.9090909090909,4,1,0,90,0,1
90819,-95.2380952380952,4,1,0,90,0,1
95248,-95.2380952380952,4,1,0,90,0,0
95391,-100,4,1,0,90,0,0
103319,-98.5221674876847,4,1,0,90,0,0
103426,-97.0873786407767,4,1,0,90,0,0
103498,-95.6937799043062,4,1,0,90,0,0
103569,-94.3396226415094,4,1,0,90,0,0
103641,-93.0232558139535,4,1,0,90,0,0
103712,-91.743119266055,4,1,0,90,0,0
103784,-90.4977375565611,4,1,0,90,0,0
103855,-89.2857142857143,4,1,0,90,0,0
103926,-88.1057268722467,4,1,0,90,0,0
103998,-86.9565217391304,4,1,0,90,0,0
104069,-85.8369098712446,4,1,0,90,0,0
104141,-84.7457627118644,4,1,0,90,0,0
104212,-83.6820083682008,4,1,0,90,0,0
104319,-83.3333333333333,4,1,0,90,0,0
104391,-83.3333333333333,4,1,0,90,0,1
107748,-86.9565217391304,4,1,0,90,0,1
107891,-90.9090909090909,4,1,0,90,0,1
107998,-93.0232558139535,4,1,0,90,0,1
108069,-95.2380952380952,4,1,0,90,0,1
108141,-97.5609756097561,4,1,0,90,0,1
108212,-100,4,1,0,90,0,1
108319,-105.263157894737,4,1,0,90,0,1
108462,-111.111111111111,4,1,0,90,0,1
108605,-76.9230769230769,4,1,0,90,0,1
108676,-76.9230769230769,4,1,0,90,0,0

[HitObjects]
256,192,820,5,0,0:0:0:0:
256,192,892,1,0,0:0:0:0:
256,192,963,1,8,0:0:0:0:
256,192,1249,1,0,0:0:0:0:
256,192,1320,1,0,0:0:0:0:
256,192,1392,1,8,0:0:0:0:
256,192,1534,1,0,0:0:0:0:
256,192,1676,1,8,0:0:0:0:
256,192,1819,1,8,0:0:0:0:
256,192,1962,1,8,0:0:0:0:
256,192,2105,1,8,0:0:0:0:
256,192,2391,1,0,0:0:0:0:
256,192,2534,1,8,0:0:0:0:
256,192,2676,1,0,0:0:0:0:
256,192,2819,1,8,0:0:0:0:
256,192,2962,1,8,0:0:0:0:
256,192,3105,1,0,0:0:0:0:
256,192,3248,1,8,0:0:0:0:
256,192,3534,1,8,0:0:0:0:
256,192,3676,1,8,0:0:0:0:
256,192,3819,1,0,0:0:0:0:
256,192,3962,1,8,0:0:0:0:
256,192,4105,1,0,0:0:0:0:
256,192,4248,1,8,0:0:0:0:
256,192,4391,1,8,0:0:0:0:
256,192,4676,1,0,0:0:0:0:
256,192,4819,1,8,0:0:0:0:
256,192,4962,1,8,0:0:0:0:
256,192,5105,1,8,0:0:0:0:
256,192,5248,1,0,0:0:0:0:
256,192,5534,1,8,0:0:0:0:
256,192,5676,1,0,0:0:0:0:
256,192,5819,1,8,0:0:0:0:
256,192,5891,1,8,0:0:0:0:
256,192,5962,1,0,0:0:0:0:
256,192,6034,1,0,0:0:0:0:
256,192,6105,1,8,0:0:0:0:
256,192,6248,1,0,0:0:0:0:
256,192,6391,1,8,0:0:0:0:
256,192,6534,1,0,0:0:0:0:
256,192,6676,1,8,0:0:0:0:
256,192,6819,1,8,0:0:0:0:
256,192,6962,1,0,0:0:0:0:
256,192,7248,1,8,0:0:0:0:
256,192,7391,1,8,0:0:0:0:
256,192,7534,1,0,0:0:0:0:
256,192,7676,1,0,0:0:0:0:
256,192,7819,1,8,0:0:0:0:
256,192,8105,1,8,0:0:0:0:
256,192,8248,1,8,0:0:0:0:
256,192,8391,1,0,0:0:0:0:
256,192,8534,1,8,0:0:0:0:
256,192,8676,1,8,0:0:0:0:
256,192,8819,1,0,0:0:0:0:
256,192,8962,1,8,0:0:0:0:
256,192,9248,1,0,0:0:0:0:
256,192,9391,1,8,0:0:0:0:
256,192,9534,1,8,0:0:0:0:
256,192,9819,1,0,0:0:0:0:
256,192,10105,1,8,0:0:0:0:
256,192,10248,1,0,0:0:0:0:
256,192,10391,1,8,0:0:0:0:
256,192,10462,1,8,0:0:0:0:
256,192,10534,1,8,0:0:0:0:
256,192,10605,1,8,0:0:0:0:
256,192,10676,1,4,0:0:0:0:
256,192,10962,1,0,0:0:0:0:
256,192,11105,1,0,0:0:0:0:
256,192,11248,1,8,0:0:0:0:
256,192,11534,1,0,0:0:0:0:
256,192,11676,1,8,0:0:0:0:
256,192,11962,1,8,0:0:0:0:
256,192,12105,1,0,0:0:0:0:
256,192,12391,1,0,0:0:0:0:
256,192,12534,1,8,0:0:0:0:
256,192,12676,1,8,0:0:0:0:
256,192,12819,1,8,0:0:0:0:
256,192,12962,1,0,0:0:0:0:
256,192,13248,1,8,0:0:0:0:
256,192,13534,1,0,0:0:0:0:
256,192,13676,1,0,0:0:0:0:
256,192,13819,1,8,0:0:0:0:
256,192,13962,1,8,0:0:0:0:
256,192,14105,1,0,0:0:0:0:
256,192,14248,1,8,0:0:0:0:
256,192,14319,1,8,0:0:0:0:
256,192,14391,1,8,0:0:0:0:
256,192,14534,1,8,0:0:0:0:
256,192,14605,1,8,0:0:0:0:
256,192,14676,1,8,0:0:0:0:
256,192,14819,1,0,0:0:0:0:
256,192,14962,1,8,0:0:0:0:
256,192,15105,1,8,0:0:0:0:
256,192,15176,1,8,0:0:0:0:
256,192,15248,1,0,0:0:0:0:
256,192,15391,1,8,0:0:0:0:
256,192,15534,1,8,0:0:0:0:
256,192,15676,1,8,0:0:0:0:
256,192,15819,1,8,0:0:0:0:
256,192,16105,1,0,0:0:0:0:
256,192,16248,1,8,0:0:0:0:
256,192,16391,1,8,0:0:0:0:
256,192,16534,1,0,0:0:0:0:
256,192,16676,1,0,0:0:0:0:
256,192,16819,1,8,0:0:0:0:
256,192,16962,1,0,0:0:0:0:
256,192,17105,1,8,0:0:0:0:
256,192,17248,1,8,0:0:0:0:
256,192,17391,1,8,0:0:0:0:
256,192,17534,1,0,0:0:0:0:
256,192,17819,1,0,0:0:0:0:
256,192,17962,1,0,0:0:0:0:
256,192,18105,1,8,0:0:0:0:
256,192,18391,1,8,0:0:0:0:
256,192,18534,1,0,0:0:0:0:
256,192,18605,1,8,0:0:0:0:
256,192,18676,1,0,0:0:0:0:
256,192,18748,1,0,0:0:0:0:
256,192,18819,1,8,0:0:0:0:
256,192,18891,1,0,0:0:0:0:
256,192,18962,1,8,0:0:0:0:
256,192,19034,1,8,0:0:0:0:
256,192,19105,1,0,0:0:0:0:
256,192,19176,1,8,0:0:0:0:
256,192,19248,1,0,0:0:0:0:
256,192,19391,1,0,0:0:0:0:
256,192,19534,1,12,0:0:0:0:
256,192,19819,1,4,0:0:0:0:
256,192,20105,1,0,0:0:0:0:
256,192,20248,1,0,0:0:0:0:
256,192,20391,1,8,0:0:0:0:
256,192,20676,1,0,0:0:0:0:
256,192,20819,1,8,0:0:0:0:
256,192,21105,1,8,0:0:0:0:
256,192,21248,1,0,0:0:0:0:
256,192,21534,1,8,0:0:0:0:
256,192,21676,1,8,0:0:0:0:
256,192,21819,1,8,0:0:0:0:
256,192,21962,1,8,0:0:0:0:
256,192,22105,1,0,0:0:0:0:
256,192,22391,1,8,0:0:0:0:
256,192,22676,1,0,0:0:0:0:
256,192,22819,1,0,0:0:0:0:
256,192,22962,1,8,0:0:0:0:
256,192,23105,1,8,0:0:0:0:
256,192,23248,1,0,0:0:0:0:
256,192,23391,1,8,0:0:0:0:
256,192,23462,1,8,0:0:0:0:
256,192,23534,1,0,0:0:0:0:
256,192,23676,1,8,0:0:0:0:
256,192,23748,1,0,0:0:0:0:
256,192,23819,1,8,0:0:0:0:
256,192,23962,1,0,0:0:0:0:
256,192,24105,1,8,0:0:0:0:
256,192,24248,1,8,0:0:0:0:
256,192,24391,1,0,0:0:0:0:
256,192,24676,1,0,0:0:0:0:
256,192,24819,1,0,0:0:0:0:
256,192,24962,1,8,0:0:0:0:
256,192,25248,1,0,0:0:0:0:
256,192,25391,1,0,0:0:0:0:
256,192,25676,1,8,0:0:0:0:
256,192,25819,1,0,0:0:0:0:
256,192,25962,1,0,0:0:0:0:
256,192,26105,1,8,0:0:0:0:
256,192,26248,1,8,0:0:0:0:
256,192,26391,1,8,0:0:0:0:
256,192,26534,1,8,0:0:0:0:
256,192,26676,1,0,0:0:0:0:
256,192,26962,1,8,0:0:0:0:
256,192,27105,1,0,0:0:0:0:
256,192,27248,1,8,0:0:0:0:
256,192,27534,1,0,0:0:0:0:
256,192,27676,1,8,0:0:0:0:
256,192,27748,1,0,0:0:0:0:
256,192,27819,1,0,0:0:0:0:
256,192,27962,1,8,0:0:0:0:
256,192,28034,1,0,0:0:0:0:
256,192,28105,1,8,0:0:0:0:
256,192,28176,1,8,0:0:0:0:
256,192,28248,1,0,0:0:0:0:
256,192,28319,1,8,0:0:0:0:
256,192,28391,1,0,0:0:0:0:
256,192,28534,1,0,0:0:0:0:
256,192,28676,1,12,0:0:0:0:
256,192,28962,1,4,0:0:0:0:
256,192,29248,1,8,0:0:0:0:
256,192,29391,1,0,0:0:0:0:
256,192,29462,1,0,0:0:0:0:
256,192,29534,1,8,0:0:0:0:
256,192,29676,1,0,0:0:0:0:
256,192,29819,1,8,0:0:0:0:
256,192,29962,1,0,0:0:0:0:
256,192,30034,1,8,0:0:0:0:
256,192,30105,1,0,0:0:0:0:
256,192,30248,1,8,0:0:0:0:
256,192,30391,1,0,0:0:0:0:
256,192,30534,1,8,0:0:0:0:
256,192,30605,1,8,0:0:0:0:
256,192,30676,1,0,0:0:0:0:
256,192,30748,1,0,0:0:0:0:
256,192,30819,1,8,0:0:0:0:
256,192,30891,1,0,0:0:0:0:
256,192,30962,1,8,0:0:0:0:
256,192,31105,1,8,0:0:0:0:
256,192,31248,1,0,0:0:0:0:
256,192,31391,1,0,0:0:0:0:
256,192,31534,1,8,0:0:0:0:
256,192,31676,1,0,0:0:0:0:
256,192,31748,1,0,0:0:0:0:
256,192,31819,1,8,0:0:0:0:
256,192,31962,1,0,0:0:0:0:
256,192,32105,1,8,0:0:0:0:
256,192,32248,1,0,0:0:0:0:
256,192,32319,1,8,0:0:0:0:
256,192,32391,1,0,0:0:0:0:
256,192,32534,1,8,0:0:0:0:
256,192,32605,1,8,0:0:0:0:
256,192,32676,1,0,0:0:0:0:
256,192,32819,1,8,0:0:0:0:
256,192,32891,1,0,0:0:0:0:
256,192,32962,1,8,0:0:0:0:
256,192,33105,1,0,0:0:0:0:
256,192,33248,1,8,0:0:0:0:
256,192,33319,1,8,0:0:0:0:
256,192,33391,1,0,0:0:0:0:
256,192,33462,1,8,0:0:0:0:
256,192,33534,1,0,0:0:0:0:
256,192,33819,1,8,0:0:0:0:
256,192,33962,1,0,0:0:0:0:
256,192,34034,1,0,0:0:0:0:
256,192,34105,1,8,0:0:0:0:
256,192,34248,1,0,0:0:0:0:
256,192,34391,1,8,0:0:0:0:
256,192,34534,1,0,0:0:0:0:
256,192,34605,1,8,0:0:0:0:
256,192,34676,1,0,0:0:0:0:
256,192,34819,1,8,0:0:0:0:
256,192,34962,1,0,0:0:0:0:
256,192,35105,1,8,0:0:0:0:
256,192,35176,1,8,0:0:0:0:
256,192,35248,1,0,0:0:0:0:
256,192,35319,1,0,0:0:0:0:
256,192,35391,1,8,0:0:0:0:
256,192,35534,1,0,0:0:0:0:
256,192,35605,1,8,0:0:0:0:
256,192,35676,1,8,0:0:0:0:
256,192,35748,1,8,0:0:0:0:
256,192,35819,1,0,0:0:0:0:
256,192,35962,1,0,0:0:0:0:
256,192,36105,1,8,0:0:0:0:
256,192,36248,1,0,0:0:0:0:
256,192,36319,1,0,0:0:0:0:
256,192,36391,1,8,0:0:0:0:
256,192,36534,1,0,0:0:0:0:
256,192,36676,1,8,0:0:0:0:
256,192,36819,1,0,0:0:0:0:
256,192,36891,1,8,0:0:0:0:
256,192,36962,1,0,0:0:0:0:
256,192,37034,1,0,0:0:0:0:
256,192,37105,1,8,0:0:0:0:
256,192,37248,1,0,0:0:0:0:
256,192,37391,1,8,0:0:0:0:
256,192,37462,1,0,0:0:0:0:
256,192,37534,1,8,0:0:0:0:
256,192,37676,1,0,0:0:0:0:
256,192,37748,1,0,0:0:0:0:
256,192,37819,1,8,0:0:0:0:
256,192,37891,1,8,0:0:0:0:
256,192,37962,1,8,0:0:0:0:
256,192,38034,1,8,0:0:0:0:
256,192,38105,1,4,0:0:0:0:
256,192,38391,1,8,0:0:0:0:
256,192,38534,1,0,0:0:0:0:
256,192,38605,1,0,0:0:0:0:
256,192,38676,1,8,0:0:0:0:
256,192,38819,1,0,0:0:0:0:
256,192,38962,1,8,0:0:0:0:
256,192,39105,1,0,0:0:0:0:
256,192,39176,1,0,0:0:0:0:
256,192,39248,1,0,0:0:0:0:
256,192,39391,1,0,0:0:0:0:
256,192,39534,1,8,0:0:0:0:
256,192,39676,1,0,0:0:0:0:
256,192,39748,1,8,0:0:0:0:
256,192,39819,1,0,0:0:0:0:
256,192,39962,1,0,0:0:0:0:
256,192,40105,1,8,0:0:0:0:
256,192,40248,1,8,0:0:0:0:
256,192,40391,1,0,0:0:0:0:
256,192,40534,1,0,0:0:0:0:
256,192,40605,1,0,0:0:0:0:
256,192,40676,1,8,0:0:0:0:
256,192,40819,1,0,0:0:0:0:
256,192,40891,1,0,0:0:0:0:
256,192,40962,1,0,0:0:0:0:
256,192,41105,1,8,0:0:0:0:
256,192,41248,1,0,0:0:0:0:
256,192,41391,1,8,0:0:0:0:
256,192,41462,1,8,0:0:0:0:
256,192,41534,1,0,0:0:0:0:
256,192,41676,1,0,0:0:0:0:
256,192,41819,1,8,0:0:0:0:
256,192,41962,1,0,0:0:0:0:
256,192,42034,1,8,0:0:0:0:
256,192,42105,1,0,0:0:0:0:
256,192,42248,1,0,0:0:0:0:
256,192,42391,1,8,0:0:0:0:
256,192,42676,1,4,0:0:0:0:
256,192,42819,1,8,0:0:0:0:
256,192,42891,1,8,0:0:0:0:
256,192,42962,1,0,0:0:0:0:
256,192,43034,1,8,0:0:0:0:
256,192,43105,1,0,0:0:0:0:
256,192,43176,1,0,0:0:0:0:
256,192,43248,1,8,0:0:0:0:
256,192,43319,1,8,0:0:0:0:
256,192,43391,1,0,0:0:0:0:
256,192,43534,1,8,0:0:0:0:
256,192,43605,1,8,0:0:0:0:
256,192,43676,1,0,0:0:0:0:
256,192,43748,1,8,0:0:0:0:
256,192,43819,1,0,0:0:0:0:
256,192,43962,1,8,0:0:0:0:
256,192,44034,1,0,0:0:0:0:
256,192,44105,1,8,0:0:0:0:
256,192,44176,1,8,0:0:0:0:
256,192,44248,1,0,0:0:0:0:
256,192,44391,1,8,0:0:0:0:
256,192,44534,1,0,0:0:0:0:
256,192,44676,1,8,0:0:0:0:
256,192,44962,1,0,0:0:0:0:
256,192,45105,1,8,0:0:0:0:
256,192,45176,1,8,0:0:0:0:
256,192,45248,1,0,0:0:0:0:
256,192,45319,1,8,0:0:0:0:
256,192,45391,1,0,0:0:0:0:
256,192,45462,1,0,0:0:0:0:
256,192,45534,1,8,0:0:0:0:
256,192,45605,5,8,0:0:0:0:
256,192,45676,1,0,0:0:0:0:
256,192,45819,1,8,0:0:0:0:
256,192,45891,1,8,0:0:0:0:
256,192,45962,1,0,0:0:0:0:
256,192,46034,1,0,0:0:0:0:
256,192,46105,1,8,0:0:0:0:
256,192,46248,1,0,0:0:0:0:
256,192,46391,1,8,0:0:0:0:
256,192,46534,1,0,0:0:0:0:
256,192,46605,1,8,0:0:0:0:
256,192,46676,1,8,0:0:0:0:
256,192,46748,1,0,0:0:0:0:
256,192,46819,1,0,0:0:0:0:
256,192,46962,1,8,0:0:0:0:
256,192,47034,1,8,0:0:0:0:
256,192,47105,1,8,0:0:0:0:
256,192,47248,1,4,0:0:0:0:
256,192,47534,1,8,0:0:0:0:
256,192,47676,1,0,0:0:0:0:
256,192,47748,1,0,0:0:0:0:
256,192,47819,1,8,0:0:0:0:
256,192,47962,1,0,0:0:0:0:
256,192,48105,1,8,0:0:0:0:
256,192,48248,1,0,0:0:0:0:
256,192,48319,1,0,0:0:0:0:
256,192,48391,1,0,0:0:0:0:
256,192,48534,1,0,0:0:0:0:
256,192,48676,1,8,0:0:0:0:
256,192,48819,1,8,0:0:0:0:
256,192,48891,1,0,0:0:0:0:
256,192,48962,1,8,0:0:0:0:
256,192,49105,1,0,0:0:0:0:
256,192,49248,1,8,0:0:0:0:
256,192,49391,1,8,0:0:0:0:
256,192,49534,1,0,0:0:0:0:
256,192,49676,1,0,0:0:0:0:
256,192,49748,1,0,0:0:0:0:
256,192,49819,1,8,0:0:0:0:
256,192,49962,1,0,0:0:0:0:
256,192,50034,1,8,0:0:0:0:
256,192,50105,1,0,0:0:0:0:
256,192,50248,1,8,0:0:0:0:
256,192,50391,1,0,0:0:0:0:
256,192,50534,1,8,0:0:0:0:
256,192,50605,1,8,0:0:0:0:
256,192,50676,1,0,0:0:0:0:
256,192,50819,1,0,0:0:0:0:
256,192,50962,1,8,0:0:0:0:
256,192,51034,1,0,0:0:0:0:
256,192,51105,1,8,0:0:0:0:
256,192,51176,1,8,0:0:0:0:
256,192,51248,1,0,0:0:0:0:
256,192,51391,1,0,0:0:0:0:
256,192,51534,1,8,0:0:0:0:
256,192,51819,1,4,0:0:0:0:
256,192,51962,1,8,0:0:0:0:
256,192,52034,1,8,0:0:0:0:
256,192,52105,1,8,0:0:0:0:
256,192,52176,1,8,0:0:0:0:
256,192,52248,1,0,0:0:0:0:
256,192,52319,1,0,0:0:0:0:
256,192,52391,1,8,0:0:0:0:
256,192,52462,1,8,0:0:0:0:
256,192,52534,1,0,0:0:0:0:
256,192,52676,1,8,0:0:0:0:
256,192,52748,1,8,0:0:0:0:
256,192,52819,1,8,0:0:0:0:
256,192,52891,1,8,0:0:0:0:
256,192,52962,1,0,0:0:0:0:
256,192,53105,1,8,0:0:0:0:
256,192,53176,1,0,0:0:0:0:
256,192,53248,1,8,0:0:0:0:
256,192,53319,1,8,0:0:0:0:
256,192,53391,1,0,0:0:0:0:
256,192,53462,1,0,0:0:0:0:
256,192,53534,1,8,0:0:0:0:
256,192,53676,1,0,0:0:0:0:
256,192,53819,1,8,0:0:0:0:
256,192,54105,1,0,0:0:0:0:
256,192,54248,1,8,0:0:0:0:
256,192,54319,1,8,0:0:0:0:
256,192,54391,1,8,0:0:0:0:
256,192,54462,1,8,0:0:0:0:
256,192,54534,1,0,0:0:0:0:
256,192,54605,1,0,0:0:0:0:
256,192,54676,1,8,0:0:0:0:
256,192,54748,1,8,0:0:0:0:
256,192,54819,1,0,0:0:0:0:
256,192,54962,1,8,0:0:0:0:
256,192,55034,1,8,0:0:0:0:
256,192,55105,1,0,0:0:0:0:
256,192,55176,1,0,0:0:0:0:
256,192,55248,1,8,0:0:0:0:
256,192,55391,1,0,0:0:0:0:
256,192,55462,1,8,0:0:0:0:
256,192,55534,1,0,0:0:0:0:
256,192,55605,1,0,0:0:0:0:
256,192,55676,1,0,0:0:0:0:
256,192,55819,1,8,0:0:0:0:
256,192,55962,1,8,0:0:0:0:
256,192,56105,1,0,0:0:0:0:
256,192,56391,1,4,0:0:0:0:
256,192,56676,1,8,0:0:0:0:
256,192,56819,1,0,0:0:0:0:
256,192,56962,1,8,0:0:0:0:
256,192,57105,1,8,0:0:0:0:
256,192,57248,1,0,0:0:0:0:
256,192,57391,1,8,0:0:0:0:
256,192,57534,1,0,0:0:0:0:
256,192,57676,1,0,0:0:0:0:
256,192,57819,1,8,0:0:0:0:
256,192,57962,1,8,0:0:0:0:
256,192,58105,1,0,0:0:0:0:
256,160,58391,1,8,0:0:0:0:
256,192,58534,1,0,0:0:0:0:
256,192,58676,1,0,0:0:0:0:
256,192,58962,1,8,0:0:0:0:
256,192,59105,1,0,0:0:0:0:
256,192,59248,1,8,0:0:0:0:
256,192,59391,1,8,0:0:0:0:
256,192,59534,1,0,0:0:0:0:
256,192,59676,1,0,0:0:0:0:
256,192,59819,1,8,0:0:0:0:
256,192,59962,1,0,0:0:0:0:
256,192,60034,1,0,0:0:0:0:
256,192,60105,1,8,0:0:0:0:
256,192,60248,1,0,0:0:0:0:
256,192,60319,1,0,0:0:0:0:
256,192,60391,1,8,0:0:0:0:
256,192,60534,1,0,0:0:0:0:
256,192,60676,1,8,0:0:0:0:
256,192,60962,1,4,0:0:0:0:
256,192,61248,1,8,0:0:0:0:
256,192,61391,1,0,0:0:0:0:
256,192,61534,1,8,0:0:0:0:
256,192,61676,1,8,0:0:0:0:
256,192,61819,1,0,0:0:0:0:
256,192,61962,1,8,0:0:0:0:
256,192,62105,1,0,0:0:0:0:
256,192,62248,1,0,0:0:0:0:
256,192,62391,1,8,0:0:0:0:
256,192,62534,1,8,0:0:0:0:
256,192,62676,1,0,0:0:0:0:
256,192,62819,1,8,0:0:0:0:
256,192,63105,1,8,0:0:0:0:
256,192,63248,1,0,0:0:0:0:
256,192,63534,1,8,0:0:0:0:
256,192,63676,1,0,0:0:0:0:
256,192,63819,1,8,0:0:0:0:
256,192,63962,1,8,0:0:0:0:
256,192,64105,1,0,0:0:0:0:
256,192,64248,1,0,0:0:0:0:
256,192,64391,1,8,0:0:0:0:
256,192,64534,1,0,0:0:0:0:
256,192,64605,1,8,0:0:0:0:
256,192,64676,1,0,0:0:0:0:
256,192,64819,1,8,0:0:0:0:
256,192,64891,1,0,0:0:0:0:
256,192,64962,1,8,0:0:0:0:
256,192,65105,1,0,0:0:0:0:
256,192,65248,1,8,0:0:0:0:
256,192,65534,1,4,0:0:0:0:
256,192,65819,1,8,0:0:0:0:
256,192,65962,1,4,0:0:0:0:
256,192,66248,1,0,0:0:0:0:
256,192,66391,1,12,0:0:0:0:
256,192,66676,1,0,0:0:0:0:
256,192,66819,1,0,0:0:0:0:
256,192,66962,1,8,0:0:0:0:
256,192,67105,1,0,0:0:0:0:
256,192,67248,1,0,0:0:0:0:
256,192,67391,1,0,0:0:0:0:
256,192,67534,1,8,0:0:0:0:
256,192,67819,1,4,0:0:0:0:
256,192,68105,1,8,0:0:0:0:
256,192,68248,1,4,0:0:0:0:
256,192,68534,1,0,0:0:0:0:
256,192,68676,1,12,0:0:0:0:
256,192,68962,1,0,0:0:0:0:
256,192,69105,1,0,0:0:0:0:
256,192,69248,1,8,0:0:0:0:
256,192,69391,1,8,0:0:0:0:
256,192,69534,1,0,0:0:0:0:
256,192,69676,1,0,0:0:0:0:
256,192,69819,1,8,0:0:0:0:
256,192,70105,1,12,0:0:0:0:
256,192,70248,1,0,0:0:0:0:
256,192,70391,1,8,0:0:0:0:
256,192,70534,1,4,0:0:0:0:
256,192,70676,1,8,0:0:0:0:
256,192,70819,1,0,0:0:0:0:
256,192,70962,1,12,0:0:0:0:
256,192,71105,1,0,0:0:0:0:
256,192,71248,1,8,0:0:0:0:
256,192,71391,1,4,0:0:0:0:
256,192,71534,1,8,0:0:0:0:
256,192,71676,1,0,0:0:0:0:
256,192,71819,1,12,0:0:0:0:
256,192,71962,1,0,0:0:0:0:
256,192,72105,1,8,0:0:0:0:
256,192,72248,1,4,0:0:0:0:
256,192,72391,1,8,0:0:0:0:
256,192,72534,1,0,0:0:0:0:
256,192,72676,1,12,0:0:0:0:
256,192,72819,1,0,0:0:0:0:
256,192,72962,1,8,0:0:0:0:
256,192,73105,1,4,0:0:0:0:
256,192,73248,1,8,0:0:0:0:
256,192,73391,1,0,0:0:0:0:
256,192,73534,1,12,0:0:0:0:
256,192,73676,1,0,0:0:0:0:
256,192,73819,1,8,0:0:0:0:
256,192,73962,1,4,0:0:0:0:
256,192,74105,1,8,0:0:0:0:
256,192,74248,1,0,0:0:0:0:
256,192,74391,1,12,0:0:0:0:
256,192,74462,12,12,76248,0:0:0:0:
256,192,76391,5,0,0:0:0:0:
256,192,76462,1,0,0:0:0:0:
256,192,76534,1,0,0:0:0:0:
256,192,76605,1,0,0:0:0:0:
256,192,76676,1,8,0:0:0:0:
256,192,76962,5,4,0:0:0:0:
256,192,77105,1,0,0:0:0:0:
256,192,77176,1,0,0:0:0:0:
256,192,77248,1,8,0:0:0:0:
256,192,77391,1,0,0:0:0:0:
256,192,77462,1,0,0:0:0:0:
256,192,77534,1,8,0:0:0:0:
256,192,77605,1,0,0:0:0:0:
256,192,77676,1,8,0:0:0:0:
256,192,77748,1,8,0:0:0:0:
256,192,77819,1,0,0:0:0:0:
256,192,77891,1,0,0:0:0:0:
256,192,77962,1,8,0:0:0:0:
256,192,78105,1,0,0:0:0:0:
256,192,78248,1,8,0:0:0:0:
256,192,78319,1,8,0:0:0:0:
256,192,78391,1,0,0:0:0:0:
256,192,78462,1,0,0:0:0:0:
256,192,78534,1,8,0:0:0:0:
256,192,78605,1,0,0:0:0:0:
256,192,78676,1,8,0:0:0:0:
256,192,78748,1,8,0:0:0:0:
256,192,78819,1,0,0:0:0:0:
256,192,78962,1,8,0:0:0:0:
256,192,79105,1,8,0:0:0:0:
256,192,79248,1,0,0:0:0:0:
256,192,79391,1,8,0:0:0:0:
256,192,79462,1,8,0:0:0:0:
256,192,79534,1,8,0:0:0:0:
256,192,79676,1,0,0:0:0:0:
256,192,79819,1,8,0:0:0:0:
256,192,79891,1,0,0:0:0:0:
256,192,79962,1,8,0:0:0:0:
256,192,80105,1,0,0:0:0:0:
256,192,80248,1,8,0:0:0:0:
256,192,80319,1,8,0:0:0:0:
256,192,80391,1,8,0:0:0:0:
256,192,80534,1,0,0:0:0:0:
256,192,80605,1,8,0:0:0:0:
256,192,80676,1,0,0:0:0:0:
256,192,80748,1,0,0:0:0:0:
256,192,80819,1,8,0:0:0:0:
256,192,80891,1,0,0:0:0:0:
256,192,80962,1,8,0:0:0:0:
256,192,81034,1,8,0:0:0:0:
256,192,81105,1,0,0:0:0:0:
256,192,81176,1,8,0:0:0:0:
256,192,81248,1,0,0:0:0:0:
256,192,81391,1,8,0:0:0:0:
256,192,81534,1,4,0:0:0:0:
256,192,81676,1,0,0:0:0:0:
256,192,81748,1,0,0:0:0:0:
256,192,81819,1,8,0:0:0:0:
256,192,81962,1,0,0:0:0:0:
256,192,82034,1,0,0:0:0:0:
256,192,82105,1,8,0:0:0:0:
256,192,82176,1,0,0:0:0:0:
256,192,82248,1,8,0:0:0:0:
256,192,82319,1,8,0:0:0:0:
256,192,82391,1,0,0:0:0:0:
256,192,82462,1,0,0:0:0:0:
256,192,82534,1,8,0:0:0:0:
256,192,82676,1,0,0:0:0:0:
256,192,82819,1,8,0:0:0:0:
256,192,82891,1,8,0:0:0:0:
256,192,82962,1,0,0:0:0:0:
256,192,83034,1,0,0:0:0:0:
256,192,83105,1,8,0:0:0:0:
256,192,83176,1,0,0:0:0:0:
256,192,83248,1,8,0:0:0:0:
256,192,83319,1,8,0:0:0:0:
256,192,83391,1,0,0:0:0:0:
256,192,83534,1,0,0:0:0:0:
256,192,83676,1,8,0:0:0:0:
256,192,83819,1,0,0:0:0:0:
256,192,83962,1,8,0:0:0:0:
256,192,84034,1,8,0:0:0:0:
256,192,84105,1,8,0:0:0:0:
256,192,84248,1,0,0:0:0:0:
256,192,84391,1,8,0:0:0:0:
256,192,84462,1,0,0:0:0:0:
256,192,84534,1,8,0:0:0:0:
256,192,84676,1,0,0:0:0:0:
256,192,84819,1,8,0:0:0:0:
256,192,84891,1,8,0:0:0:0:
256,192,84962,1,0,0:0:0:0:
256,192,85105,1,0,0:0:0:0:
256,192,85248,1,8,0:0:0:0:
256,192,85319,1,0,0:0:0:0:
256,192,85391,1,8,0:0:0:0:
256,192,85462,1,8,0:0:0:0:
256,192,85534,1,0,0:0:0:0:
256,192,85676,1,8,0:0:0:0:
256,192,85748,1,8,0:0:0:0:
256,192,85819,1,8,0:0:0:0:
256,192,85891,1,8,0:0:0:0:
256,192,85962,1,0,0:0:0:0:
256,192,86105,1,4,0:0:0:0:
256,192,86248,1,0,0:0:0:0:
256,192,86319,1,0,0:0:0:0:
256,192,86391,1,8,0:0:0:0:
256,192,86534,1,0,0:0:0:0:
256,192,86605,1,0,0:0:0:0:
256,192,86676,1,8,0:0:0:0:
256,192,86748,1,0,0:0:0:0:
256,192,86819,1,8,0:0:0:0:
256,192,86891,1,8,0:0:0:0:
256,192,86962,1,0,0:0:0:0:
256,192,87034,1,0,0:0:0:0:
256,192,87105,1,8,0:0:0:0:
256,192,87248,1,0,0:0:0:0:
256,192,87391,1,8,0:0:0:0:
256,192,87462,1,8,0:0:0:0:
256,192,87534,1,0,0:0:0:0:
256,192,87605,1,0,0:0:0:0:
256,192,87676,1,8,0:0:0:0:
256,192,87748,1,0,0:0:0:0:
256,192,87819,1,8,0:0:0:0:
256,192,87891,1,8,0:0:0:0:
256,192,87962,1,0,0:0:0:0:
256,192,88105,1,8,0:0:0:0:
256,192,88248,1,8,0:0:0:0:
256,192,88391,1,0,0:0:0:0:
256,192,88534,1,8,0:0:0:0:
256,192,88605,1,8,0:0:0:0:
256,192,88676,1,8,0:0:0:0:
256,192,88819,1,0,0:0:0:0:
256,192,88962,1,8,0:0:0:0:
256,192,89034,1,0,0:0:0:0:
256,192,89105,1,8,0:0:0:0:
288,192,89248,1,0,0:0:0:0:
256,192,89391,1,8,0:0:0:0:
256,192,89462,1,8,0:0:0:0:
256,192,89534,1,8,0:0:0:0:
256,192,89676,1,0,0:0:0:0:
256,192,89748,1,8,0:0:0:0:
256,192,89819,1,0,0:0:0:0:
256,192,89891,1,0,0:0:0:0:
256,192,89962,1,8,0:0:0:0:
256,192,90034,1,0,0:0:0:0:
256,192,90105,1,8,0:0:0:0:
256,192,90176,1,8,0:0:0:0:
256,192,90248,1,0,0:0:0:0:
256,192,90319,1,8,0:0:0:0:
256,192,90391,1,0,0:0:0:0:
256,192,90534,1,8,0:0:0:0:
256,192,90676,1,4,0:0:0:0:
256,192,90891,1,0,0:0:0:0:
256,192,90962,1,8,0:0:0:0:
256,192,91105,1,0,0:0:0:0:
256,192,91176,1,0,0:0:0:0:
256,192,91248,1,8,0:0:0:0:
256,192,91319,1,0,0:0:0:0:
256,192,91391,1,8,0:0:0:0:
256,192,91462,1,8,0:0:0:0:
256,192,91534,1,0,0:0:0:0:
256,192,91676,1,8,0:0:0:0:
256,192,91819,1,4,0:0:0:0:
256,192,91962,1,8,0:0:0:0:
256,192,92034,1,8,0:0:0:0:
256,192,92105,1,0,0:0:0:0:
256,192,92248,1,8,0:0:0:0:
256,192,92319,1,0,0:0:0:0:
256,192,92391,1,8,0:0:0:0:
256,192,92462,1,8,0:0:0:0:
256,192,92534,1,0,0:0:0:0:
256,192,92605,1,8,0:0:0:0:
256,192,92676,1,0,0:0:0:0:
256,192,92819,1,0,0:0:0:0:
256,192,92962,1,12,0:0:0:0:
256,192,93176,1,0,0:0:0:0:
256,192,93248,1,8,0:0:0:0:
256,192,93391,1,0,0:0:0:0:
256,192,93462,1,0,0:0:0:0:
256,192,93534,1,8,0:0:0:0:
256,192,93676,1,0,0:0:0:0:
256,192,93748,1,0,0:0:0:0:
256,192,93819,1,0,0:0:0:0:
256,192,93962,1,0,0:0:0:0:
256,192,94105,1,12,0:0:0:0:
256,192,94248,1,0,0:0:0:0:
256,192,94319,1,0,0:0:0:0:
256,192,94391,1,8,0:0:0:0:
256,192,94462,1,8,0:0:0:0:
256,192,94534,1,8,0:0:0:0:
256,192,94605,1,8,0:0:0:0:
256,192,94676,1,0,0:0:0:0:
256,192,94819,1,0,0:0:0:0:
256,192,94962,1,8,0:0:0:0:
256,192,95105,1,8,0:0:0:0:
256,192,95248,5,4,0:0:0:0:
256,192,95534,1,8,0:0:0:0:
256,192,95676,1,0,0:0:0:0:
256,192,95748,1,0,0:0:0:0:
256,192,95819,1,8,0:0:0:0:
256,192,95962,1,0,0:0:0:0:
256,192,96105,1,8,0:0:0:0:
256,192,96248,1,8,0:0:0:0:
256,192,96391,1,0,0:0:0:0:
256,192,96534,1,8,0:0:0:0:
256,192,96605,1,0,0:0:0:0:
256,192,96676,1,8,0:0:0:0:
256,192,96819,1,0,0:0:0:0:
256,192,96962,1,8,0:0:0:0:
256,192,97105,1,0,0:0:0:0:
256,192,97176,1,8,0:0:0:0:
256,192,97248,1,8,0:0:0:0:
256,192,97319,1,0,0:0:0:0:
256,192,97391,1,0,0:0:0:0:
256,192,97534,1,8,0:0:0:0:
256,192,97605,1,8,0:0:0:0:
256,192,97676,1,0,0:0:0:0:
256,192,97748,1,0,0:0:0:0:
256,192,97819,1,8,0:0:0:0:
256,192,97962,1,0,0:0:0:0:
256,192,98105,1,8,0:0:0:0:
256,192,98248,1,0,0:0:0:0:
256,192,98319,1,0,0:0:0:0:
256,192,98391,1,8,0:0:0:0:
256,192,98462,1,8,0:0:0:0:
256,192,98534,1,0,0:0:0:0:
256,192,98676,1,8,0:0:0:0:
256,192,98819,1,0,0:0:0:0:
256,192,98891,1,8,0:0:0:0:
256,192,98962,1,0,0:0:0:0:
256,192,99105,1,8,0:0:0:0:
256,192,99176,1,0,0:0:0:0:
256,192,99248,1,8,0:0:0:0:
256,192,99319,1,8,0:0:0:0:
256,192,99391,1,0,0:0:0:0:
256,192,99462,1,0,0:0:0:0:
256,192,99534,1,8,0:0:0:0:
256,192,99676,1,8,0:0:0:0:
256,192,99819,1,4,0:0:0:0:
256,192,100105,1,8,0:0:0:0:
256,192,100248,1,0,0:0:0:0:
256,192,100319,1,8,0:0:0:0:
256,192,100391,1,8,0:0:0:0:
256,192,100462,1,8,0:0:0:0:
256,192,100534,1,0,0:0:0:0:
256,192,100605,1,0,0:0:0:0:
256,192,100676,1,8,0:0:0:0:
256,192,100819,1,0,0:0:0:0:
256,192,100891,1,8,0:0:0:0:
256,192,100962,1,0,0:0:0:0:
256,192,101034,1,0,0:0:0:0:
256,192,101105,1,8,0:0:0:0:
256,192,101176,1,8,0:0:0:0:
256,192,101248,1,0,0:0:0:0:
256,192,101391,1,8,0:0:0:0:
256,192,101534,1,0,0:0:0:0:
256,192,101676,1,8,0:0:0:0:
256,192,101748,1,8,0:0:0:0:
256,192,101819,1,0,0:0:0:0:
256,192,101891,1,0,0:0:0:0:
256,192,101962,1,0,0:0:0:0:
256,192,102034,1,0,0:0:0:0:
256,192,102105,1,8,0:0:0:0:
256,192,102248,1,0,0:0:0:0:
256,192,102319,1,0,0:0:0:0:
256,192,102391,1,0,0:0:0:0:
256,192,102534,1,0,0:0:0:0:
256,192,102676,1,8,0:0:0:0:
256,192,102819,1,8,0:0:0:0:
256,192,102891,1,8,0:0:0:0:
256,192,102962,1,0,0:0:0:0:
256,192,103105,1,0,0:0:0:0:
256,192,103248,1,8,0:0:0:0:
256,192,103391,1,0,0:0:0:0:
256,192,103462,1,8,0:0:0:0:
256,192,103534,1,0,0:0:0:0:
256,192,103605,1,0,0:0:0:0:
256,192,103676,1,8,0:0:0:0:
256,192,103748,1,0,0:0:0:0:
256,192,103819,1,8,0:0:0:0:
256,192,103891,1,8,0:0:0:0:
256,192,103962,1,0,0:0:0:0:
256,192,104034,1,0,0:0:0:0:
256,192,104105,1,8,0:0:0:0:
256,192,104176,1,0,0:0:0:0:
256,192,104248,1,8,0:0:0:0:
256,192,104391,1,4,0:0:0:0:
256,192,104534,1,4,0:0:0:0:
256,192,104676,1,8,0:0:0:0:
256,192,104819,1,4,0:0:0:0:
256,192,104962,1,4,0:0:0:0:
256,192,105105,1,8,0:0:0:0:
256,192,105248,1,4,0:0:0:0:
256,192,105391,1,4,0:0:0:0:
256,192,105534,1,8,0:0:0:0:
256,192,105676,1,4,0:0:0:0:
256,192,105819,1,4,0:0:0:0:
256,192,105962,1,0,0:0:0:0:
256,192,106105,1,12,0:0:0:0:
256,192,106248,1,12,0:0:0:0:
256,192,106391,1,0,0:0:0:0:
256,192,106534,1,12,0:0:0:0:
256,192,106676,1,12,0:0:0:0:
256,192,106819,1,0,0:0:0:0:
256,192,106962,1,12,0:0:0:0:
256,192,107105,1,12,0:0:0:0:
256,192,107248,1,0,0:0:0:0:
256,192,107391,1,12,0:0:0:0:
256,192,107534,1,12,0:0:0:0:
256,192,107676,1,0,0:0:0:0:
256,192,107819,1,8,0:0:0:0:
256,192,107962,1,0,0:0:0:0:
256,192,108034,1,0,0:0:0:0:
256,192,108105,1,8,0:0:0:0:
256,192,108176,1,8,0:0:0:0:
256,192,108248,1,0,0:0:0:0:
256,192,108391,1,8,0:0:0:0:
256,192,108534,1,8,0:0:0:0:
256,192,108676,1,4,0:0:0:0:
