osu file format v14

[General]
AudioFilename: audio.mp3
AudioLeadIn: 0
PreviewTime: 76882
Countdown: 0
SampleSet: Normal
StackLeniency: 0.7
Mode: 1
LetterboxInBreaks: 0
WidescreenStoryboard: 1

[Editor]
DistanceSpacing: 1
BeatDivisor: 4
GridSize: 32
TimelineZoom: 3.799999

[Metadata]
Title:chaos eater -IIDX edition-
TitleUnicode:chaos eater -IIDX edition-
Artist:Nekomata Master+
ArtistUnicode:猫叉Master+
Creator:Skull Kid
Version:Futsuu
Source:beatmania IIDX 23 copula
Tags:skid Capu Genjuro eae HiroK DanceDanceRevolution DDR 2014 GITADORA NEX+AGE NEXTAGE 佐藤直之 Naoyuki Sato hard step instrumental Electronic video game
BeatmapID:3086250
BeatmapSetID:1489580

[Difficulty]
HPDrainRate:7
CircleSize:4
OverallDifficulty:4
ApproachRate:9
SliderMultiplier:1.4
SliderTickRate:1

[Events]
//Background and Video events
0,0,"bg.jpg",0,60
//Break Periods
//Storyboard Layer 0 (Background)
//Storyboard Layer 1 (Fail)
//Storyboard Layer 2 (Pass)
//Storyboard Layer 3 (Foreground)
//Storyboard Layer 4 (Overlay)
//Storyboard Sound Samples

[TimingPoints]
392,285.714285714286,4,1,0,90,1,8
392,-111.111111111111,4,1,0,90,0,0
1534,285.714285714286,4,1,0,90,1,0
1534,-111.111111111111,4,1,0,90,0,0
74462,-111.111111111111,4,1,0,5,0,0
76819,-111.111111111111,4,1,0,90,0,0
76962,-111.111111111111,4,1,0,90,0,1
90676,-111.111111111111,4,1,0,90,0,0
108748,-111.111111111111,4,1,0,5,0,0

[HitObjects]
256,192,1534,5,4,0:0:0:0:
256,192,1819,1,0,0:0:0:0:
256,192,2105,1,8,0:0:0:0:
256,192,2534,1,8,0:0:0:0:
256,192,2676,1,0,0:0:0:0:
256,192,2962,1,0,0:0:0:0:
256,192,3248,1,8,0:0:0:0:
256,192,3676,1,0,0:0:0:0:
256,192,3819,1,0,0:0:0:0:
256,192,4105,1,0,0:0:0:0:
256,192,4391,1,8,0:0:0:0:
256,192,4819,1,8,0:0:0:0:
256,192,4962,1,0,0:0:0:0:
256,192,5248,1,0,0:0:0:0:
256,192,5534,1,8,0:0:0:0:
256,192,6105,1,4,0:0:0:0:
256,192,6391,1,0,0:0:0:0:
256,192,6676,1,8,0:0:0:0:
256,192,7105,1,8,0:0:0:0:
256,192,7248,1,0,0:0:0:0:
256,192,7534,1,0,0:0:0:0:
256,192,7819,1,8,0:0:0:0:
256,192,8248,1,0,0:0:0:0:
256,192,8391,1,0,0:0:0:0:
256,192,8676,1,0,0:0:0:0:
256,192,8962,1,8,0:0:0:0:
256,192,9391,1,8,0:0:0:0:
256,192,9534,1,0,0:0:0:0:
256,192,9819,1,0,0:0:0:0:
256,192,10105,1,8,0:0:0:0:
256,192,10391,1,8,0:0:0:0:
256,192,10676,1,4,0:0:0:0:
256,192,11248,1,8,0:0:0:0:
256,192,11534,1,0,0:0:0:0:
256,192,11676,1,8,0:0:0:0:
256,192,11962,1,0,0:0:0:0:
256,192,12105,1,0,0:0:0:0:
256,192,12391,1,0,0:0:0:0:
256,192,12534,1,8,0:0:0:0:
256,192,12676,1,8,0:0:0:0:
256,192,12962,1,0,0:0:0:0:
256,192,13248,1,0,0:0:0:0:
256,192,13534,1,8,0:0:0:0:
256,192,13962,1,8,0:0:0:0:
256,192,14105,1,0,0:0:0:0:
256,192,14391,1,8,0:0:0:0:
256,192,14676,1,8,0:0:0:0:
256,192,14962,1,8,0:0:0:0:
256,192,15248,1,4,0:0:0:0:
256,192,15819,1,8,0:0:0:0:
256,192,16105,1,0,0:0:0:0:
256,192,16248,1,8,0:0:0:0:
256,192,16534,1,0,0:0:0:0:
256,192,16676,1,0,0:0:0:0:
256,192,16962,1,8,0:0:0:0:
256,192,17248,1,0,0:0:0:0:
256,192,17391,1,8,0:0:0:0:
256,192,17534,1,0,0:0:0:0:
256,192,17819,1,0,0:0:0:0:
256,192,18105,1,8,0:0:0:0:
256,192,18534,1,8,0:0:0:0:
256,192,18676,1,0,0:0:0:0:
256,192,18962,1,0,0:0:0:0:
256,192,19248,1,8,0:0:0:0:
256,192,19534,1,8,0:0:0:0:
256,192,19819,1,4,0:0:0:0:
256,192,20391,1,8,0:0:0:0:
256,192,20676,1,0,0:0:0:0:
256,192,20819,1,8,0:0:0:0:
256,192,21248,1,0,0:0:0:0:
256,192,21534,1,0,0:0:0:0:
256,192,21676,1,8,0:0:0:0:
256,192,21819,1,8,0:0:0:0:
256,192,22105,1,0,0:0:0:0:
256,192,22391,1,0,0:0:0:0:
256,192,22676,1,8,0:0:0:0:
256,192,23105,1,8,0:0:0:0:
256,192,23248,1,0,0:0:0:0:
256,192,23534,1,8,0:0:0:0:
256,192,23819,1,8,0:0:0:0:
256,192,24105,1,8,0:0:0:0:
256,192,24391,1,4,0:0:0:0:
256,192,24962,1,8,0:0:0:0:
256,192,25248,1,0,0:0:0:0:
256,192,25391,1,8,0:0:0:0:
256,192,25676,1,0,0:0:0:0:
256,192,25819,1,0,0:0:0:0:
256,192,26105,1,8,0:0:0:0:
256,192,26391,1,0,0:0:0:0:
256,192,26534,1,8,0:0:0:0:
256,192,26676,1,0,0:0:0:0:
256,192,26962,1,0,0:0:0:0:
256,192,27248,1,8,0:0:0:0:
256,192,27819,1,0,0:0:0:0:
256,192,28676,1,8,0:0:0:0:
256,192,28962,1,4,0:0:0:0:
256,192,29248,1,8,0:0:0:0:
256,192,29534,1,8,0:0:0:0:
256,192,29819,1,0,0:0:0:0:
256,192,29962,1,8,0:0:0:0:
256,192,30391,1,8,0:0:0:0:
256,192,30676,1,0,0:0:0:0:
256,192,30819,1,0,0:0:0:0:
256,192,30962,1,8,0:0:0:0:
256,192,31248,1,0,0:0:0:0:
256,192,31534,1,8,0:0:0:0:
256,192,31819,1,0,0:0:0:0:
256,192,32105,1,0,0:0:0:0:
256,192,32248,1,8,0:0:0:0:
256,192,32676,1,8,0:0:0:0:
256,192,32962,1,0,0:0:0:0:
256,192,33534,1,4,0:0:0:0:
256,192,33819,1,8,0:0:0:0:
256,192,34105,1,8,0:0:0:0:
256,192,34391,1,0,0:0:0:0:
256,192,34534,1,8,0:0:0:0:
256,192,34962,1,8,0:0:0:0:
256,192,35248,1,0,0:0:0:0:
256,192,35391,1,0,0:0:0:0:
256,192,35534,1,8,0:0:0:0:
256,192,35819,1,0,0:0:0:0:
256,192,36105,1,0,0:0:0:0:
256,192,36391,1,8,0:0:0:0:
256,192,36676,1,0,0:0:0:0:
256,192,36819,1,8,0:0:0:0:
256,192,37248,1,8,0:0:0:0:
256,192,37534,1,0,0:0:0:0:
256,192,38105,1,4,0:0:0:0:
256,192,38391,1,8,0:0:0:0:
256,192,38676,1,8,0:0:0:0:
256,192,38962,1,8,0:0:0:0:
256,192,39105,1,0,0:0:0:0:
256,192,39391,1,0,0:0:0:0:
256,192,39534,1,8,0:0:0:0:
256,192,39819,1,0,0:0:0:0:
256,192,39962,1,0,0:0:0:0:
256,192,40105,1,8,0:0:0:0:
256,192,40391,1,0,0:0:0:0:
256,192,40962,1,8,0:0:0:0:
256,192,41248,1,0,0:0:0:0:
256,192,41391,1,8,0:0:0:0:
256,192,41676,1,8,0:0:0:0:
256,192,41819,1,0,0:0:0:0:
256,192,42105,1,8,0:0:0:0:
256,192,42676,1,4,0:0:0:0:
256,192,42962,1,8,0:0:0:0:
256,192,43105,1,8,0:0:0:0:
256,192,43248,1,8,0:0:0:0:
256,192,43534,1,8,0:0:0:0:
256,192,43676,1,8,0:0:0:0:
256,192,44105,1,8,0:0:0:0:
256,192,44391,1,8,0:0:0:0:
256,192,44962,1,0,0:0:0:0:
256,192,45248,1,8,0:0:0:0:
256,192,45391,1,8,0:0:0:0:
256,192,45534,1,8,0:0:0:0:
256,192,45819,1,8,0:0:0:0:
256,192,46105,1,8,0:0:0:0:
256,192,46248,1,8,0:0:0:0:
256,192,46391,1,8,0:0:0:0:
256,192,46676,1,8,0:0:0:0:
256,192,47248,1,4,0:0:0:0:
256,192,47534,1,8,0:0:0:0:
256,192,47819,1,8,0:0:0:0:
256,192,48105,1,8,0:0:0:0:
256,192,48248,1,0,0:0:0:0:
256,192,48534,1,0,0:0:0:0:
256,192,48676,1,8,0:0:0:0:
256,192,48962,1,0,0:0:0:0:
256,192,49105,1,0,0:0:0:0:
256,192,49248,1,8,0:0:0:0:
256,192,49534,1,0,0:0:0:0:
256,192,50105,1,8,0:0:0:0:
256,192,50391,1,0,0:0:0:0:
256,192,50534,1,8,0:0:0:0:
256,192,50819,1,8,0:0:0:0:
256,192,50962,1,0,0:0:0:0:
256,192,51248,1,8,0:0:0:0:
256,192,51819,1,4,0:0:0:0:
256,192,52105,1,8,0:0:0:0:
256,192,52248,1,8,0:0:0:0:
256,192,52391,1,8,0:0:0:0:
256,192,52676,1,8,0:0:0:0:
256,192,52819,1,8,0:0:0:0:
256,192,53248,1,8,0:0:0:0:
256,192,53534,1,8,0:0:0:0:
256,192,54105,1,0,0:0:0:0:
256,192,54391,1,8,0:0:0:0:
256,192,54534,1,8,0:0:0:0:
256,192,54676,1,8,0:0:0:0:
256,192,54962,1,8,0:0:0:0:
256,192,55248,1,8,0:0:0:0:
256,192,55391,1,8,0:0:0:0:
256,192,55534,1,8,0:0:0:0:
256,192,55819,1,8,0:0:0:0:
256,192,56391,1,4,0:0:0:0:
256,192,56819,1,0,0:0:0:0:
256,192,56962,1,8,0:0:0:0:
256,192,57248,1,0,0:0:0:0:
256,192,57534,1,0,0:0:0:0:
256,192,57676,1,0,0:0:0:0:
256,192,57819,1,8,0:0:0:0:
256,192,58105,1,0,0:0:0:0:
256,192,58676,1,0,0:0:0:0:
256,192,59105,1,0,0:0:0:0:
256,192,59248,1,8,0:0:0:0:
256,192,59534,1,0,0:0:0:0:
256,192,59819,1,8,0:0:0:0:
256,192,59962,1,8,0:0:0:0:
256,192,60105,1,8,0:0:0:0:
256,192,60391,1,8,0:0:0:0:
256,192,60676,1,8,0:0:0:0:
256,192,60962,1,4,0:0:0:0:
256,192,61391,1,0,0:0:0:0:
256,192,61534,1,8,0:0:0:0:
256,192,61819,1,0,0:0:0:0:
256,192,62105,1,0,0:0:0:0:
256,192,62248,1,0,0:0:0:0:
256,192,62391,1,8,0:0:0:0:
256,192,62676,1,0,0:0:0:0:
256,192,63248,1,0,0:0:0:0:
256,192,63676,1,0,0:0:0:0:
256,192,63819,1,8,0:0:0:0:
256,192,64105,1,0,0:0:0:0:
256,192,64391,1,8,0:0:0:0:
256,192,64534,1,8,0:0:0:0:
256,192,64676,1,8,0:0:0:0:
256,192,64962,1,8,0:0:0:0:
256,192,65248,1,8,0:0:0:0:
256,192,65534,1,4,0:0:0:0:
256,192,65819,1,8,0:0:0:0:
256,192,65962,1,4,0:0:0:0:
256,192,66391,1,12,0:0:0:0:
256,192,67248,1,0,0:0:0:0:
256,192,67391,1,0,0:0:0:0:
256,192,67534,1,8,0:0:0:0:
256,192,67819,1,4,0:0:0:0:
256,192,68105,1,8,0:0:0:0:
256,192,68248,1,4,0:0:0:0:
256,192,68676,1,12,0:0:0:0:
256,192,69534,1,0,0:0:0:0:
256,192,69676,1,0,0:0:0:0:
256,192,69819,1,8,0:0:0:0:
256,192,70105,1,12,0:0:0:0:
256,192,70534,1,4,0:0:0:0:
256,192,70819,1,0,0:0:0:0:
256,192,70962,1,12,0:0:0:0:
256,192,71391,1,4,0:0:0:0:
256,192,71676,1,0,0:0:0:0:
256,192,71819,1,12,0:0:0:0:
256,192,72248,1,4,0:0:0:0:
256,192,72534,1,0,0:0:0:0:
256,192,72676,1,12,0:0:0:0:
256,192,73105,1,4,0:0:0:0:
256,192,73391,1,0,0:0:0:0:
256,192,73534,1,12,0:0:0:0:
256,192,73962,1,4,0:0:0:0:
256,192,74248,1,0,0:0:0:0:
256,192,74391,1,12,0:0:0:0:
256,192,74534,12,0,76676,0:0:0:0:
256,192,76962,5,4,0:0:0:0:
256,192,77248,1,8,0:0:0:0:
256,192,77534,1,8,0:0:0:0:
256,192,77819,1,8,0:0:0:0:
256,192,77962,1,0,0:0:0:0:
256,192,78248,1,8,0:0:0:0:
256,192,78391,1,8,0:0:0:0:
256,192,78534,1,0,0:0:0:0:
256,192,78676,1,8,0:0:0:0:
256,192,78962,1,8,0:0:0:0:
256,192,79105,1,0,0:0:0:0:
256,192,79534,1,8,0:0:0:0:
256,192,79819,1,0,0:0:0:0:
256,192,79962,1,8,0:0:0:0:
256,192,80248,1,8,0:0:0:0:
256,192,80391,1,0,0:0:0:0:
256,192,80676,1,0,0:0:0:0:
256,192,80962,1,8,0:0:0:0:
256,192,81534,1,4,0:0:0:0:
256,192,81819,1,8,0:0:0:0:
256,192,82105,1,8,0:0:0:0:
256,192,82391,1,8,0:0:0:0:
256,192,82534,1,0,0:0:0:0:
256,192,82819,1,8,0:0:0:0:
256,192,82962,1,8,0:0:0:0:
256,192,83105,1,0,0:0:0:0:
256,192,83248,1,8,0:0:0:0:
256,192,83534,1,8,0:0:0:0:
256,192,83676,1,0,0:0:0:0:
256,192,84105,1,8,0:0:0:0:
256,192,84391,1,0,0:0:0:0:
256,192,84534,1,8,0:0:0:0:
256,192,84819,1,8,0:0:0:0:
256,192,84962,1,0,0:0:0:0:
256,192,85248,1,8,0:0:0:0:
256,192,85676,1,8,0:0:0:0:
256,192,86105,1,4,0:0:0:0:
256,192,86391,1,8,0:0:0:0:
256,192,86676,1,8,0:0:0:0:
256,192,86962,1,8,0:0:0:0:
256,192,87105,1,0,0:0:0:0:
256,192,87391,1,8,0:0:0:0:
256,192,87534,1,8,0:0:0:0:
256,192,87676,1,0,0:0:0:0:
256,192,87819,1,8,0:0:0:0:
256,192,88105,1,8,0:0:0:0:
256,192,88248,1,0,0:0:0:0:
256,192,88676,1,8,0:0:0:0:
256,192,88962,1,0,0:0:0:0:
256,192,89105,1,8,0:0:0:0:
256,192,89391,1,8,0:0:0:0:
256,192,89534,1,0,0:0:0:0:
256,192,89819,1,0,0:0:0:0:
256,192,90105,1,8,0:0:0:0:
256,192,90676,1,4,0:0:0:0:
256,192,90962,1,0,0:0:0:0:
256,192,91248,1,8,0:0:0:0:
256,192,91676,1,8,0:0:0:0:
256,192,91819,1,4,0:0:0:0:
256,192,92105,1,0,0:0:0:0:
256,192,92391,1,8,0:0:0:0:
256,192,92962,1,4,0:0:0:0:
256,192,93248,1,0,0:0:0:0:
256,192,93534,1,8,0:0:0:0:
256,192,93962,1,8,0:0:0:0:
256,192,94105,1,4,0:0:0:0:
256,192,94391,1,0,0:0:0:0:
256,192,94676,1,8,0:0:0:0:
256,192,94962,1,8,0:0:0:0:
256,192,95248,1,4,0:0:0:0:
256,192,95819,1,8,0:0:0:0:
256,192,96248,1,0,0:0:0:0:
256,192,96391,1,0,0:0:0:0:
256,192,96534,1,8,0:0:0:0:
256,192,96676,1,0,0:0:0:0:
256,192,96962,1,8,0:0:0:0:
256,192,97248,1,0,0:0:0:0:
256,192,97391,1,0,0:0:0:0:
256,192,97534,1,8,0:0:0:0:
256,192,97819,1,0,0:0:0:0:
256,192,98105,1,8,0:0:0:0:
256,192,98248,1,8,0:0:0:0:
256,192,98391,1,8,0:0:0:0:
256,192,98676,1,0,0:0:0:0:
256,192,99248,1,0,0:0:0:0:
256,192,99534,1,8,0:0:0:0:
256,192,99819,1,4,0:0:0:0:
256,192,100248,1,0,0:0:0:0:
256,192,100391,1,8,0:0:0:0:
256,192,100676,1,0,0:0:0:0:
256,192,100962,1,8,0:0:0:0:
256,192,101105,1,8,0:0:0:0:
256,192,101248,1,0,0:0:0:0:
256,192,101534,1,8,0:0:0:0:
256,192,101819,1,0,0:0:0:0:
256,192,102105,1,8,0:0:0:0:
256,192,102391,1,0,0:0:0:0:
256,192,102534,1,0,0:0:0:0:
256,192,102676,1,8,0:0:0:0:
256,192,102962,1,0,0:0:0:0:
256,192,103248,1,8,0:0:0:0:
256,192,103534,1,0,0:0:0:0:
256,192,103676,1,0,0:0:0:0:
256,192,103819,1,8,0:0:0:0:
256,192,104105,1,0,0:0:0:0:
256,192,104391,1,12,0:0:0:0:
256,192,104819,1,4,0:0:0:0:
256,192,105105,1,0,0:0:0:0:
256,192,105248,1,12,0:0:0:0:
256,192,105676,1,4,0:0:0:0:
256,192,105962,1,0,0:0:0:0:
256,192,106105,1,12,0:0:0:0:
256,192,106534,1,4,0:0:0:0:
256,192,106819,1,0,0:0:0:0:
256,192,106962,1,12,0:0:0:0:
256,192,107391,1,4,0:0:0:0:
256,192,107676,1,0,0:0:0:0:
256,192,107819,1,12,0:0:0:0:
256,192,108105,1,12,0:0:0:0:
256,192,108391,1,8,0:0:0:0:
256,192,108534,1,8,0:0:0:0:
256,192,108676,1,4,0:0:0:0:
256,192,108819,12,0,111819,0:0:0:0:
