osu file format v14

[General]
AudioFilename: audio.mp3
AudioLeadIn: 0
PreviewTime: 76882
Countdown: 0
SampleSet: Normal
StackLeniency: 0.7
Mode: 1
LetterboxInBreaks: 0
WidescreenStoryboard: 1

[Editor]
DistanceSpacing: 1
BeatDivisor: 4
GridSize: 32
TimelineZoom: 3.799999

[Metadata]
Title:chaos eater -IIDX edition-
TitleUnicode:chaos eater -IIDX edition-
Artist:Nekomata Master+
ArtistUnicode:猫叉Master+
Creator:Skull Kid
Version:Capu's Muzukashii
Source:beatmania IIDX 23 copula
Tags:skid Capu Genjuro eae HiroK DanceDanceRevolution DDR 2014 GITADORA NEX+AGE NEXTAGE 佐藤直之 Naoyuki Sato hard step instrumental Electronic video game
BeatmapID:3082569
BeatmapSetID:1489580

[Difficulty]
HPDrainRate:6
CircleSize:2
OverallDifficulty:5
ApproachRate:10
SliderMultiplier:1.4
SliderTickRate:1

[Events]
//Background and Video events
0,0,"bg.jpg",0,60
//Break Periods
//Storyboard Layer 0 (Background)
//Storyboard Layer 1 (Fail)
//Storyboard Layer 2 (Pass)
//Storyboard Layer 3 (Foreground)
//Storyboard Layer 4 (Overlay)
//Storyboard Sound Samples

[TimingPoints]
392,285.714285714286,4,1,0,90,1,8
392,-125,4,1,0,90,0,0
1534,285.714285714286,4,1,0,90,1,0
1534,-125,4,1,0,90,0,0
10676,-117.647058823529,4,1,0,90,0,0
19819,-111.111111111111,4,1,0,90,0,0
28962,-100,4,1,0,90,0,0
56391,-111.111111111111,4,1,0,90,0,0
70105,-111.111111111111,4,1,0,90,0,0
70248,-109.891800533195,4,1,0,90,0,0
70391,-108.698960403143,4,1,0,90,0,0
70534,-107.531737992468,4,1,0,90,0,0
70819,-105.27080387944,4,1,0,90,0,0
70962,-104.175673521773,4,1,0,90,0,0
71105,-103.103093814536,4,1,0,90,0,0
71248,-102.052375320062,4,1,0,90,0,0
71534,-100.013901932369,4,1,0,90,0,0
71676,-99.0249017920537,4,1,0,90,0,0
71819,-98.0551736851292,4,1,0,90,0,0
71962,-97.1043483327183,4,1,0,90,0,0
72105,-96.1717858908296,4,1,0,90,0,0
72391,-94.3593847013242,4,1,0,90,0,0
72534,-93.4785616266765,4,1,0,90,0,0
72819,-91.7653450009911,4,1,0,90,0,0
72962,-90.9319892372898,4,1,0,90,0,0
73248,-89.310035322119,4,1,0,90,0,0
73391,-88.5205646549778,4,1,0,90,0,0
73676,-86.9827678438624,4,1,0,90,0,0
73819,-86.2337330841753,4,1,0,90,0,0
73962,-85.4974154131321,4,1,0,90,0,0
74105,-84.7736374333255,4,1,0,90,0,0
74248,-84.0620108641743,4,1,0,90,0,0
74391,-83.36223224051,4,1,0,90,0,0
74462,-90.9090909090909,4,1,0,5,0,0
75676,-100,4,1,0,5,0,0
76319,-111.111111111111,4,1,0,25,0,0
76653,-111.111111111111,4,1,0,100,0,0
76819,-100,4,1,0,90,0,0
76962,-100,4,1,0,90,0,1
90676,-100,4,1,0,90,0,0
108748,-100,4,1,0,5,0,0

[HitObjects]
256,192,820,5,0,0:0:0:0:
256,192,963,1,8,0:0:0:0:
256,192,1392,1,8,0:0:0:0:
256,192,1534,1,0,0:0:0:0:
256,192,1819,1,0,0:0:0:0:
256,192,1962,1,0,0:0:0:0:
256,192,2105,1,8,0:0:0:0:
256,192,2534,1,8,0:0:0:0:
256,192,2676,1,0,0:0:0:0:
256,192,2819,1,8,0:0:0:0:
256,192,2962,1,0,0:0:0:0:
256,192,3248,1,8,0:0:0:0:
256,192,3676,1,0,0:0:0:0:
256,192,3819,1,0,0:0:0:0:
256,192,4391,1,8,0:0:0:0:
256,192,4676,1,0,0:0:0:0:
256,192,4819,1,8,0:0:0:0:
256,192,5105,1,0,0:0:0:0:
256,192,5248,1,0,0:0:0:0:
256,192,5534,1,8,0:0:0:0:
256,192,5819,1,8,0:0:0:0:
256,192,5891,1,8,0:0:0:0:
256,192,5962,1,8,0:0:0:0:
256,192,6105,1,0,0:0:0:0:
256,192,6676,1,8,0:0:0:0:
256,192,6962,1,0,0:0:0:0:
256,192,7105,1,8,0:0:0:0:
256,192,7248,1,0,0:0:0:0:
256,192,7391,1,0,0:0:0:0:
256,192,7534,1,0,0:0:0:0:
256,192,7819,1,8,0:0:0:0:
256,192,8248,1,0,0:0:0:0:
256,192,8391,1,0,0:0:0:0:
256,192,8962,1,8,0:0:0:0:
256,192,9248,1,0,0:0:0:0:
256,192,9391,1,8,0:0:0:0:
256,192,9534,1,0,0:0:0:0:
256,192,9819,1,0,0:0:0:0:
256,192,10105,1,8,0:0:0:0:
256,192,10248,1,0,0:0:0:0:
256,192,10391,1,8,0:0:0:0:
256,192,10462,1,8,0:0:0:0:
256,192,10534,1,8,0:0:0:0:
256,192,10676,1,4,0:0:0:0:
256,192,11248,1,8,0:0:0:0:
256,192,11534,1,0,0:0:0:0:
256,192,11676,1,8,0:0:0:0:
256,192,11819,1,8,0:0:0:0:
256,192,12105,1,0,0:0:0:0:
256,192,12391,1,8,0:0:0:0:
256,192,12534,1,0,0:0:0:0:
256,192,12676,1,0,0:0:0:0:
256,192,12819,1,0,0:0:0:0:
256,192,12962,1,8,0:0:0:0:
256,192,13248,1,0,0:0:0:0:
256,192,13534,1,8,0:0:0:0:
256,192,13676,1,8,0:0:0:0:
256,192,13819,1,0,0:0:0:0:
256,192,14105,1,8,0:0:0:0:
256,192,14248,1,8,0:0:0:0:
256,192,14319,1,8,0:0:0:0:
256,192,14391,1,8,0:0:0:0:
256,192,14676,1,0,0:0:0:0:
256,192,14819,1,0,0:0:0:0:
256,192,14962,1,8,0:0:0:0:
256,192,15248,1,4,0:0:0:0:
256,192,15819,1,8,0:0:0:0:
256,192,16105,1,0,0:0:0:0:
256,192,16248,1,8,0:0:0:0:
256,192,16391,1,0,0:0:0:0:
256,192,16534,1,0,0:0:0:0:
256,192,16676,1,8,0:0:0:0:
256,192,16962,1,8,0:0:0:0:
256,192,17105,1,0,0:0:0:0:
256,192,17248,1,0,0:0:0:0:
256,192,17391,1,8,0:0:0:0:
256,192,17534,1,8,0:0:0:0:
256,192,17819,1,0,0:0:0:0:
256,192,18105,1,8,0:0:0:0:
256,192,18391,1,0,0:0:0:0:
256,192,18534,1,0,0:0:0:0:
256,192,18676,1,8,0:0:0:0:
256,192,18748,1,8,0:0:0:0:
256,192,18819,1,8,0:0:0:0:
256,192,18962,1,8,0:0:0:0:
256,192,19248,1,0,0:0:0:0:
256,192,19391,1,0,0:0:0:0:
256,192,19534,1,8,0:0:0:0:
256,192,19819,1,4,0:0:0:0:
256,192,20391,1,8,0:0:0:0:
256,192,20676,1,0,0:0:0:0:
256,192,20819,1,8,0:0:0:0:
256,192,21105,1,8,0:0:0:0:
256,192,21248,1,0,0:0:0:0:
256,192,21391,1,0,0:0:0:0:
256,192,21534,1,8,0:0:0:0:
256,192,21819,1,0,0:0:0:0:
256,192,22105,1,8,0:0:0:0:
256,192,22391,1,0,0:0:0:0:
256,192,22676,1,8,0:0:0:0:
256,192,22819,1,8,0:0:0:0:
256,192,22962,1,0,0:0:0:0:
256,192,23248,1,8,0:0:0:0:
256,192,23391,1,8,0:0:0:0:
256,192,23462,1,8,0:0:0:0:
256,192,23534,1,8,0:0:0:0:
256,192,23676,1,0,0:0:0:0:
256,192,23819,1,8,0:0:0:0:
256,192,24105,1,8,0:0:0:0:
256,192,24248,1,8,0:0:0:0:
256,192,24391,1,0,0:0:0:0:
256,192,24962,1,8,0:0:0:0:
256,192,25248,1,0,0:0:0:0:
256,192,25391,1,8,0:0:0:0:
256,192,25534,1,8,0:0:0:0:
256,192,25676,1,0,0:0:0:0:
256,192,25819,1,8,0:0:0:0:
256,192,26105,1,8,0:0:0:0:
256,192,26248,1,0,0:0:0:0:
256,192,26391,1,8,0:0:0:0:
256,192,26534,1,8,0:0:0:0:
256,192,26676,1,0,0:0:0:0:
256,192,26962,1,8,0:0:0:0:
256,192,27248,1,8,0:0:0:0:
256,192,27534,1,0,0:0:0:0:
256,192,27676,1,0,0:0:0:0:
256,192,27819,1,8,0:0:0:0:
256,192,27962,1,8,0:0:0:0:
256,192,28105,1,0,0:0:0:0:
256,192,28176,1,0,0:0:0:0:
256,192,28248,1,0,0:0:0:0:
256,192,28391,1,8,0:0:0:0:
256,192,28534,1,0,0:0:0:0:
256,192,28676,1,8,0:0:0:0:
256,192,28962,1,4,0:0:0:0:
256,192,29248,1,8,0:0:0:0:
256,192,29819,1,8,0:0:0:0:
256,192,29962,1,0,0:0:0:0:
256,192,30248,1,0,0:0:0:0:
256,192,30391,1,8,0:0:0:0:
256,192,30534,1,8,0:0:0:0:
256,192,30676,1,0,0:0:0:0:
256,192,30748,1,0,0:0:0:0:
256,192,30819,1,0,0:0:0:0:
256,192,30962,1,8,0:0:0:0:
256,192,31248,1,0,0:0:0:0:
256,192,31534,1,8,0:0:0:0:
256,192,32105,1,0,0:0:0:0:
256,192,32248,1,8,0:0:0:0:
256,192,32319,1,8,0:0:0:0:
256,192,32534,1,8,0:0:0:0:
256,192,32605,1,8,0:0:0:0:
256,192,32819,1,0,0:0:0:0:
256,192,32891,1,0,0:0:0:0:
256,192,32962,1,0,0:0:0:0:
256,192,33105,1,8,0:0:0:0:
256,192,33248,1,0,0:0:0:0:
256,192,33391,1,0,0:0:0:0:
256,192,33534,1,12,0:0:0:0:
256,192,33819,1,8,0:0:0:0:
256,192,34391,1,0,0:0:0:0:
256,192,34534,1,8,0:0:0:0:
256,192,34819,1,8,0:0:0:0:
256,192,35105,1,0,0:0:0:0:
256,192,35248,1,8,0:0:0:0:
256,192,35391,1,0,0:0:0:0:
256,192,35534,1,8,0:0:0:0:
256,192,35605,1,8,0:0:0:0:
256,192,35676,1,8,0:0:0:0:
256,192,35819,1,8,0:0:0:0:
256,192,36105,1,0,0:0:0:0:
256,192,36391,1,8,0:0:0:0:
256,192,36676,1,8,0:0:0:0:
256,192,36819,1,0,0:0:0:0:
256,192,37105,1,0,0:0:0:0:
256,192,37391,1,0,0:0:0:0:
256,192,37534,1,8,0:0:0:0:
256,192,37605,1,8,0:0:0:0:
256,192,37676,1,8,0:0:0:0:
256,192,37819,1,0,0:0:0:0:
256,192,37962,1,0,0:0:0:0:
256,192,38105,1,12,0:0:0:0:
256,192,38391,1,0,0:0:0:0:
256,192,38676,1,8,0:0:0:0:
256,192,38962,1,8,0:0:0:0:
256,192,39105,1,0,0:0:0:0:
256,192,39391,1,0,0:0:0:0:
256,192,39676,1,0,0:0:0:0:
256,192,39819,1,8,0:0:0:0:
256,192,39962,1,8,0:0:0:0:
256,192,40105,1,0,0:0:0:0:
256,192,40248,1,8,0:0:0:0:
256,192,40534,1,8,0:0:0:0:
256,192,40676,1,8,0:0:0:0:
256,192,40819,1,0,0:0:0:0:
256,192,40962,1,0,0:0:0:0:
256,192,41248,1,8,0:0:0:0:
256,192,41391,1,0,0:0:0:0:
256,192,41819,1,8,0:0:0:0:
256,192,42105,1,0,0:0:0:0:
256,192,42248,1,8,0:0:0:0:
256,192,42391,1,0,0:0:0:0:
256,192,42676,1,12,0:0:0:0:
256,192,42962,1,0,0:0:0:0:
256,192,43105,1,8,0:0:0:0:
256,192,43176,1,8,0:0:0:0:
256,192,43248,1,8,0:0:0:0:
256,192,43391,1,0,0:0:0:0:
256,192,43534,1,8,0:0:0:0:
256,192,43676,1,8,0:0:0:0:
256,192,43819,1,0,0:0:0:0:
256,192,43962,1,8,0:0:0:0:
256,192,44105,1,8,0:0:0:0:
256,192,44391,1,0,0:0:0:0:
256,192,44534,1,8,0:0:0:0:
256,192,44676,1,0,0:0:0:0:
256,192,45105,1,0,0:0:0:0:
256,192,45248,1,8,0:0:0:0:
256,192,45391,1,8,0:0:0:0:
256,192,45534,1,0,0:0:0:0:
256,192,45819,1,8,0:0:0:0:
256,192,45962,1,0,0:0:0:0:
256,192,46105,1,8,0:0:0:0:
256,192,46248,1,0,0:0:0:0:
256,192,46391,1,8,0:0:0:0:
256,192,46534,1,8,0:0:0:0:
256,192,46819,1,0,0:0:0:0:
256,192,46962,1,8,0:0:0:0:
256,192,47248,1,4,0:0:0:0:
256,192,47534,1,8,0:0:0:0:
256,192,47676,1,0,0:0:0:0:
256,192,47819,1,8,0:0:0:0:
256,192,48105,1,0,0:0:0:0:
256,192,48248,1,8,0:0:0:0:
256,192,48534,1,8,0:0:0:0:
256,192,48676,1,8,0:0:0:0:
256,192,48962,1,8,0:0:0:0:
256,192,49248,1,0,0:0:0:0:
256,192,49391,1,8,0:0:0:0:
256,192,49676,1,8,0:0:0:0:
256,192,49819,1,0,0:0:0:0:
256,192,50105,1,8,0:0:0:0:
256,192,50248,1,8,0:0:0:0:
256,192,50391,1,0,0:0:0:0:
256,192,50534,1,8,0:0:0:0:
256,192,50962,1,8,0:0:0:0:
256,192,51105,1,0,0:0:0:0:
256,192,51248,1,8,0:0:0:0:
256,192,51391,1,8,0:0:0:0:
256,192,51534,1,0,0:0:0:0:
256,192,51819,1,12,0:0:0:0:
256,192,52105,1,8,0:0:0:0:
256,192,52248,1,8,0:0:0:0:
256,192,52391,1,0,0:0:0:0:
256,192,52534,1,8,0:0:0:0:
256,192,52676,1,0,0:0:0:0:
256,192,52819,1,8,0:0:0:0:
256,192,53105,1,8,0:0:0:0:
256,192,53534,1,8,0:0:0:0:
256,192,53676,1,0,0:0:0:0:
256,192,53819,1,8,0:0:0:0:
256,192,54105,1,0,0:0:0:0:
256,192,54391,1,8,0:0:0:0:
256,192,54534,1,0,0:0:0:0:
256,192,54676,1,8,0:0:0:0:
256,192,54962,1,8,0:0:0:0:
256,192,55105,1,8,0:0:0:0:
256,192,55248,1,0,0:0:0:0:
256,192,55391,1,8,0:0:0:0:
256,192,55534,1,0,0:0:0:0:
256,192,55676,1,8,0:0:0:0:
256,192,55748,1,8,0:0:0:0:
256,192,55819,1,8,0:0:0:0:
256,192,55962,1,0,0:0:0:0:
256,192,56105,1,8,0:0:0:0:
256,192,56391,1,4,0:0:0:0:
256,192,56962,1,8,0:0:0:0:
256,192,57819,1,0,0:0:0:0:
256,192,58105,1,8,0:0:0:0:
256,192,58676,1,0,0:0:0:0:
256,192,59248,1,8,0:0:0:0:
256,192,60105,1,0,0:0:0:0:
256,192,60391,1,8,0:0:0:0:
256,192,60534,1,0,0:0:0:0:
256,192,60962,1,4,0:0:0:0:
256,192,61534,1,8,0:0:0:0:
256,192,62391,1,0,0:0:0:0:
256,192,62676,1,8,0:0:0:0:
256,192,62819,1,0,0:0:0:0:
256,192,63248,1,0,0:0:0:0:
256,192,63819,1,8,0:0:0:0:
256,192,64676,1,0,0:0:0:0:
256,192,64962,1,8,0:0:0:0:
256,192,65105,1,0,0:0:0:0:
256,192,65534,1,4,0:0:0:0:
256,192,65962,1,0,0:0:0:0:
256,192,66391,1,12,0:0:0:0:
256,192,66676,1,8,0:0:0:0:
256,192,66819,1,8,0:0:0:0:
256,192,66962,1,0,0:0:0:0:
256,192,67105,1,0,0:0:0:0:
256,192,67248,1,8,0:0:0:0:
256,192,67391,1,0,0:0:0:0:
256,192,67534,1,0,0:0:0:0:
256,192,67819,1,12,0:0:0:0:
256,192,68248,1,8,0:0:0:0:
256,192,68676,1,12,0:0:0:0:
256,192,68962,1,8,0:0:0:0:
256,192,69105,1,0,0:0:0:0:
256,192,69248,1,8,0:0:0:0:
256,192,69391,1,8,0:0:0:0:
256,192,69534,1,8,0:0:0:0:
256,192,69676,1,0,0:0:0:0:
256,192,69819,1,8,0:0:0:0:
256,192,70105,5,8,0:0:0:0:
256,192,70248,1,8,0:0:0:0:
256,192,70391,1,0,0:0:0:0:
256,192,70534,1,8,0:0:0:0:
256,192,70819,1,8,0:0:0:0:
256,192,70962,1,0,0:0:0:0:
256,192,71105,1,8,0:0:0:0:
256,192,71248,1,8,0:0:0:0:
256,192,71534,1,0,0:0:0:0:
256,192,71676,1,0,0:0:0:0:
256,192,71819,1,8,0:0:0:0:
256,192,71962,1,0,0:0:0:0:
256,192,72105,1,8,0:0:0:0:
256,192,72391,1,0,0:0:0:0:
256,192,72534,1,8,0:0:0:0:
256,192,72819,1,8,0:0:0:0:
256,192,72962,1,0,0:0:0:0:
256,192,73248,1,8,0:0:0:0:
256,192,73391,1,8,0:0:0:0:
256,192,73676,1,8,0:0:0:0:
256,192,73819,1,0,0:0:0:0:
256,192,73962,1,0,0:0:0:0:
256,192,74105,1,8,0:0:0:0:
256,192,74248,1,8,0:0:0:0:
256,192,74391,1,4,0:0:0:0:
256,192,76391,1,0,0:0:0:0:
256,192,76462,1,0,0:0:0:0:
256,192,76534,1,0,0:0:0:0:
256,192,76605,1,0,0:0:0:0:
256,192,76676,1,0,0:0:0:0:
256,192,76962,1,12,0:0:0:0:
256,192,77248,1,8,0:0:0:0:
256,192,77534,1,8,0:0:0:0:
256,192,77676,1,0,0:0:0:0:
256,192,77748,1,0,0:0:0:0:
256,192,77819,1,0,0:0:0:0:
256,192,77962,1,8,0:0:0:0:
256,192,78248,1,8,0:0:0:0:
256,192,78391,1,0,0:0:0:0:
256,192,78534,1,8,0:0:0:0:
256,192,78676,1,8,0:0:0:0:
256,192,78962,1,8,0:0:0:0:
256,192,79105,1,0,0:0:0:0:
256,192,79534,1,8,0:0:0:0:
256,192,79819,1,8,0:0:0:0:
256,192,79962,1,0,0:0:0:0:
256,192,80248,1,0,0:0:0:0:
256,192,80391,1,8,0:0:0:0:
256,192,80534,1,0,0:0:0:0:
256,192,80676,1,0,0:0:0:0:
256,192,80819,1,8,0:0:0:0:
256,192,80962,1,8,0:0:0:0:
256,192,81105,1,0,0:0:0:0:
256,192,81248,1,8,0:0:0:0:
256,192,81391,1,0,0:0:0:0:
256,192,81534,1,12,0:0:0:0:
256,192,81819,1,8,0:0:0:0:
256,192,82105,1,8,0:0:0:0:
256,192,82248,1,8,0:0:0:0:
256,192,82319,1,8,0:0:0:0:
256,192,82391,1,8,0:0:0:0:
256,192,82534,1,0,0:0:0:0:
256,192,82819,1,8,0:0:0:0:
256,192,82962,1,0,0:0:0:0:
256,192,83105,1,0,0:0:0:0:
256,192,83248,1,8,0:0:0:0:
256,192,83534,1,8,0:0:0:0:
256,192,83676,1,0,0:0:0:0:
256,192,84105,1,8,0:0:0:0:
256,192,84391,1,0,0:0:0:0:
256,192,84534,1,0,0:0:0:0:
256,192,84819,1,0,0:0:0:0:
256,192,84962,1,8,0:0:0:0:
256,192,85248,1,8,0:0:0:0:
256,192,85391,1,8,0:0:0:0:
256,192,85676,1,8,0:0:0:0:
256,192,85819,1,8,0:0:0:0:
256,192,85962,1,0,0:0:0:0:
256,192,86105,1,12,0:0:0:0:
256,192,86391,1,8,0:0:0:0:
256,192,86676,1,0,0:0:0:0:
256,192,86819,1,8,0:0:0:0:
256,192,86891,1,8,0:0:0:0:
256,192,86962,1,8,0:0:0:0:
256,192,87105,1,0,0:0:0:0:
256,192,87391,1,0,0:0:0:0:
256,192,87534,1,8,0:0:0:0:
256,192,87676,1,0,0:0:0:0:
256,192,87819,1,8,0:0:0:0:
256,192,88105,1,8,0:0:0:0:
256,192,88248,1,0,0:0:0:0:
256,192,88676,1,8,0:0:0:0:
256,192,88962,1,8,0:0:0:0:
256,192,89105,1,0,0:0:0:0:
256,192,89391,1,0,0:0:0:0:
256,192,89534,1,0,0:0:0:0:
256,192,89676,1,8,0:0:0:0:
256,192,89819,1,0,0:0:0:0:
256,192,89962,1,8,0:0:0:0:
256,192,90105,1,8,0:0:0:0:
256,192,90248,1,0,0:0:0:0:
256,192,90319,1,0,0:0:0:0:
256,192,90391,1,0,0:0:0:0:
256,192,90534,1,0,0:0:0:0:
256,192,90676,1,12,0:0:0:0:
256,192,91248,1,8,0:0:0:0:
256,192,91819,1,12,0:0:0:0:
256,192,92105,1,0,0:0:0:0:
256,192,92391,1,8,0:0:0:0:
256,192,92534,1,0,0:0:0:0:
256,192,92962,1,12,0:0:0:0:
256,192,93534,1,8,0:0:0:0:
256,192,93676,1,0,0:0:0:0:
256,192,93962,1,0,0:0:0:0:
256,192,94105,1,12,0:0:0:0:
256,192,94391,1,0,0:0:0:0:
256,192,94676,1,8,0:0:0:0:
256,192,94819,1,0,0:0:0:0:
256,192,94962,1,8,0:0:0:0:
256,192,95105,1,0,0:0:0:0:
256,192,95248,1,12,0:0:0:0:
256,192,95819,1,0,0:0:0:0:
256,192,95962,1,0,0:0:0:0:
256,192,96105,1,8,0:0:0:0:
256,192,96391,1,0,0:0:0:0:
256,192,96676,1,8,0:0:0:0:
256,192,96819,1,0,0:0:0:0:
256,192,96962,1,8,0:0:0:0:
256,192,97105,1,8,0:0:0:0:
256,192,97248,1,0,0:0:0:0:
256,192,97391,1,0,0:0:0:0:
256,192,97534,1,8,0:0:0:0:
256,192,97676,1,8,0:0:0:0:
256,192,97819,1,0,0:0:0:0:
256,192,97962,1,8,0:0:0:0:
256,192,98105,1,8,0:0:0:0:
256,192,98391,1,8,0:0:0:0:
256,192,98676,1,0,0:0:0:0:
256,192,99105,1,0,0:0:0:0:
256,192,99248,1,8,0:0:0:0:
256,192,99391,1,0,0:0:0:0:
256,192,99534,1,8,0:0:0:0:
256,192,99819,1,12,0:0:0:0:
256,192,100105,1,0,0:0:0:0:
256,192,100248,1,8,0:0:0:0:
256,192,100319,1,8,0:0:0:0:
256,192,100391,1,8,0:0:0:0:
256,192,100534,1,0,0:0:0:0:
256,192,100676,1,8,0:0:0:0:
256,192,100819,1,0,0:0:0:0:
256,192,100891,1,0,0:0:0:0:
256,192,100962,1,0,0:0:0:0:
256,192,101248,1,8,0:0:0:0:
256,192,101391,1,0,0:0:0:0:
256,192,101534,1,8,0:0:0:0:
256,192,101605,1,8,0:0:0:0:
256,192,101676,1,8,0:0:0:0:
256,192,101819,1,0,0:0:0:0:
256,192,101962,1,0,0:0:0:0:
256,192,102105,1,8,0:0:0:0:
256,192,102248,1,0,0:0:0:0:
256,192,102391,1,8,0:0:0:0:
256,192,102676,1,8,0:0:0:0:
256,192,102819,1,0,0:0:0:0:
256,192,102962,1,8,0:0:0:0:
256,192,103105,1,8,0:0:0:0:
256,192,103176,1,8,0:0:0:0:
256,192,103248,1,8,0:0:0:0:
256,192,103391,1,0,0:0:0:0:
256,192,103534,1,8,0:0:0:0:
256,192,103819,1,8,0:0:0:0:
256,192,103962,1,0,0:0:0:0:
256,192,104105,1,8,0:0:0:0:
256,192,104176,1,8,0:0:0:0:
256,192,104248,1,8,0:0:0:0:
256,192,104391,1,4,0:0:0:0:
256,192,104819,1,4,0:0:0:0:
256,192,105248,1,12,0:0:0:0:
256,192,105676,1,4,0:0:0:0:
256,192,106105,1,12,0:0:0:0:
256,192,106534,1,4,0:0:0:0:
256,192,106962,1,12,0:0:0:0:
256,192,107391,1,12,0:0:0:0:
256,192,107819,1,4,0:0:0:0:
256,192,108105,1,0,0:0:0:0:
256,192,108248,1,8,0:0:0:0:
256,192,108391,1,0,0:0:0:0:
256,192,108534,1,8,0:0:0:0:
256,192,108676,1,4,0:0:0:0:
256,192,108819,12,0,111819,0:0:0:0:
