osu file format v14

[General]
AudioFilename: audio.mp3
AudioLeadIn: 0
PreviewTime: 34034
Countdown: 0
SampleSet: None
StackLeniency: 0.2
Mode: 1
LetterboxInBreaks: 0
WidescreenStoryboard: 1

[Editor]
Bookmarks: 11505,22799,34093,56681,67975,79269,79446,79622,79740,79916,80034,80210,80328,80446,80622,80740,80858,81034,81269,81387,81563,81681,81799,81916,82034,82210,82387,82563,82799,82975,83093,83210,83505,83681,83799,84034,84269,84446,84681,84799,90563,101858,113152
DistanceSpacing: 0.4
BeatDivisor: 6
GridSize: 32
TimelineZoom: 2.5

[Metadata]
Title:Proof of the existence
TitleUnicode:Proof of the existence
Artist:Nekomata Master+
ArtistUnicode:猫叉Master+
Creator:salchow
Version:oni...
Source:beatmania IIDX 20 tricoro
Tags:SKSalt tasuke912 ORIGINAL SOUNDTRACK Volume 1 konami hard electronica Naoyuki Sato jubeat plus jukebeat saucer REFLEC BEAT colette -Summer- plus
BeatmapID:1944593
BeatmapSetID:931269

[Difficulty]
HPDrainRate:6
CircleSize:2
OverallDifficulty:7
ApproachRate:10
SliderMultiplier:1.4
SliderTickRate:1

[Events]
//Background and Video events
0,0,"dino-reichmuth-98982-unsplash.jpg",0,0
//Break Periods
2,79469,84466
//Storyboard Layer 0 (Background)
//Storyboard Layer 1 (Fail)
//Storyboard Layer 2 (Pass)
//Storyboard Layer 3 (Foreground)
//Storyboard Sound Samples

[TimingPoints]
211,352.941176470588,4,1,0,80,1,0
11505,-125,4,1,0,80,0,0
22799,-100,4,1,0,80,0,0
34093,-90.9090909090909,4,1,0,80,0,0
56681,-100,4,1,0,80,0,0
67269,-111.111111111111,4,1,0,80,0,0
67505,-100,4,1,0,80,0,0
67740,-90.9090909090909,4,1,0,80,0,0
67975,-83.3333333333333,4,1,0,80,0,0
68152,-90.9090909090909,4,1,0,80,0,0
79269,-100,4,1,0,80,0,0
89152,-83.3333333333333,4,1,0,80,0,0
89387,-86.9565217391304,4,1,0,80,0,0
89622,-90.9090909090909,4,1,0,80,0,0
89858,-95.2380952380952,4,1,0,80,0,0
90093,-100,4,1,0,80,0,0
90563,-95.2380952380952,4,1,0,80,0,1
113152,-95.2380952380952,4,1,0,80,0,0

[Colours]
Combo1 : 224,125,101
Combo2 : 255,245,204
Combo3 : 255,201,100
Combo4 : 223,193,255
Combo5 : 175,128,227
Combo6 : 249,194,176

[HitObjects]
256,192,8681,12,0,10975,0:0:0:0:
256,192,11152,5,0,0:0:0:0:
256,32,11505,5,12,0:0:0:0:
256,192,11858,5,0,0:0:0:0:
256,192,12034,5,8,0:0:0:0:
256,192,12210,5,8,0:0:0:0:
256,192,12563,5,0,0:0:0:0:
256,192,12740,5,8,0:0:0:0:
256,192,12828,5,8,0:0:0:0:
256,192,12916,5,8,0:0:0:0:
256,192,13093,5,0,0:0:0:0:
256,192,13269,5,0,0:0:0:0:
256,192,13622,5,8,0:0:0:0:
256,192,13858,5,0,0:0:0:0:
256,192,14093,5,0,0:0:0:0:
256,192,14328,5,8,0:0:0:0:
256,192,14858,5,0,0:0:0:0:
256,192,15034,5,8,0:0:0:0:
256,192,15563,5,8,0:0:0:0:
256,192,15652,5,8,0:0:0:0:
256,192,15740,5,0,0:0:0:0:
256,192,15916,5,8,0:0:0:0:
256,192,16093,5,0,0:0:0:0:
256,192,16446,5,8,0:0:0:0:
256,192,16681,5,8,0:0:0:0:
256,192,16916,5,8,0:0:0:0:
256,192,17152,5,0,0:0:0:0:
256,192,17505,5,0,0:0:0:0:
256,192,17681,5,8,0:0:0:0:
256,192,17857,5,8,0:0:0:0:
256,192,18210,5,0,0:0:0:0:
256,192,18387,5,8,0:0:0:0:
256,192,18475,5,8,0:0:0:0:
256,192,18563,5,8,0:0:0:0:
256,192,18740,5,0,0:0:0:0:
256,192,18916,5,0,0:0:0:0:
256,192,19269,5,8,0:0:0:0:
256,192,19505,5,0,0:0:0:0:
256,192,19740,5,0,0:0:0:0:
256,192,19975,5,8,0:0:0:0:
256,192,20210,5,0,0:0:0:0:
256,192,20446,5,0,0:0:0:0:
256,192,20681,5,8,0:0:0:0:
256,192,21210,5,8,0:0:0:0:
256,192,21299,5,8,0:0:0:0:
256,192,21387,5,0,0:0:0:0:
256,192,21916,5,0,0:0:0:0:
256,192,22799,5,12,0:0:0:0:
256,192,22975,5,0,0:0:0:0:
256,192,23063,5,0,0:0:0:0:
256,192,23152,5,0,0:0:0:0:
256,192,23328,5,8,0:0:0:0:
256,192,23505,5,0,0:0:0:0:
256,192,23681,5,8,0:0:0:0:
256,192,23769,5,8,0:0:0:0:
256,192,23858,5,8,0:0:0:0:
256,192,24033,5,0,0:0:0:0:
256,192,24122,5,0,0:0:0:0:
256,192,24387,5,8,0:0:0:0:
256,192,24476,5,8,0:0:0:0:
256,192,24740,5,0,0:0:0:0:
256,192,24829,5,0,0:0:0:0:
256,192,25094,5,8,0:0:0:0:
256,192,25183,5,8,0:0:0:0:
256,192,25446,5,0,0:0:0:0:
256,192,25534,5,0,0:0:0:0:
256,192,25622,5,8,0:0:0:0:
256,192,25799,5,0,0:0:0:0:
256,192,25887,5,0,0:0:0:0:
256,192,25975,5,0,0:0:0:0:
256,192,26152,5,8,0:0:0:0:
256,192,26328,5,0,0:0:0:0:
256,192,26505,5,8,0:0:0:0:
256,192,26593,5,8,0:0:0:0:
256,192,26681,5,8,0:0:0:0:
256,192,26857,5,0,0:0:0:0:
256,192,26946,5,0,0:0:0:0:
256,192,27211,5,8,0:0:0:0:
256,192,27300,5,8,0:0:0:0:
256,192,27564,5,0,0:0:0:0:
256,192,27653,5,0,0:0:0:0:
256,192,27918,5,8,0:0:0:0:
256,192,28007,5,8,0:0:0:0:
256,192,28270,5,0,0:0:0:0:
256,192,28358,5,0,0:0:0:0:
256,192,28446,5,8,0:0:0:0:
256,192,28623,5,0,0:0:0:0:
256,192,28711,5,0,0:0:0:0:
256,192,28799,5,0,0:0:0:0:
256,192,28976,5,8,0:0:0:0:
256,192,29152,5,0,0:0:0:0:
256,192,29329,5,8,0:0:0:0:
256,192,29417,5,8,0:0:0:0:
256,192,29505,5,8,0:0:0:0:
256,192,29681,5,8,0:0:0:0:
256,192,29858,5,0,0:0:0:0:
256,192,30034,5,8,0:0:0:0:
256,192,30122,5,8,0:0:0:0:
256,192,30210,5,8,0:0:0:0:
256,192,30387,5,8,0:0:0:0:
256,192,30563,5,0,0:0:0:0:
256,192,30739,5,8,0:0:0:0:
256,192,30828,5,8,0:0:0:0:
256,192,30916,5,8,0:0:0:0:
256,192,31093,5,8,0:0:0:0:
256,192,31269,5,0,0:0:0:0:
256,192,31358,5,0,0:0:0:0:
256,192,31446,5,0,0:0:0:0:
256,192,31622,5,8,0:0:0:0:
256,192,31710,5,8,0:0:0:0:
256,192,31799,5,8,0:0:0:0:
256,192,31976,5,0,0:0:0:0:
256,192,32065,5,0,0:0:0:0:
256,192,32152,5,0,0:0:0:0:
256,192,32329,5,8,0:0:0:0:
256,192,32417,5,8,0:0:0:0:
256,192,32505,5,8,0:0:0:0:
256,192,32681,5,0,0:0:0:0:
256,192,32770,5,0,0:0:0:0:
256,192,32858,5,0,0:0:0:0:
256,192,33034,5,8,0:0:0:0:
256,192,33122,5,8,0:0:0:0:
256,192,33210,5,8,0:0:0:0:
256,192,33299,5,8,0:0:0:0:
256,192,33387,5,8,0:0:0:0:
256,192,33563,5,0,0:0:0:0:
256,32,34093,5,12,0:0:0:0:
256,192,34269,5,0,0:0:0:0:
256,192,34358,5,0,0:0:0:0:
256,192,34446,5,8,0:0:0:0:
256,192,34622,5,8,0:0:0:0:
256,192,34975,5,8,0:0:0:0:
256,192,35063,5,0,0:0:0:0:
256,192,35240,5,0,0:0:0:0:
256,192,35328,5,8,0:0:0:0:
256,192,35505,5,0,0:0:0:0:
256,192,35681,5,0,0:0:0:0:
256,192,35769,5,0,0:0:0:0:
256,192,35858,5,8,0:0:0:0:
256,192,36034,5,8,0:0:0:0:
256,192,36387,5,8,0:0:0:0:
256,192,36563,5,8,0:0:0:0:
256,192,36652,5,0,0:0:0:0:
256,192,36740,5,8,0:0:0:0:
256,32,36916,5,4,0:0:0:0:
256,192,37093,5,0,0:0:0:0:
256,192,37181,5,0,0:0:0:0:
256,192,37269,5,8,0:0:0:0:
256,192,37446,5,8,0:0:0:0:
256,192,37799,5,8,0:0:0:0:
256,192,37887,5,8,0:0:0:0:
256,192,38063,5,8,0:0:0:0:
256,192,38152,5,8,0:0:0:0:
256,192,38328,5,0,0:0:0:0:
256,192,38505,5,8,0:0:0:0:
256,192,38593,5,0,0:0:0:0:
256,192,38681,5,8,0:0:0:0:
256,192,38858,5,8,0:0:0:0:
256,192,39034,5,0,0:0:0:0:
256,192,39122,5,0,0:0:0:0:
256,192,39210,5,8,0:0:0:0:
256,192,39299,5,0,0:0:0:0:
256,192,39387,5,8,0:0:0:0:
256,192,39563,5,0,0:0:0:0:
256,32,39740,5,12,0:0:0:0:
256,192,39916,5,0,0:0:0:0:
256,192,40005,5,0,0:0:0:0:
256,192,40093,5,8,0:0:0:0:
256,192,40269,5,8,0:0:0:0:
256,192,40622,5,8,0:0:0:0:
256,192,40710,5,0,0:0:0:0:
256,192,40887,5,0,0:0:0:0:
256,192,40975,5,8,0:0:0:0:
256,192,41152,5,0,0:0:0:0:
256,192,41328,5,0,0:0:0:0:
256,192,41416,5,0,0:0:0:0:
256,192,41505,5,8,0:0:0:0:
256,192,41681,5,0,0:0:0:0:
256,192,41769,5,8,0:0:0:0:
256,192,41858,5,0,0:0:0:0:
256,192,42034,5,0,0:0:0:0:
256,192,42210,5,8,0:0:0:0:
256,192,42299,5,8,0:0:0:0:
256,192,42387,5,8,0:0:0:0:
256,32,42563,5,4,0:0:0:0:
256,192,42740,5,0,0:0:0:0:
256,192,42828,5,0,0:0:0:0:
256,192,42916,5,8,0:0:0:0:
256,192,43093,5,8,0:0:0:0:
256,192,43446,5,8,0:0:0:0:
256,192,43534,5,8,0:0:0:0:
256,192,43710,5,8,0:0:0:0:
256,192,43799,5,8,0:0:0:0:
256,192,43975,5,0,0:0:0:0:
256,192,44152,5,8,0:0:0:0:
256,192,44240,5,0,0:0:0:0:
256,192,44328,5,8,0:0:0:0:
256,192,44505,5,8,0:0:0:0:
256,192,44681,5,0,0:0:0:0:
256,192,44858,5,8,0:0:0:0:
256,192,44946,5,8,0:0:0:0:
256,192,45034,5,8,0:0:0:0:
256,192,45122,5,8,0:0:0:0:
256,192,45210,5,0,0:0:0:0:
256,32,45387,5,12,0:0:0:0:
256,192,45563,5,0,0:0:0:0:
256,192,45652,5,0,0:0:0:0:
256,192,45740,5,8,0:0:0:0:
256,192,45916,5,8,0:0:0:0:
256,192,46269,5,8,0:0:0:0:
256,192,46357,5,0,0:0:0:0:
256,192,46534,5,0,0:0:0:0:
256,192,46622,5,8,0:0:0:0:
256,192,46799,5,0,0:0:0:0:
256,192,46975,5,0,0:0:0:0:
256,192,47063,5,0,0:0:0:0:
256,192,47152,5,8,0:0:0:0:
256,192,47328,5,8,0:0:0:0:
256,192,47681,5,8,0:0:0:0:
256,192,47857,5,8,0:0:0:0:
256,192,47946,5,0,0:0:0:0:
256,192,48034,5,8,0:0:0:0:
256,32,48210,5,4,0:0:0:0:
256,192,48387,5,0,0:0:0:0:
256,192,48475,5,0,0:0:0:0:
256,192,48563,5,8,0:0:0:0:
256,192,48740,5,8,0:0:0:0:
256,192,49093,5,8,0:0:0:0:
256,192,49181,5,8,0:0:0:0:
256,192,49357,5,8,0:0:0:0:
256,192,49446,5,8,0:0:0:0:
256,192,49622,5,0,0:0:0:0:
256,192,49799,5,8,0:0:0:0:
256,192,49887,5,0,0:0:0:0:
256,192,49975,5,8,0:0:0:0:
256,192,50152,5,8,0:0:0:0:
256,192,50328,5,0,0:0:0:0:
256,192,50416,5,0,0:0:0:0:
256,192,50504,5,8,0:0:0:0:
256,192,50593,5,0,0:0:0:0:
256,192,50681,5,8,0:0:0:0:
256,192,50857,5,0,0:0:0:0:
256,32,51034,5,12,0:0:0:0:
256,192,51210,5,0,0:0:0:0:
256,192,51299,5,0,0:0:0:0:
256,192,51387,5,8,0:0:0:0:
256,192,51563,5,8,0:0:0:0:
256,192,51916,5,8,0:0:0:0:
256,192,52004,5,0,0:0:0:0:
256,192,52181,5,0,0:0:0:0:
256,192,52269,5,8,0:0:0:0:
256,192,52446,5,0,0:0:0:0:
256,192,52622,5,0,0:0:0:0:
256,192,52710,5,0,0:0:0:0:
256,192,52799,5,8,0:0:0:0:
256,192,52975,5,0,0:0:0:0:
256,192,53063,5,8,0:0:0:0:
256,192,53152,5,0,0:0:0:0:
256,192,53328,5,0,0:0:0:0:
256,192,53504,5,8,0:0:0:0:
256,192,53593,5,8,0:0:0:0:
256,192,53681,5,8,0:0:0:0:
256,32,53857,5,4,0:0:0:0:
256,192,54034,5,0,0:0:0:0:
256,192,54122,5,0,0:0:0:0:
256,192,54210,5,8,0:0:0:0:
256,192,54387,5,8,0:0:0:0:
256,192,54740,5,8,0:0:0:0:
256,192,54828,5,8,0:0:0:0:
256,192,55004,5,8,0:0:0:0:
256,192,55093,5,8,0:0:0:0:
256,192,55269,5,0,0:0:0:0:
256,192,55446,5,8,0:0:0:0:
256,192,55534,5,0,0:0:0:0:
256,192,55622,5,8,0:0:0:0:
256,192,55799,5,8,0:0:0:0:
256,192,55975,5,0,0:0:0:0:
256,192,56152,5,8,0:0:0:0:
256,192,56504,5,8,0:0:0:0:
256,32,56681,5,4,0:0:0:0:
256,192,56916,5,0,0:0:0:0:
256,192,57387,5,8,0:0:0:0:
256,192,57622,5,8,0:0:0:0:
256,192,58093,5,0,0:0:0:0:
256,192,58799,5,0,0:0:0:0:
256,192,59269,5,0,0:0:0:0:
256,192,59505,5,8,0:0:0:0:
256,192,59975,5,8,0:0:0:0:
256,192,60093,5,0,0:0:0:0:
256,192,60210,5,8,0:0:0:0:
256,192,60446,5,8,0:0:0:0:
256,192,60916,5,0,0:0:0:0:
256,192,61622,5,0,0:0:0:0:
256,192,61975,5,0,0:0:0:0:
256,192,62328,5,8,0:0:0:0:
256,192,62563,5,8,0:0:0:0:
256,192,63034,5,0,0:0:0:0:
256,192,63269,5,0,0:0:0:0:
256,192,63740,5,8,0:0:0:0:
256,192,64446,5,8,0:0:0:0:
256,192,65152,5,8,0:0:0:0:
256,192,65387,5,0,0:0:0:0:
256,192,65622,5,8,0:0:0:0:
256,192,65740,5,8,0:0:0:0:
256,192,65857,5,0,0:0:0:0:
256,192,66094,5,0,0:0:0:0:
256,192,66564,5,8,0:0:0:0:
256,32,67269,5,4,0:0:0:0:
256,32,67505,5,4,0:0:0:0:
256,32,67740,5,4,0:0:0:0:
256,32,67975,5,12,0:0:0:0:
256,192,68152,5,0,0:0:0:0:
256,192,68240,5,0,0:0:0:0:
256,192,68328,5,8,0:0:0:0:
256,192,68505,5,8,0:0:0:0:
256,192,68593,5,8,0:0:0:0:
256,192,68681,5,0,0:0:0:0:
256,192,68916,5,0,0:0:0:0:
256,192,69152,5,0,0:0:0:0:
256,192,69387,5,8,0:0:0:0:
256,192,69563,5,0,0:0:0:0:
256,192,69652,5,0,0:0:0:0:
256,192,69740,5,8,0:0:0:0:
256,192,69916,5,8,0:0:0:0:
256,192,70005,5,0,0:0:0:0:
256,192,70093,5,8,0:0:0:0:
256,192,70269,5,0,0:0:0:0:
256,192,70358,5,0,0:0:0:0:
256,192,70446,5,8,0:0:0:0:
256,192,70534,5,0,0:0:0:0:
256,192,70622,5,8,0:0:0:0:
256,32,70799,5,4,0:0:0:0:
256,192,71063,5,8,0:0:0:0:
256,192,71152,5,0,0:0:0:0:
256,192,71328,5,8,0:0:0:0:
256,192,71416,5,0,0:0:0:0:
256,192,71505,5,8,0:0:0:0:
256,192,71740,5,8,0:0:0:0:
256,192,71975,5,0,0:0:0:0:
256,192,72210,5,8,0:0:0:0:
256,192,72387,5,0,0:0:0:0:
256,192,72475,5,0,0:0:0:0:
256,192,72563,5,8,0:0:0:0:
256,192,72740,5,0,0:0:0:0:
256,192,72828,5,8,0:0:0:0:
256,192,72916,5,8,0:0:0:0:
256,192,73005,5,8,0:0:0:0:
256,192,73093,5,0,0:0:0:0:
256,192,73269,5,8,0:0:0:0:
256,192,73358,5,0,0:0:0:0:
256,192,73446,5,8,0:0:0:0:
256,32,73622,5,12,0:0:0:0:
256,192,73799,5,0,0:0:0:0:
256,192,73887,5,0,0:0:0:0:
256,192,73975,5,8,0:0:0:0:
256,192,74152,5,8,0:0:0:0:
256,192,74240,5,8,0:0:0:0:
256,192,74328,5,0,0:0:0:0:
256,192,74563,5,0,0:0:0:0:
256,192,74799,5,0,0:0:0:0:
256,192,75034,5,8,0:0:0:0:
256,192,75210,5,0,0:0:0:0:
256,192,75299,5,0,0:0:0:0:
256,192,75387,5,8,0:0:0:0:
256,192,75563,5,8,0:0:0:0:
256,192,75652,5,0,0:0:0:0:
256,192,75740,5,8,0:0:0:0:
256,192,75916,5,0,0:0:0:0:
256,192,76005,5,0,0:0:0:0:
256,192,76093,5,8,0:0:0:0:
256,192,76181,5,0,0:0:0:0:
256,192,76269,5,8,0:0:0:0:
256,32,76446,5,4,0:0:0:0:
256,192,76710,5,8,0:0:0:0:
256,192,76799,5,0,0:0:0:0:
256,192,76975,5,8,0:0:0:0:
256,192,77063,5,0,0:0:0:0:
256,192,77152,5,8,0:0:0:0:
256,192,77387,5,8,0:0:0:0:
256,192,77622,5,0,0:0:0:0:
256,192,77857,5,8,0:0:0:0:
256,192,78034,5,0,0:0:0:0:
256,192,78122,5,0,0:0:0:0:
256,192,78210,5,8,0:0:0:0:
256,192,78387,5,0,0:0:0:0:
256,192,78475,5,8,0:0:0:0:
256,192,78563,5,8,0:0:0:0:
256,192,78652,5,8,0:0:0:0:
256,192,78740,5,0,0:0:0:0:
256,192,78916,5,8,0:0:0:0:
256,192,79005,5,0,0:0:0:0:
256,192,79093,5,8,0:0:0:0:
256,32,79269,5,4,0:0:0:0:
256,192,84916,12,0,88975,0:0:0:0:
256,32,89152,5,4,0:0:0:0:
256,32,89387,5,4,0:0:0:0:
256,32,89622,5,4,0:0:0:0:
256,32,89858,5,4,0:0:0:0:
256,32,90093,5,4,0:0:0:0:
256,32,90563,5,12,0:0:0:0:
256,192,90740,5,0,0:0:0:0:
256,192,90828,5,0,0:0:0:0:
256,192,90916,5,8,0:0:0:0:
256,192,91093,5,8,0:0:0:0:
256,192,91269,5,0,0:0:0:0:
256,192,91358,5,8,0:0:0:0:
256,192,91534,5,8,0:0:0:0:
256,192,91622,5,8,0:0:0:0:
256,192,91799,5,0,0:0:0:0:
256,192,91887,5,0,0:0:0:0:
256,192,91975,5,8,0:0:0:0:
256,192,92063,5,8,0:0:0:0:
256,192,92152,5,0,0:0:0:0:
256,192,92328,5,8,0:0:0:0:
256,192,92505,5,0,0:0:0:0:
256,192,92681,5,8,0:0:0:0:
256,192,92769,5,8,0:0:0:0:
256,192,92858,5,0,0:0:0:0:
256,192,92946,5,0,0:0:0:0:
256,192,93034,5,8,0:0:0:0:
256,192,93122,5,0,0:0:0:0:
256,192,93210,5,8,0:0:0:0:
256,192,93387,5,0,0:0:0:0:
256,192,93740,5,8,0:0:0:0:
256,192,93916,5,0,0:0:0:0:
256,192,94093,5,8,0:0:0:0:
256,192,94181,5,8,0:0:0:0:
256,192,94269,5,0,0:0:0:0:
256,192,94446,5,8,0:0:0:0:
256,192,94622,5,0,0:0:0:0:
256,192,94710,5,8,0:0:0:0:
256,192,94799,5,8,0:0:0:0:
256,192,94975,5,8,0:0:0:0:
256,192,95063,5,8,0:0:0:0:
256,192,95152,5,8,0:0:0:0:
256,192,95328,5,0,0:0:0:0:
256,192,95505,5,8,0:0:0:0:
256,192,95593,5,8,0:0:0:0:
256,192,95681,5,8,0:0:0:0:
256,192,95769,5,8,0:0:0:0:
256,192,95858,5,0,0:0:0:0:
256,192,95946,5,0,0:0:0:0:
256,192,96034,5,0,0:0:0:0:
256,192,96122,5,0,0:0:0:0:
256,32,96210,5,12,0:0:0:0:
256,192,96387,5,0,0:0:0:0:
256,192,96475,5,0,0:0:0:0:
256,192,96563,5,8,0:0:0:0:
256,192,96740,5,8,0:0:0:0:
256,192,96916,5,0,0:0:0:0:
256,192,97005,5,8,0:0:0:0:
256,192,97181,5,8,0:0:0:0:
256,192,97269,5,8,0:0:0:0:
256,192,97446,5,0,0:0:0:0:
256,192,97534,5,0,0:0:0:0:
256,192,97622,5,8,0:0:0:0:
256,192,97799,5,0,0:0:0:0:
256,192,97887,5,0,0:0:0:0:
256,192,97975,5,8,0:0:0:0:
256,192,98152,5,8,0:0:0:0:
256,192,98328,5,8,0:0:0:0:
256,192,98416,5,0,0:0:0:0:
256,192,98593,5,0,0:0:0:0:
256,192,98681,5,0,0:0:0:0:
256,192,98769,5,8,0:0:0:0:
256,192,98857,5,8,0:0:0:0:
256,192,99034,5,0,0:0:0:0:
256,192,99387,5,8,0:0:0:0:
256,192,99563,5,0,0:0:0:0:
256,192,99740,5,8,0:0:0:0:
256,192,99828,5,8,0:0:0:0:
256,192,99916,5,0,0:0:0:0:
256,192,100093,5,8,0:0:0:0:
256,192,100269,5,0,0:0:0:0:
256,192,100358,5,0,0:0:0:0:
256,192,100446,5,8,0:0:0:0:
256,192,100622,5,8,0:0:0:0:
256,192,100710,5,0,0:0:0:0:
256,192,100799,5,8,0:0:0:0:
256,192,100975,5,0,0:0:0:0:
256,192,101152,5,8,0:0:0:0:
256,192,101240,5,8,0:0:0:0:
256,192,101328,5,8,0:0:0:0:
256,192,101505,5,0,0:0:0:0:
256,192,101681,5,0,0:0:0:0:
256,32,101858,5,12,0:0:0:0:
256,192,102034,5,0,0:0:0:0:
256,192,102122,5,0,0:0:0:0:
256,192,102210,5,8,0:0:0:0:
256,192,102387,5,8,0:0:0:0:
256,192,102563,5,0,0:0:0:0:
256,192,102652,5,8,0:0:0:0:
256,192,102828,5,8,0:0:0:0:
256,192,102916,5,8,0:0:0:0:
256,192,103093,5,0,0:0:0:0:
256,192,103181,5,0,0:0:0:0:
256,192,103269,5,8,0:0:0:0:
256,192,103357,5,8,0:0:0:0:
256,192,103446,5,0,0:0:0:0:
256,192,103622,5,8,0:0:0:0:
256,192,103799,5,0,0:0:0:0:
256,192,103975,5,8,0:0:0:0:
256,192,104063,5,8,0:0:0:0:
256,192,104152,5,0,0:0:0:0:
256,192,104240,5,0,0:0:0:0:
256,192,104328,5,8,0:0:0:0:
256,192,104416,5,0,0:0:0:0:
256,192,104504,5,8,0:0:0:0:
256,192,104681,5,0,0:0:0:0:
256,192,105034,5,8,0:0:0:0:
256,192,105210,5,0,0:0:0:0:
256,192,105387,5,8,0:0:0:0:
256,192,105475,5,8,0:0:0:0:
256,192,105563,5,0,0:0:0:0:
256,192,105740,5,8,0:0:0:0:
256,192,105916,5,0,0:0:0:0:
256,192,106004,5,8,0:0:0:0:
256,192,106093,5,8,0:0:0:0:
256,192,106269,5,8,0:0:0:0:
256,192,106357,5,8,0:0:0:0:
256,192,106446,5,8,0:0:0:0:
256,192,106622,5,0,0:0:0:0:
256,192,106799,5,8,0:0:0:0:
256,192,106887,5,8,0:0:0:0:
256,192,106975,5,8,0:0:0:0:
256,192,107063,5,8,0:0:0:0:
256,192,107152,5,0,0:0:0:0:
256,192,107240,5,0,0:0:0:0:
256,192,107328,5,0,0:0:0:0:
256,192,107416,5,0,0:0:0:0:
256,32,107505,5,12,0:0:0:0:
256,192,107681,5,0,0:0:0:0:
256,192,107769,5,0,0:0:0:0:
256,192,107857,5,8,0:0:0:0:
256,192,108034,5,8,0:0:0:0:
256,192,108210,5,0,0:0:0:0:
256,192,108299,5,8,0:0:0:0:
256,192,108475,5,8,0:0:0:0:
256,192,108563,5,8,0:0:0:0:
256,192,108740,5,0,0:0:0:0:
256,192,108828,5,0,0:0:0:0:
256,192,108916,5,8,0:0:0:0:
256,192,109093,5,0,0:0:0:0:
256,192,109181,5,0,0:0:0:0:
256,192,109269,5,8,0:0:0:0:
256,192,109446,5,8,0:0:0:0:
256,192,109622,5,8,0:0:0:0:
256,192,109710,5,0,0:0:0:0:
256,192,109799,5,8,0:0:0:0:
256,192,109976,5,8,0:0:0:0:
256,192,110064,5,8,0:0:0:0:
256,192,110152,5,0,0:0:0:0:
256,32,110328,5,12,0:0:0:0:
256,192,110563,5,0,0:0:0:0:
256,192,110799,5,0,0:0:0:0:
256,192,111034,5,8,0:0:0:0:
256,192,111210,5,0,0:0:0:0:
256,192,111387,5,0,0:0:0:0:
256,192,111563,5,0,0:0:0:0:
256,192,111740,5,8,0:0:0:0:
256,192,111828,5,8,0:0:0:0:
256,192,111916,5,8,0:0:0:0:
256,192,112005,5,8,0:0:0:0:
256,192,112093,5,0,0:0:0:0:
256,192,112446,5,0,0:0:0:0:
256,192,112534,5,0,0:0:0:0:
256,192,112622,5,0,0:0:0:0:
256,192,112710,5,0,0:0:0:0:
256,192,112799,5,8,0:0:0:0:
256,192,112916,5,8,0:0:0:0:
256,192,113034,5,8,0:0:0:0:
256,32,113152,5,4,0:0:0:0:
