osu file format v14

[General]
AudioFilename: audio.mp3
AudioLeadIn: 0
PreviewTime: 89152
Countdown: 0
SampleSet: Soft
StackLeniency: 0.5
Mode: 0
LetterboxInBreaks: 0
WidescreenStoryboard: 0

[Editor]
Bookmarks: 11505,22446,34093,56681,67269,67975,79269,89152,90563,110328,113152
DistanceSpacing: 1
BeatDivisor: 3
GridSize: 16
TimelineZoom: 7.199994

[Metadata]
Title:Proof of the existence
TitleUnicode:Proof of the existence
Artist:Nekomata Master+
ArtistUnicode:猫叉Master+
Creator:IceKalt
Version:Hard
Source:beatmania IIDX 20 tricoro
Tags:ORIGINAL SOUNDTRACK Volume 1 konami hard electronica Naoyuki Sato jubeat plus jukebeat saucer REFLEC BEAT colette -Summer- plus mir
BeatmapID:1694394
BeatmapSetID:807310

[Difficulty]
HPDrainRate:5
CircleSize:3.5
OverallDifficulty:6.3
ApproachRate:7.5
SliderMultiplier:1.3
SliderTickRate:1

[Events]
//Background and Video events
0,0,"high wall.jpg",0,0
//Break Periods
2,79469,84091
//Storyboard Layer 0 (Background)
//Storyboard Layer 1 (Fail)
//Storyboard Layer 2 (Pass)
//Storyboard Layer 3 (Foreground)
//Storyboard Sound Samples

[TimingPoints]
211,352.941176470588,4,2,69,20,1,0
211,-142.857142857143,4,2,69,20,0,0
2858,-142.857142857143,4,2,69,20,0,0
3034,-142.857142857143,4,2,69,5,0,0
3210,-125,4,2,69,50,0,0
8799,-100,4,2,69,60,0,0
8916,-100,4,2,69,50,0,0
9034,-100,4,2,69,40,0,0
9152,-100,4,2,69,30,0,0
9269,-100,4,2,69,20,0,0
9387,-100,4,2,69,10,0,0
9475,-100,4,2,69,50,0,0
10093,-100,4,2,69,50,0,0
11505,-90.9090909090909,4,2,3,55,0,0
19975,-90.9090909090909,4,2,3,50,0,0
20681,-100,4,2,3,45,0,0
21387,-111.111111111111,4,2,3,40,0,0
22446,-100,4,2,3,50,0,0
22799,-76.9230769230769,4,2,1,60,0,0
31093,-76.9230769230769,4,2,1,70,0,0
32681,-66.6666666666667,4,2,1,70,0,0
33563,-100,4,2,1,50,0,0
34093,-71.4285714285714,4,2,1,65,0,0
34975,-71.4285714285714,4,2,1,65,0,0
35328,-71.4285714285714,4,2,1,65,0,0
36387,-71.4285714285714,4,2,1,65,0,0
36563,-71.4285714285714,4,2,1,65,0,0
37799,-71.4285714285714,4,2,1,65,0,0
38152,-71.4285714285714,4,2,1,65,0,0
38858,-71.4285714285714,4,2,1,65,0,0
39210,-71.4285714285714,4,2,1,65,0,0
39387,-71.4285714285714,4,2,1,65,0,0
40622,-71.4285714285714,4,2,1,65,0,0
40975,-71.4285714285714,4,2,1,65,0,0
42034,-71.4285714285714,4,2,1,65,0,0
42210,-71.4285714285714,4,2,1,65,0,0
42387,-71.4285714285714,4,2,1,65,0,0
42916,-71.4285714285714,4,2,1,65,0,0
43446,-71.4285714285714,4,2,1,65,0,0
43799,-71.4285714285714,4,2,1,65,0,0
46269,-71.4285714285714,4,2,1,65,0,0
46622,-71.4285714285714,4,2,1,65,0,0
47680,-71.4285714285714,4,2,1,65,0,0
47858,-71.4285714285714,4,2,1,65,0,0
49093,-71.4285714285714,4,2,1,65,0,0
49446,-71.4285714285714,4,2,1,65,0,0
50152,-71.4285714285714,4,2,1,65,0,0
50505,-71.4285714285714,4,2,1,65,0,0
50681,-71.4285714285714,4,2,1,65,0,0
51916,-71.4285714285714,4,2,1,65,0,0
52269,-71.4285714285714,4,2,1,65,0,0
53328,-71.4285714285714,4,2,1,65,0,0
53505,-71.4285714285714,4,2,1,65,0,0
53681,-71.4285714285714,4,2,1,65,0,0
54122,-71.4285714285714,4,2,1,65,0,0
54740,-71.4285714285714,4,2,1,65,0,0
55093,-71.4285714285714,4,2,1,65,0,0
56681,-100,4,2,1,50,0,0
57387,-100,4,2,1,45,0,0
58093,-100,4,2,1,40,0,0
58799,-100,4,2,1,45,0,0
59505,-100,4,2,1,50,0,0
60210,-100,4,2,1,45,0,0
60916,-100,4,2,1,40,0,0
61622,-100,4,2,1,45,0,0
62328,-100,4,2,1,50,0,0
63034,-100,4,2,1,45,0,0
63740,-100,4,2,1,40,0,0
64446,-100,4,2,1,45,0,0
65152,-100,4,2,1,50,0,0
65858,-100,4,2,1,45,0,0
66563,-100,4,2,1,40,0,0
67269,-100,4,2,1,60,0,0
67505,-100,4,2,1,70,0,0
67740,-100,4,2,1,80,0,0
67975,-83.3333333333333,4,2,1,60,0,0
73858,-83.3333333333333,4,2,1,60,0,0
74093,-83.3333333333333,4,2,1,60,0,0
74563,-83.3333333333333,4,2,1,60,0,0
74799,-83.3333333333333,4,2,1,60,0,0
79269,-142.857142857143,4,2,1,60,0,0
79622,-142.857142857143,4,2,1,35,0,0
89152,-83.3333333333333,4,2,1,70,0,0
89328,-100,4,2,1,5,0,0
89387,-100,4,2,1,70,0,0
89563,-100,4,2,1,5,0,0
89622,-100,4,2,1,70,0,0
89799,-100,4,2,1,5,0,0
89858,-100,4,2,1,70,0,0
90034,-100,4,2,1,5,0,0
90093,-100,4,2,1,70,0,0
90475,-100,4,2,1,5,0,0
90563,-71.4285714285714,4,2,3,75,0,0
110328,-66.6666666666667,4,2,1,70,0,0
113152,-142.857142857143,4,2,1,40,0,0
125858,-100,4,2,1,5,0,0

[Colours]
Combo1 : 167,137,16
Combo2 : 108,185,247
Combo3 : 245,224,73
Combo4 : 12,175,138

[HitObjects]
217,12,211,6,0,B|297:110|432:63|432:63|355:142|355:142|478:104|554:184|523:267|462:291|414:262|410:216,1,682.499979171754,2|0,0:0|0:0,0:0:0:0:
283,234,3210,2,0,B|300:221|326:222|326:222|268:263|256:327|256:327|217:255|131:264|131:264|200:211|207:140|176:77|91:92|76:158|86:207,1,624,2|2,0:0|0:0,0:0:0:0:
132,264,5593,1,2,0:0:0:0:
157,366,5858,6,0,B|246:311|327:357|327:357|420:354|430:258|368:205|309:231,1,416,2|2,0:0|0:0,0:0:0:0:
313,229,8681,6,0,L|331:175,6,34.6666666666667,0|0|0|0|0|0|0,0:0|0:0|0:0|0:0|0:0|0:0|0:0,0:0:0:0:
234,253,9563,6,0,P|183:245|134:246,1,97.5,0|0,0:0|0:0,0:0:0:0:
46,255,10093,2,0,B|152:233|148:146|93:102|10:143|10:143|68:87|32:20,1,390,0|0,0:0|0:0,0:0:0:0:
35,26,11505,6,0,P|104:43|179:38,1,143.000004364014,2|0,0:1|0:0,0:0:0:0:
263,6,12210,1,2,0:0:0:0:
262,24,12563,1,0,0:0:0:0:
346,57,12916,2,0,P|413:79|484:80,1,143.000004364014,0|0,0:0|0:0,0:0:0:0:
426,217,13622,2,0,P|403:143|413:88,2,95.3333362426759,2|2|0,0:0|0:0|0:0,0:0:0:0:
426,217,14328,6,0,L|259:231,1,143.000004364014,2|0,0:1|0:0,0:0:0:0:
229,140,15034,1,2,0:0:0:0:
228,164,15387,1,0,0:0:0:0:
155,213,15740,2,0,L|17:174,1,143.000004364014,0|0,0:0|0:0,0:0:0:0:
35,328,16446,2,0,P|60:284|73:233,2,95.3333362426759,2|2|0,0:0|0:0|0:0,0:0:0:0:
35,328,17152,6,0,P|119:340|179:321,1,143.000004364014,2|0,0:1|0:0,0:0:0:0:
282,348,17858,1,2,0:0:0:0:
266,329,18210,1,0,0:0:0:0:
290,238,18563,2,0,P|336:184|355:115,1,143.000004364014,0|0,0:0|0:0,0:0:0:0:
427,282,19269,2,0,P|388:237|379:187,1,95.3333362426759,2|2,0:0|0:0,0:0:0:0:
302,367,19975,6,0,L|399:361,2,95.3333362426759,2|2|0,0:1|0:0|0:0,0:0:0:0:
219,306,20681,2,0,L|122:300,2,86.6666666666667,2|2|0,0:0|0:0|0:0,0:0:0:0:
283,250,21387,2,0,P|345:266|322:180,1,175.499994644165,2|0,0:0|0:0,0:0:0:0:
283,250,22799,6,0,P|261:193|259:123,1,126.749994197846,4|0,0:0|0:0,0:0:0:0:
268,106,23152,2,0,L|159:103,1,84.4999961318971,10|0,0:0|0:0,0:0:0:0:
102,190,23505,2,0,P|124:247|126:317,1,126.749994197846,2|0,0:0|0:0,0:0:0:0:
115,333,23858,2,0,L|224:336,1,84.4999961318971,10|0,0:0|0:0,0:0:0:0:
292,369,24210,6,0,L|448:362,1,126.749994197846,2|0,0:0|0:0,0:0:0:0:
440,362,24563,1,8,0:0:0:0:
506,309,24740,1,0,0:0:0:0:
462,236,24916,2,0,P|452:174|467:117,1,84.4999961318971,2|0,0:0|0:0,0:0:0:0:
494,78,25269,2,0,L|399:59,1,84.4999961318971,8|0,0:0|0:0,0:0:0:0:
335,23,25622,1,4,0:0:0:0:
262,66,25799,6,0,L|205:58,2,42.2499980659486,0|0|2,0:0|0:0|0:0,0:0:0:0:
311,134,26152,2,0,L|352:128,2,42.2499980659486,0|0|2,0:0|0:0|0:0,0:0:0:0:
261,203,26505,2,0,L|204:195,2,42.2499980659486,0|0|2,0:0|0:0|0:0,0:0:0:0:
341,230,26858,2,0,P|348:283|336:342,1,84.4999961318971,0|0,0:0|0:0,0:0:0:0:
265,342,27210,2,0,L|264:394,2,42.2499980659486,0|0|0,0:0|0:0|0:0,0:0:0:0:
198,289,27563,2,0,P|145:282|86:294,1,84.4999961318971,0|0,0:0|0:0,0:0:0:0:
51,342,27916,2,0,L|50:394,2,42.2499980659486,0|0|10,0:0|0:0|0:0,0:0:0:0:
2,272,28269,6,0,P|-1:229|5:188,1,84.4999961318971,0|0,0:0|0:0,0:0:0:0:
70,133,28622,2,0,P|71:104|66:80,2,42.2499980659486,0|0|10,0:0|0:0|0:0,0:0:0:0:
141,178,28975,2,0,P|132:205|119:226,2,42.2499980659486,0|0|2,0:0|0:0|0:0,0:0:0:0:
192,110,29328,2,0,P|183:82|170:61,2,42.2499980659486,0|0|10,0:0|0:0|0:0,0:0:0:0:
224,188,29681,1,2,0:0:0:0:
296,144,29858,2,0,P|350:137|449:188,1,168.999992263794,0|10,0:0|0:0,0:0:0:0:
409,262,30387,1,0,0:0:0:0:
421,345,30563,6,0,L|467:354,4,42.2499980659486,2|0|0|0|10,0:0|0:0|0:0|0:0|0:0,0:0:0:0:
340,318,31093,1,0,3:0:0:0:
259,345,31269,2,0,L|213:354,4,42.2499980659486,2|0|0|0|8,3:1|3:0|3:0|3:0|0:0,0:0:0:0:
340,318,31799,1,0,0:0:0:0:
336,233,31975,2,0,L|333:173,7,42.2499980659486,2|0|0|0|8|0|0|0,3:1|3:0|3:0|3:0|0:0|0:0|0:0|0:0,0:0:0:0:
312,146,32681,6,0,L|349:101,10,48.750001859665,2|0|0|0|0|0|0|0|0|0|0,3:1|3:0|3:0|3:0|3:0|3:0|3:0|3:0|3:0|3:0|0:0,0:0:0:0:
304,110,34093,6,0,P|224:135|161:109,1,136.499995834351,4|0,0:0|0:0,0:0:0:0:
161,96,34446,1,8,0:0:0:0:
109,180,34622,2,0,P|119:225|110:283,1,90.9999972229005,0|2,0:0|0:1,0:0:0:0:
144,364,34975,2,0,L|39:368,2,90.9999972229005,0|8|2,0:0|0:0|0:0,0:0:0:0:
310,275,35681,2,0,L|315:212,2,45.4999986114502,0|0|8,0:0|0:0|0:0,0:0:0:0:
210,278,36034,2,0,L|205:215,2,45.4999986114502,0|0|2,0:0|0:0|0:1,0:0:0:0:
266,360,36387,5,0,0:0:0:0:
266,360,36563,2,0,P|360:360|393:326,1,136.499995834351,8|0,0:0|0:0,0:0:0:0:
393,307,36916,1,0,0:0:0:0:
424,211,37093,2,0,L|477:206,2,45.4999986114502,0|0|8,0:0|0:0|0:0,0:0:0:0:
425,110,37446,2,0,L|478:115,2,45.4999986114502,0|0|2,0:0|0:0|0:1,0:0:0:0:
326,90,37799,6,0,L|326:-27,2,90.9999972229005,0|8|2,0:0|0:0|0:0,0:0:0:0:
228,210,38505,2,0,L|175:205,2,45.4999986114502,0|0|8,0:0|0:0|0:0,0:0:0:0:
322,244,38858,2,0,P|322:297|280:375,1,136.499995834351,2|0,0:0|0:0,0:0:0:0:
258,379,39210,1,0,0:0:0:0:
160,357,39387,2,0,L|124:365,3,30.3333324076335,2|0|2|0,0:0|0:0|0:0|0:0,0:0:0:0:
98,268,39740,5,4,0:0:0:0:
124,171,39916,2,0,L|116:113,2,45.4999986114502,0|0|8,0:0|0:0|0:0,0:0:0:0:
219,140,40269,2,0,L|192:89,2,45.4999986114502,0|0|2,0:0|0:0|0:1,0:0:0:0:
308,184,40622,2,0,L|414:177,2,90.9999972229005,0|8|2,0:0|0:0|0:0,0:0:0:0:
180,291,41328,2,0,L|181:346,2,45.4999986114502,0|0|8,0:0|0:0|0:0,0:0:0:0:
100,231,41681,6,0,L|69:231,3,30.3333324076335,2|0|2|2,0:0|0:0|0:0|0:1,0:0:0:0:
11,149,42033,1,2,0:1:0:0:
64,64,42210,2,0,P|123:55|160:59,1,90.9999972229005,2|2,0:1|0:1,0:0:0:0:
226,126,42563,1,4,0:0:0:0:
302,61,42739,2,0,L|307:1,2,45.4999986114502,0|0|8,0:0|0:0|0:0,0:0:0:0:
343,153,43093,2,0,L|338:213,2,45.4999986114502,0|0|2,0:0|0:0|0:1,0:0:0:0:
428,101,43446,5,0,0:0:0:0:
510,157,43622,1,8,0:0:0:0:
495,256,43799,2,0,P|442:292|372:295,1,136.499995834351,2|0,0:0|0:0,0:0:0:0:
335,330,44152,2,0,L|304:334,3,30.3333324076335,0|0|0|8,0:0|0:0|0:0|0:0,0:0:0:0:
251,248,44505,6,0,P|198:212|128:209,1,136.499995834351,2|0,0:0|0:0,0:0:0:0:
100,226,44858,1,2,0:0:0:0:
73,243,44946,1,0,0:0:0:0:
47,261,45034,2,0,L|29:210,3,45.4999986114502,2|0|2|0,0:0|0:0|0:0|0:0,0:0:0:0:
53,137,45387,6,0,P|130:125|183:88,1,136.499995834351,4|0,0:0|0:0,0:0:0:0:
190,69,45740,1,8,0:0:0:0:
286,92,45916,2,0,P|296:137|287:195,1,90.9999972229005,0|2,0:0|0:1,0:0:0:0:
229,260,46269,2,0,L|221:358,2,90.9999972229005,0|0|2,0:0|0:0|0:0,0:0:0:0:
388,326,46975,2,0,L|437:325,2,45.4999986114502,0|0|8,0:0|0:0|0:0,0:0:0:0:
411,228,47328,2,0,L|460:227,2,45.4999986114502,0|0|2,0:0|0:0|0:1,0:0:0:0:
355,144,47681,5,0,0:0:0:0:
355,144,47857,2,0,P|293:117|216:120,1,136.499995834351,2|0,0:0|0:0,0:0:0:0:
202,133,48210,1,0,0:0:0:0:
112,88,48387,2,0,L|111:30,2,45.4999986114502,0|0|8,0:0|0:0|0:0,0:0:0:0:
20,128,48740,2,0,L|0:64,2,45.4999986114502,0|0|2,0:0|0:0|0:1,0:0:0:0:
20,228,49093,2,0,L|-7:337,2,90.9999972229005,0|0|2,0:0|0:0|0:0,0:0:0:0:
181,241,49799,6,0,L|185:293,2,45.4999986114502,0|0|8,0:0|0:0|0:0,0:0:0:0:
236,157,50152,2,0,P|285:138|373:149,1,136.499995834351,0|0,0:0|0:0,0:0:0:0:
385,169,50504,1,0,0:0:0:0:
453,242,50681,2,0,L|454:281,3,30.3333324076335,0|0|0|0,0:0|0:0|0:0|0:0,0:0:0:0:
398,356,51034,5,4,0:0:0:0:
308,311,51210,2,0,L|244:320,2,45.4999986114502,0|0|8,0:0|0:0|0:0,0:0:0:0:
264,220,51563,2,0,L|218:210,2,45.4999986114502,0|0|2,0:0|0:0|0:1,0:0:0:0:
332,146,51916,2,0,L|438:139,2,90.9999972229005,0|8|2,0:0|0:0|0:0,0:0:0:0:
202,81,52622,2,0,L|207:19,2,45.4999986114502,0|0|8,0:0|0:0|0:0,0:0:0:0:
134,154,52975,6,0,L|140:186,3,30.3333324076335,0|0|0|2,0:0|0:0|0:0|0:1,0:0:0:0:
90,271,53328,1,2,0:1:0:0:
137,358,53504,2,0,P|196:367|233:363,1,90.9999972229005,2|2,0:1|0:1,0:0:0:0:
285,282,53858,1,4,0:0:0:0:
375,324,54033,2,0,L|383:383,2,45.4999986114502,0|0|8,0:0|0:0|0:0,0:0:0:0:
466,281,54387,2,0,L|500:327,2,45.4999986114502,0|0|2,0:0|0:0|0:1,0:0:0:0:
505,188,54740,5,0,0:0:0:0:
422,131,54916,1,8,0:0:0:0:
328,168,55093,2,0,P|266:173|198:140,1,136.499995834351,2|0,0:0|0:0,0:0:0:0:
162,108,55446,2,0,L|131:112,3,30.3333324076335,0|2|0|10,0:0|0:0|0:0|0:0,0:0:0:0:
61,183,55799,2,0,P|60:247|97:306,1,136.499995834351,2|0,0:0|0:0,0:0:0:0:
113,329,56152,6,0,B|148:349|186:342|186:342|246:291|331:337,1,227.499993057251,0|0,0:0|0:0,0:0:0:0:
344,344,56681,6,0,P|391:352|436:340,2,86.6666666666667,4|0|0,0:0|0:0|0:0,0:0:0:0:
344,239,57387,2,0,P|391:231|436:243,2,86.6666666666667,2|0|0,0:1|0:0|0:0,0:0:0:0:
254,292,58093,1,2,0:0:0:0:
254,292,58799,1,2,0:0:0:0:
210,217,59034,1,2,0:0:0:0:
222,131,59269,1,2,0:0:0:0:
290,77,59505,6,0,P|353:89|389:81,2,86.6666666666667,4|0|0,0:0|0:0|0:0,0:0:0:0:
190,47,60210,2,0,P|127:35|91:43,2,86.6666666666667,2|0|0,0:1|0:0|0:0,0:0:0:0:
213,148,60916,1,2,0:0:0:0:
213,148,61622,1,0,0:0:0:0:
114,247,61975,2,0,L|115:203,2,43.3333333333333,2|0|0,0:0|0:0|0:0,0:0:0:0:
96,275,62328,6,0,P|29:268|2:251,2,86.6666666666667,4|0|0,0:0|0:0|0:0,0:0:0:0:
197,253,63034,2,0,P|236:236|279:237,2,86.6666666666667,2|0|0,0:1|0:0|0:0,0:0:0:0:
199,365,63740,1,2,0:0:0:0:
196,341,63975,1,0,0:0:0:0:
176,361,64210,1,0,0:0:0:0:
289,361,64446,2,0,L|388:374,2,86.6666666666667,2|0|0,0:0|0:0|0:0,0:0:0:0:
285,248,65152,6,0,P|319:198|351:170,2,86.6666666666667,4|0|0,0:0|0:0|0:0,0:0:0:0:
182,200,65858,2,0,P|175:139|182:97,2,86.6666666666667,2|0|0,0:1|0:0|0:0,0:0:0:0:
82,252,66563,1,2,0:0:0:0:
82,252,67269,5,0,0:0:0:0:
172,282,67505,1,0,0:0:0:0:
259,244,67740,1,0,0:0:0:0:
297,156,67975,6,0,P|346:167|404:164,2,103.999996826172,4|2|0,0:0|0:0|0:0,0:0:0:0:
234,59,68681,2,0,P|283:48|341:51,2,103.999996826172,2|2|2,0:1|0:0|0:0,0:0:0:0:
182,161,69387,2,0,B|133:207|72:200|72:200|52:249|67:297,1,207.999993652344,2|2,0:0|0:0,0:0:0:0:
135,327,70093,1,2,0:0:0:0:
207,286,70328,1,2,0:0:0:0:
277,329,70563,1,2,0:0:0:0:
348,286,70799,6,0,L|458:308,2,103.999996826172,4|2|0,0:0|0:0|0:0,0:0:0:0:
409,188,71505,2,0,L|521:174,2,103.999996826172,2|2|2,0:1|0:0|0:0,0:0:0:0:
318,118,72210,2,0,B|166:196|180:53|20:120,1,311.999990478516,2|2,0:0|0:0,0:0:0:0:
13,291,73269,2,0,L|57:302,3,38.9999988098145,2|0|2|0,0:0|0:0|0:0|0:0,0:0:0:0:
92,312,73622,6,0,P|117:257|154:219,2,103.999996826172,4|2|2,0:0|0:0|0:0,0:0:0:0:
206,306,74328,2,0,P|260:279|313:274,2,103.999996826172,2|2|2,0:1|0:0|0:0,0:0:0:0:
299,372,75034,2,0,B|395:383|434:338|434:338|419:298|429:274,1,207.999993652344,2|2,0:0|0:0,0:0:0:0:
467,202,75740,1,2,0:0:0:0:
468,118,75975,1,2,0:0:0:0:
423,47,76210,1,2,0:0:0:0:
345,15,76446,6,0,P|282:32|223:27,2,103.999996826172,4|2|0,0:0|0:0|0:0,0:0:0:0:
374,125,77152,2,0,P|336:178|288:212,2,103.999996826172,2|2|2,0:1|0:0|0:0,0:0:0:0:
475,179,77858,1,2,0:0:0:0:
475,179,78563,2,0,L|472:239,3,38.9999988098145,2|0|0|0,0:0|0:0|0:0|0:0,0:0:0:0:
494,255,78916,2,0,L|497:315,3,38.9999988098145,2|0|0|0,0:0|0:0|0:0|0:0,0:0:0:0:
472,331,79269,5,6,0:1:0:0:
256,192,84916,12,4,88799,0:0:0:0:
59,202,89152,6,0,B|73:150|113:116|113:116|128:160|179:194|179:194|215:155|274:160|274:160|238:117|237:65|237:65|334:67|364:150,1,571.999982543946,2|0,0:0|0:0,0:0:0:0:
365,147,90563,6,0,P|429:153|495:201,1,136.499995834351,12|0,0:0|0:0,0:0:0:0:
494,223,90916,1,2,0:0:0:0:
474,321,91093,1,0,0:0:0:0:
377,346,91269,2,0,B|287:331|287:331|199:376,1,181.999994445801,8|2,0:0|0:0,0:0:0:0:
52,296,91975,6,0,P|44:222|77:165,1,136.499995834351,8|0,0:0|0:0,0:0:0:0:
102,157,92328,1,2,0:0:0:0:
196,191,92505,1,0,0:0:0:0:
267,121,92681,2,0,P|325:108|362:112,1,90.9999972229005,8|0,0:0|0:0,0:0:0:0:
421,187,93034,2,0,P|419:232|431:275,1,90.9999972229005,10|2,0:0|0:0,0:0:0:0:
485,360,93387,6,0,P|427:327|325:323,1,136.499995834351,12|0,0:0|0:0,0:0:0:0:
333,337,93740,1,2,0:0:0:0:
233,327,93916,1,0,0:0:0:0:
149,270,94093,2,0,P|151:202|234:255,1,181.999994445801,8|2,0:0|0:0,0:0:0:0:
402,181,94799,6,0,P|335:178|278:111,1,136.499995834351,8|0,0:0|0:0,0:0:0:0:
282,100,95152,1,2,0:0:0:0:
205,35,95328,1,0,0:0:0:0:
115,80,95505,2,0,P|85:137|81:176,1,90.9999972229005,8|0,0:0|0:0,0:0:0:0:
26,246,95858,2,0,P|39:308|61:341,1,90.9999972229005,10|2,0:0|0:0,0:0:0:0:
147,364,96210,6,0,P|205:331|307:327,1,136.499995834351,12|0,0:0|0:0,0:0:0:0:
300,339,96563,1,2,0:0:0:0:
377,275,96740,1,0,0:0:0:0:
326,189,96916,2,0,B|292:120|324:56|324:56|373:36,1,181.999994445801,8|2,0:0|0:0,0:0:0:0:
212,170,97622,6,0,P|139:159|85:92,1,136.499995834351,8|0,0:0|0:0,0:0:0:0:
63,113,97975,2,0,P|25:167|16:203,1,90.9999972229005,10|0,0:0|0:0,0:0:0:0:
97,251,98328,2,0,P|113:314|135:344,1,90.9999972229005,8|0,0:0|0:0,0:0:0:0:
227,342,98681,2,0,P|286:370|323:372,1,90.9999972229005,10|0,0:0|0:0,0:0:0:0:
428,334,99034,6,0,B|398:233|398:233|411:183,1,136.499995834351,12|0,0:0|0:0,0:0:0:0:
423,175,99387,1,2,0:0:0:0:
464,84,99563,1,0,0:0:0:0:
374,38,99740,2,0,B|273:68|273:68|223:55,1,136.499995834351,8|0,0:0|0:0,0:0:0:0:
215,43,100093,1,2,0:0:0:0:
63,105,100446,6,0,B|77:184|172:174|172:174|247:163|286:213,1,272.999991668701,8|2,0:0|0:0,0:0:0:0:
374,261,101152,2,0,L|489:265,1,90.9999972229005,10|0,0:0|0:0,0:0:0:0:
504,356,101505,1,2,0:0:0:0:
504,356,101681,1,2,0:0:0:0:
405,376,101858,6,0,P|346:378|278:338,1,136.499995834351,12|0,0:0|0:0,0:0:0:0:
270,310,102210,1,2,0:0:0:0:
200,237,102387,1,0,0:0:0:0:
121,299,102563,2,0,P|30:251|76:178,1,181.999994445801,8|2,0:0|0:0,0:0:0:0:
107,58,103269,6,0,L|255:67,1,136.499995834351,8|0,0:0|0:0,0:0:0:0:
268,85,103622,1,2,0:0:0:0:
356,44,103799,1,0,0:0:0:0:
435,98,103975,2,0,P|443:153|430:199,1,90.9999972229005,8|0,0:0|0:0,0:0:0:0:
341,221,104328,2,0,P|333:276|346:322,1,90.9999972229005,10|2,0:0|0:0,0:0:0:0:
423,367,104681,6,0,P|354:360|266:373,1,136.499995834351,12|0,0:0|0:0,0:0:0:0:
254,382,105034,1,2,0:0:0:0:
157,356,105210,1,0,0:0:0:0:
116,264,105387,2,0,P|158:186|148:90,1,181.999994445801,8|2,0:0|0:0,0:0:0:0:
279,13,106093,6,0,B|368:2|368:2|430:38,1,136.499995834351,8|0,0:0|0:0,0:0:0:0:
433,52,106446,1,2,0:0:0:0:
376,134,106622,1,0,0:0:0:0:
444,207,106799,2,0,L|443:305,1,90.9999972229005,8|0,0:0|0:0,0:0:0:0:
362,358,107152,2,0,L|264:357,1,90.9999972229005,10|2,0:0|0:0,0:0:0:0:
186,302,107505,6,0,P|219:259|313:232,1,136.499995834351,12|0,0:0|0:0,0:0:0:0:
329,239,107858,1,2,0:0:0:0:
421,277,108034,1,0,0:0:0:0:
483,199,108210,2,0,P|485:120|407:29,1,181.999994445801,8|2,0:0|0:0,0:0:0:0:
268,137,108916,6,0,P|181:147|125:104,1,136.499995834351,8|0,0:0|0:0,0:0:0:0:
108,108,109269,2,0,L|100:207,1,90.9999972229005,10|0,0:0|0:0,0:0:0:0:
181,257,109622,2,0,L|238:337,1,90.9999972229005,8|0,0:0|0:0,0:0:0:0:
330,304,109975,2,0,L|426:329,1,90.9999972229005,10|0,0:0|0:0,0:0:0:0:
496,253,110328,6,0,B|516:186|516:186|491:108,2,146.250005578995,12|0|0,0:0|0:0|0:0,0:0:0:0:
418,326,111034,2,0,P|375:261|370:218,1,97.50000371933,2|0,0:1|0:0,0:0:0:0:
297,164,111387,2,0,P|281:209|250:246,1,97.50000371933,2|0,0:1|0:0,0:0:0:0:
147,279,111740,6,0,L|106:285,6,32.5000012397767,4|0|0|0|0|0|2,0:0|0:0|0:0|0:0|0:0|0:0|0:0,0:0:0:0:
226,351,112269,1,2,0:0:0:0:
329,321,112446,2,0,L|360:326,8,24.3750009298325,4|0|0|0|0|0|0|0|2,0:0|0:0|0:0|0:0|0:0|0:0|0:0|0:0|0:0,0:0:0:0:
373,214,113152,6,0,B|371:153|371:153|276:66,1,181.999994445801,4|8,0:0|0:0,0:0:0:0:
281,71,114563,2,0,B|229:94|229:94|180:91,2,90.9999972229005,2|0|8,0:1|0:0|0:0,0:0:0:0:
87,125,115975,6,0,B|70:218|97:281|161:280,1,181.999994445801,4|8,0:0|0:0,0:0:0:0:
143,278,117387,2,0,B|216:275|230:287|230:315,2,90.9999972229005,2|0|8,0:1|0:0|0:0,0:0:0:0:
270,369,118799,6,0,B|273:281|273:281|303:259|303:259|305:181,1,181.999994445801,4|8,0:0|0:0,0:0:0:0:
304,202,120210,2,0,B|351:201|351:201|359:186|359:186|386:186,2,90.9999972229005,2|0|8,0:1|0:0|0:0,0:0:0:0:
203,117,121622,6,0,P|153:152|111:64,1,181.999994445801,4|8,0:0|0:0,0:0:0:0:
108,67,123034,2,0,B|77:125|123:163|177:169|203:118|203:118|264:202|199:274|199:274|151:362|52:334|81:189|197:266|197:266|240:320|303:301,1,727.999977783204,2|0,0:1|0:0,0:0:0:0:
