osu file format v14

[General]
AudioFilename: audio.mp3
AudioLeadIn: 0
PreviewTime: 34005
Countdown: 0
SampleSet: Soft
StackLeniency: 0.3
Mode: 0
LetterboxInBreaks: 0
WidescreenStoryboard: 0

[Editor]
Bookmarks: 11505,22799,34093,56681,67975,79269,90563,113152
DistanceSpacing: 1
BeatDivisor: 4
GridSize: 4
TimelineZoom: 1.9

[Metadata]
Title:Proof of the existence
TitleUnicode:Proof of the existence
Artist:Nekomata Master+
ArtistUnicode:猫叉Master+
Creator:Alheak
Version:Normal
Source:beatmania IIDX 20 tricoro
Tags:SKSalt tasuke912 ORIGINAL SOUNDTRACK Volume 1 konami hard electronica Naoyuki Sato jubeat plus jukebeat saucer REFLEC BEAT colette -Summer- plus
BeatmapID:929834
BeatmapSetID:427864

[Difficulty]
HPDrainRate:3
CircleSize:3
OverallDifficulty:5
ApproachRate:5
SliderMultiplier:1.3
SliderTickRate:1

[Events]
//Background and Video events
0,0,"bg.jpg",0,0
//Break Periods
//Storyboard Layer 0 (Background)
//Storyboard Layer 1 (Fail)
//Storyboard Layer 2 (Pass)
//Storyboard Layer 3 (Foreground)
//Storyboard Sound Samples

[TimingPoints]
211,352.941176470588,4,2,1,10,1,0
10093,-100,4,2,1,20,0,0
11152,-133.333333333333,4,2,1,50,0,0
11505,-133.333333333333,4,2,1,40,0,0
12210,-133.333333333333,4,1,1,40,0,0
12387,-133.333333333333,4,2,1,40,0,0
13622,-133.333333333333,4,1,1,40,0,0
14328,-133.333333333333,4,2,1,40,0,0
15034,-133.333333333333,4,1,1,40,0,0
15210,-133.333333333333,4,2,1,40,0,0
16446,-133.333333333333,4,1,1,40,0,0
17152,-133.333333333333,4,3,1,40,0,0
17505,-133.333333333333,4,2,1,40,0,0
17858,-133.333333333333,4,1,1,40,0,0
18034,-133.333333333333,4,2,1,40,0,0
19269,-133.333333333333,4,1,1,40,0,0
19975,-133.333333333333,4,2,1,40,0,0
20593,-133.333333333333,4,3,1,40,0,0
22799,-133.333333333333,4,2,1,50,0,0
29858,-133.333333333333,4,2,1,55,0,0
31269,-133.333333333333,4,2,1,60,0,0
32681,-133.333333333333,4,2,1,65,0,0
33563,-133.333333333333,4,2,1,50,0,0
34093,-133.333333333333,4,2,1,70,0,0
56681,-133.333333333333,4,3,1,50,0,0
57387,-133.333333333333,4,3,1,40,0,0
62328,-133.333333333333,4,2,1,40,0,0
62681,-133.333333333333,4,1,1,40,0,0
63740,-133.333333333333,4,2,1,40,0,0
63916,-133.333333333333,4,1,1,40,0,0
65152,-133.333333333333,4,2,1,40,0,0
65328,-133.333333333333,4,1,1,40,0,0
66563,-133.333333333333,4,2,1,40,0,0
67269,-133.333333333333,4,3,1,70,0,0
67975,-133.333333333333,4,2,1,70,0,0
79269,-133.333333333333,4,3,1,50,0,0
79975,-133.333333333333,4,1,1,50,0,0
80681,-133.333333333333,4,2,1,30,0,0
82799,-133.333333333333,4,1,1,50,0,0
83505,-133.333333333333,4,2,1,30,0,0
84210,-133.333333333333,4,1,1,50,0,0
84916,-133.333333333333,4,3,1,50,0,0
86328,-133.333333333333,4,2,1,65,0,0
87740,-133.333333333333,4,2,1,70,0,0
89152,-133.333333333333,4,3,1,60,0,0
90210,-133.333333333333,4,2,1,70,0,0
90563,-100,4,2,1,80,0,1
101681,-100,4,2,1,80,0,0
101858,-100,4,2,1,80,0,1
113152,-133.333333333333,4,3,1,50,0,0
113505,-200,4,2,1,30,0,0
113858,-133.333333333333,4,1,1,50,0,0
114563,-133.333333333333,4,2,1,30,0,0
115269,-133.333333333333,4,1,1,50,0,0
115975,-133.333333333333,4,2,1,30,0,0
116681,-133.333333333333,4,1,1,50,0,0
117387,-133.333333333333,4,2,1,30,0,0
118093,-133.333333333333,4,1,1,50,0,0
118799,-133.333333333333,4,2,1,30,0,0
119505,-133.333333333333,4,1,1,50,0,0
120210,-133.333333333333,4,2,1,30,0,0
120916,-133.333333333333,4,1,1,50,0,0
121622,-133.333333333333,4,2,1,30,0,0
122328,-133.333333333333,4,1,1,50,0,0
123034,-133.333333333333,4,3,1,50,0,0

[Colours]
Combo1 : 224,125,101
Combo2 : 255,245,204
Combo3 : 255,201,100
Combo4 : 223,193,255
Combo5 : 175,128,227
Combo6 : 249,194,176

[HitObjects]
256,192,8681,12,0,10446,0:0:0:0:
287,38,11152,21,0,0:0:0:0:
362,106,11505,70,0,L|473:113,2,97.50000371933,2|2|8,0:0|0:0|0:0,0:0:0:0:
187,190,12916,6,0,P|168:247|172:291,2,97.50000371933,2|2|8,0:0|0:0|0:0,0:0:0:0:
305,32,14328,70,0,P|261:93|150:63,1,195.00000743866,2|8,0:0|0:0,0:0:0:0:
332,157,15740,6,0,B|390:168|390:168|431:158,2,97.50000371933,2|2|8,0:0|0:0|0:0,0:0:0:0:
149,225,17152,70,0,B|91:214|91:214|50:224,1,97.50000371933,4|2,0:0|0:0,0:0:0:0:
98,310,17858,1,8,0:0:0:0:
289,344,18563,6,0,P|337:345|382:328,1,97.50000371933,2|2,0:0|0:0,0:0:0:0:
321,251,19269,1,8,0:0:0:0:
205,94,19975,70,0,L|188:31,2,65.0000024795533,2|2|2,0:0|0:0|0:0,0:0:0:0:
192,145,20681,1,8,0:0:0:0:
386,149,21387,6,0,P|433:95|426:15,2,146.250005578995
342,63,22799,6,0,L|245:76,1,97.50000371933,6|2,0:0|0:0,0:0:0:0:
197,161,23505,2,0,B|234:177|234:177|291:168,1,97.50000371933,2|2,0:0|0:0,0:0:0:0:
386,149,24210,6,0,P|426:197|435:236,1,97.50000371933,2|2,0:0|0:0,0:0:0:0:
483,314,24916,2,0,B|446:330|446:330|389:321,1,97.50000371933,2|2,0:0|0:0,0:0:0:0:
336,239,25622,70,0,B|279:230|279:230|242:246,1,97.50000371933,2|2,0:0|0:0,0:0:0:0:
195,331,26328,2,0,P|155:283|146:244,1,97.50000371933,2|2,0:0|0:0,0:0:0:0:
194,164,27034,6,0,P|178:118|145:83,1,97.50000371933,2|2,0:0|0:0,0:0:0:0:
232,39,27740,2,0,L|334:30,1,97.50000371933,2|2,0:0|0:0,0:0:0:0:
376,115,28446,70,0,L|278:123,1,97.50000371933,2|2,0:0|0:0,0:0:0:0:
278,221,29152,2,0,P|293:266|326:301,1,97.50000371933,2|2,0:0|0:0,0:0:0:0:
424,298,29858,6,0,P|455:262|469:216,1,97.50000371933,2|2,0:0|0:0,0:0:0:0:
441,121,30563,2,0,L|451:17,1,97.50000371933,2|2,0:0|0:0,0:0:0:0:
353,37,31269,70,0,B|346:94|346:94|321:125,1,97.50000371933,2|2,0:0|0:0,0:0:0:0:
224,125,31975,2,0,P|237:171|269:207,1,97.50000371933,2|2,0:0|0:0,0:0:0:0:
367,213,32681,6,0,L|428:203,2,48.750001859665,2|0|2,0:0|0:0|0:0,0:0:0:0:
313,295,33387,1,2,0:0:0:0:
271,319,33563,54,0,P|232:311|159:321,1,97.50000371933
128,333,34093,38,0,B|133:276|133:276|116:228,1,97.50000371933,6|8,0:0|0:0,0:0:0:0:
80,148,34799,1,2,0:0:0:0:
88,100,34975,2,0,L|67:38,2,48.750001859665,0|8|0,0:0|0:0|0:0,0:0:0:0:
135,86,35505,6,0,P|174:94|247:84,1,97.50000371933,2|8,0:0|0:0,0:0:0:0:
315,40,36210,1,2,0:0:0:0:
362,49,36387,2,0,L|428:62,2,48.750001859665,0|8|0,0:0|0:0|0:0,0:0:0:0:
368,97,36916,70,0,L|385:202,1,97.50000371933,2|8,0:0|0:0,0:0:0:0:
453,261,37622,1,2,0:0:0:0:
426,302,37799,2,0,L|434:350,2,48.750001859665,0|8|0,0:0|0:0|0:0,0:0:0:0:
379,285,38328,6,0,P|340:277|267:287,1,97.50000371933,2|8,0:0|0:0,0:0:0:0:
237,301,38858,2,0,B|199:314|199:314|142:309,1,97.50000371933
96,326,39387,1,8,0:0:0:0:
90,228,39740,70,0,B|127:214|127:214|184:219,1,97.50000371933,2|8,0:0|0:0,0:0:0:0:
262,159,40446,1,2,0:0:0:0:
301,129,40623,2,0,L|349:134,2,48.750001859665,0|8|0,0:0|0:0|0:0,0:0:0:0:
283,83,41152,6,0,P|247:65|174:55,1,97.50000371933,2|8,0:0|0:0,0:0:0:0:
142,62,41681,1,0,0:0:0:0:
93,69,41858,2,0,P|90:41|81:10,2,48.750001859665,2|0|8,0:0|0:0|0:0,0:0:0:0:
45,157,42563,70,0,P|84:165|157:155,1,97.50000371933,2|8,0:0|0:0,0:0:0:0:
226,112,43269,1,2,0:0:0:0:
258,75,43446,2,0,P|269:49|277:18,2,48.750001859665,0|8|0,0:0|0:0|0:0,0:0:0:0:
325,145,44152,6,0,P|350:134|378:118,2,48.750001859665,0|8|0,0:0|0:0|0:0,0:0:0:0:
250,206,44858,2,0,B|240:228|240:228|239:253|239:253|228:275|228:275|230:300,1,97.50000371933,0|0,0:0|0:0,0:0:0:0:
254,342,45387,70,0,B|291:355|291:355|348:350,1,97.50000371933,6|8,0:0|0:0,0:0:0:0:
411,275,46093,1,2,0:0:0:0:
444,237,46270,2,0,L|492:232,2,48.750001859665,0|8|0,0:0|0:0|0:0,0:0:0:0:
418,195,46799,6,0,P|399:150|394:101,1,97.50000371933,2|8,0:0|0:0,0:0:0:0:
312,48,47505,2,0,P|306:96|288:141,1,97.50000371933,2|8,0:0|0:0,0:0:0:0:
251,173,48034,1,0,0:0:0:0:
206,192,48210,70,0,B|149:186|149:186|110:198,1,97.50000371933,2|8,0:0|0:0,0:0:0:0:
88,294,48916,1,2,0:0:0:0:
74,341,49093,2,0,L|27:356,2,48.750001859665,0|8|0,0:0|0:0|0:0,0:0:0:0:
106,377,49622,6,0,P|144:358|172:300,1,97.50000371933,2|8,0:0|0:0,0:0:0:0:
170,262,50152,2,0,L|266:272,1,97.50000371933,0|0,0:0|0:0,0:0:0:0:
315,280,50681,1,8,0:0:0:0:
382,209,51034,70,0,B|347:188|347:188|290:182,1,97.50000371933,2|8,0:0|0:0,0:0:0:0:
350,105,51740,1,2,0:0:0:0:
381,67,51916,2,0,L|441:60,2,48.750001859665,0|8|0,0:0|0:0|0:0,0:0:0:0:
361,21,52446,6,0,P|318:25|272:70,1,97.50000371933,2|8,0:0|0:0,0:0:0:0:
270,107,52975,1,0,0:0:0:0:
263,155,53152,2,0,L|277:207,2,48.750001859665,2|0|8,0:0|0:0|0:0,0:0:0:0:
168,148,53858,70,0,P|159:195|168:246,1,97.50000371933,2|8,0:0|0:0,0:0:0:0:
245,300,54563,1,2,0:0:0:0:
285,327,54740,2,0,L|292:387,2,48.750001859665,0|8|0,0:0|0:0|0:0,0:0:0:0:
319,233,55446,6,0,L|313:184,2,48.750001859665,0|8|0,0:0|0:0|0:0,0:0:0:0:
401,285,56152,2,0,B|413:246|413:246|407:189,1,97.50000371933,8|0,0:0|0:0,0:0:0:0:
420,142,56681,6,0,P|378:89|250:89,2,195.00000743866,4|8|4,0:2|0:0|0:0,0:0:0:0:
311,187,58799,1,8,0:0:0:0:
203,231,59505,6,0,P|245:284|373:284,2,195.00000743866,4|8|4,0:0|0:0|0:0,0:0:0:0:
222,113,61622,1,8,0:0:0:0:
120,51,62328,70,0,P|86:45|50:52,2,65.0000024795533,2|0|8,0:0|0:0|0:0,0:0:0:0:
138,85,63034,1,8,0:0:0:0:
75,184,63740,1,2,0:0:0:0:
192,187,64446,1,8,0:0:0:0:
132,287,65152,6,0,B|100:306|64:298,2,65.0000024795533,2|0|8,0:0|0:0|0:0,0:0:0:0:
169,296,65858,1,8,0:0:0:0:
213,187,66563,1,0,0:0:0:0:
323,224,67269,2,0,P|352:234|385:237,2,65.0000024795533,4|4|4,0:0|0:0|0:0,0:0:0:0:
296,195,67975,38,0,P|287:242|260:282,1,97.50000371933,6|8,0:0|0:0,0:0:0:0:
178,338,68681,2,0,B|136:350|136:350|78:342,1,97.50000371933,2|8,0:0|0:0,0:0:0:0:
65,247,69387,6,0,B|164:235,1,97.50000371933,2|8,0:0|0:0,0:0:0:0:
252,198,70093,2,0,P|282:191|307:190,2,48.750001859665,2|0|8,0:0|0:0|0:0,0:0:0:0:
177,141,70799,70,0,P|149:98|141:52,1,97.50000371933,2|8,0:0|0:0,0:0:0:0:
238,64,71505,2,0,L|341:55,1,97.50000371933,2|8,0:0|0:0,0:0:0:0:
402,125,72210,6,0,B|364:146|364:146|310:150,1,97.50000371933,2|8,0:0|0:0,0:0:0:0:
234,211,72916,2,0,L|185:214,2,48.750001859665,2|0|8,0:0|0:0|0:0,0:0:0:0:
269,302,73622,70,0,P|300:338|343:360,1,97.50000371933,2|8,0:0|0:0,0:0:0:0:
359,263,74328,2,0,B|400:250|400:250|454:257,1,97.50000371933,2|8,0:0|0:0,0:0:0:0:
468,160,75034,6,0,B|414:154|414:154|377:131,1,97.50000371933,2|8,0:0|0:0,0:0:0:0:
320,51,75740,2,0,P|314:29|312:3,2,48.750001859665,2|0|8,0:0|0:0|0:0,0:0:0:0:
280,140,76446,70,0,L|160:128,1,97.50000371933,2|8,0:0|0:0,0:0:0:0:
141,218,77152,2,0,L|238:227,1,97.50000371933,2|8,0:0|0:0,0:0:0:0:
295,306,77858,6,0,B|254:320|254:320|200:314,1,97.50000371933,2|8,0:0|0:0,0:0:0:0:
102,308,78563,2,0,P|64:279|52:178,1,146.250005578995,2|8,0:0|0:0,0:0:0:0:
69,141,79269,6,0,B|83:93|83:93|73:46|73:46|104:6|161:12,1,195.00000743866,4|8,0:2|0:0,0:0:0:0:
272,42,80681,6,0,P|317:48|377:33,2,97.50000371933,2|2|8,0:0|0:0|1:0,0:0:0:0:
171,102,82093,70,0,B|163:153|163:153|198:190|213:242|201:284,1,195.00000743866,2|8,0:0|0:0,0:0:0:0:
307,338,83505,6,0,B|365:352|365:352|415:342,2,97.50000371933,2|2|8,0:0|0:0|0:0,0:0:0:0:
338,225,84916,69,4,0:0:0:0:
256,192,85093,12,4,89152,0:0:0:0:
239,352,90210,38,0,P|253:339|265:313,1,48.750001859665
267,260,90563,6,0,B|349:269|349:269|401:258,1,130,6|8,0:0|0:0,0:0:0:0:
302,167,91269,2,0,P|220:172|184:206,1,130,2|8,0:0|0:0,0:0:0:0:
94,295,91975,6,0,B|100:251|100:251|89:209|89:209|95:166,1,130,2|8,0:0|0:0,0:0:0:0:
55,43,92681,1,2,0:0:0:0:
181,71,93034,1,8,0:0:0:0:
304,32,93387,70,0,P|303:115|277:160,1,130,2|8,0:0|0:0,0:0:0:0:
236,277,94093,2,0,P|308:236|360:236,1,130,2|8,0:0|0:0,0:0:0:0:
483,214,94799,6,0,P|411:171|385:126,1,130,2|8,0:0|0:0,0:0:0:0:
509,85,95505,1,2,0:0:0:0:
407,3,95858,1,8,0:0:0:0:
286,51,96210,70,0,B|239:60|239:60|157:51,1,130,6|8,0:0|0:0,0:0:0:0:
72,150,96916,2,0,B|154:158|154:158|198:176,1,130,2|8,0:0|0:0,0:0:0:0:
122,282,97622,5,2,0:0:0:0:
211,376,97975,1,8,0:0:0:0:
338,349,98328,1,2,0:0:0:0:
260,244,98681,1,8,0:0:0:0:
303,122,99034,70,0,P|352:162|415:175,1,130,2|8,0:0|0:0,0:0:0:0:
408,45,99740,2,0,B|358:41|358:41|322:18|277:26,1,130,2|8,0:0|0:0,0:0:0:0:
154,58,100446,6,0,B|148:100|148:100|158:142|158:142|152:185,1,130,2|8,0:0|0:0,0:0:0:0:
74,290,101152,1,2,0:0:0:0:
202,307,101505,1,2,0:0:0:0:
281,203,101858,70,0,P|330:162|393:149,1,130,6|8,0:0|0:0,0:0:0:0:
453,264,102563,2,0,P|403:304|340:317,1,130,2|8,0:0|0:0,0:0:0:0:
202,307,103269,6,0,B|156:293|156:293|118:311|72:302,1,130,2|8,0:0|0:0,0:0:0:0:
104,175,103975,1,2,0:0:0:0:
64,51,104328,1,8,0:0:0:0:
191,71,104681,70,0,B|233:65|233:65|275:75|275:75|318:69,1,130,2|8,0:0|0:0,0:0:0:0:
437,8,105387,2,0,P|484:58|483:119,1,130,2|8,0:0|0:0,0:0:0:0:
452,242,106093,6,0,L|322:259,1,130,2|8,0:0|0:0,0:0:0:0:
230,351,106799,1,2,0:0:0:0:
104,316,107152,1,8,0:0:0:0:
195,224,107505,70,0,P|220:164|216:100,1,130,6|8,0:0|0:0,0:0:0:0:
115,19,108210,2,0,P|89:77|92:141,1,130,2|8,0:0|0:0,0:0:0:0:
120,269,108916,5,2,0:0:0:0:
220,351,109269,1,8,0:0:0:0:
350,351,109622,1,2,0:0:0:0:
455,274,109975,1,8,0:0:0:0:
483,146,110328,70,0,B|489:92|489:92|481:54,2,86.6666666666667,6|2|2,0:0|0:0|0:0,0:0:0:0:
396,156,111034,2,0,B|365:129|365:129|348:86|370:43,1,130,6|2,0:0|0:0,0:0:0:0:
241,47,111740,6,0,P|182:33|106:44,1,130,2|8,0:0|0:0,0:0:0:0:
195,142,112446,2,0,P|134:143|63:174,1,130,2|2,0:0|0:0,0:0:0:0:
175,245,113152,6,0,P|252:279|256:386,1,195.00000743866,4|8,0:2|0:0,0:0:0:0:
367,333,114563,6,0,P|421:319|462:320,2,97.50000371933,2|2|8,0:0|0:0|0:0,0:0:0:0:
357,216,115975,70,0,B|336:157|363:100|363:100|345:64|306:40,1,195.00000743866,2|8,0:0|0:0,0:0:0:0:
250,150,117387,6,0,P|249:198|262:245,2,97.50000371933,2|2|8,0:0|0:0|0:0,0:0:0:0:
155,80,118799,70,0,P|77:114|73:221,1,195.00000743866,2|8,0:0|0:0,0:0:0:0:
165,281,120210,6,0,B|178:319|178:319|170:379,2,97.50000371933,2|2|8,0:0|0:0|0:0,0:0:0:0:
245,196,121622,70,0,B|312:205|312:205|374:194|374:194|437:202,1,195.00000743866,2|8,0:0|0:0,0:0:0:0:
380,305,123034,5,4,0:0:0:0:
