osu file format v14

[General]
AudioFilename: audio.mp3
AudioLeadIn: 0
PreviewTime: 34005
Countdown: 0
SampleSet: Soft
StackLeniency: 0.2
Mode: 0
LetterboxInBreaks: 0
WidescreenStoryboard: 0

[Editor]
Bookmarks: 11505,22799,34093,56681,67975,79269,90563,113152
DistanceSpacing: 0.4
BeatDivisor: 4
GridSize: 4
TimelineZoom: 1.9

[Metadata]
Title:Proof of the existence
TitleUnicode:Proof of the existence
Artist:Nekomata Master+
ArtistUnicode:猫叉Master+
Creator:Alheak
Version:Expert
Source:beatmania IIDX 20 tricoro
Tags:SKSalt tasuke912 ORIGINAL SOUNDTRACK Volume 1 konami hard electronica Naoyuki Sato jubeat plus jukebeat saucer REFLEC BEAT colette -Summer- plus
BeatmapID:923589
BeatmapSetID:427864

[Difficulty]
HPDrainRate:6
CircleSize:4.5
OverallDifficulty:9
ApproachRate:9.2
SliderMultiplier:1.8
SliderTickRate:1

[Events]
//Background and Video events
0,0,"bg.jpg",0,0
//Break Periods
//Storyboard Layer 0 (Background)
//Storyboard Layer 1 (Fail)
//Storyboard Layer 2 (Pass)
//Storyboard Layer 3 (Foreground)
//Storyboard Sound Samples

[TimingPoints]
211,352.941176470588,4,2,1,10,1,0
10093,-100,4,2,1,20,0,0
10446,-100,4,2,1,30,0,0
10799,-200,4,2,1,40,0,0
11152,-200,4,2,1,50,0,0
11505,-200,4,2,1,40,0,0
12210,-200,4,1,1,40,0,0
12387,-200,4,2,1,40,0,0
13622,-200,4,1,1,40,0,0
14328,-200,4,2,1,40,0,0
15034,-200,4,1,1,40,0,0
15210,-200,4,2,1,40,0,0
16446,-200,4,1,1,40,0,0
17152,-200,4,3,1,40,0,0
17505,-200,4,2,1,40,0,0
17858,-200,4,1,1,40,0,0
18034,-200,4,2,1,40,0,0
19269,-200,4,1,1,40,0,0
19975,-200,4,2,1,40,0,0
20593,-200,4,3,1,40,0,0
22799,-133.333333333333,4,2,1,50,0,0
29858,-133.333333333333,4,2,1,55,0,0
31269,-133.333333333333,4,2,1,60,0,0
32681,-133.333333333333,4,2,1,65,0,0
33563,-200,4,2,1,50,0,0
34005,-200,4,2,1,40,0,0
34093,-100,4,2,1,70,0,0
56681,-200,4,3,1,50,0,0
57387,-200,4,3,1,40,0,0
62328,-200,4,2,1,40,0,0
62681,-200,4,1,1,40,0,0
63740,-200,4,2,1,40,0,0
63916,-200,4,1,1,40,0,0
65152,-200,4,2,1,40,0,0
65328,-200,4,1,1,40,0,0
66563,-200,4,2,1,40,0,0
66740,-200,4,1,1,40,0,0
67269,-133.333333333333,4,3,1,70,0,0
67975,-100,4,2,1,70,0,0
79269,-200,4,3,1,50,0,0
79975,-200,4,1,1,50,0,0
80681,-200,4,2,1,30,0,0
82799,-200,4,1,1,50,0,0
83505,-200,4,2,1,30,0,0
84210,-200,4,1,1,50,0,0
84916,-200,4,3,1,50,0,0
86328,-200,4,2,1,65,0,0
87740,-200,4,2,1,70,0,0
89152,-200,4,3,1,60,0,0
90210,-133.333333333333,4,2,1,70,0,0
90475,-133.333333333333,4,2,1,10,0,0
90563,-100,4,2,1,80,0,1
101681,-100,4,2,1,80,0,0
101858,-100,4,2,1,80,0,1
113152,-200,4,3,1,50,0,0
113505,-200,4,2,1,30,0,0
113858,-200,4,1,1,50,0,0
114563,-200,4,2,1,30,0,0
115269,-200,4,1,1,50,0,0
115975,-200,4,2,1,30,0,0
116681,-200,4,1,1,50,0,0
117387,-200,4,2,1,30,0,0
118093,-200,4,1,1,50,0,0
118799,-200,4,2,1,30,0,0
119505,-200,4,1,1,50,0,0
120210,-200,4,2,1,30,0,0
120916,-200,4,1,1,50,0,0
121622,-200,4,2,1,30,0,0
122328,-200,4,1,1,50,0,0
123034,-200,4,3,1,50,0,0

[Colours]
Combo1 : 224,125,101
Combo2 : 255,245,204
Combo3 : 255,201,100
Combo4 : 223,193,255
Combo5 : 175,128,227
Combo6 : 249,194,176

[HitObjects]
256,192,9740,12,2,11152,0:0:0:0:
180,110,11505,6,0,L|189:160,1,45,2|0,0:0|0:0,0:0:0:0:
271,224,11858,2,0,L|263:180,1,45,2|0,0:0|0:0,0:0:0:0:
316,84,12211,2,0,L|309:39,2,45,8|0|0,0:0|0:0|0:0,0:0:0:0:
369,177,12740,1,0,0:0:0:0:
369,177,12828,1,0,0:0:0:0:
369,177,12916,6,0,L|414:170,1,45,2|0,0:0|0:0,0:0:0:0:
508,224,13269,2,0,L|463:231,1,45,2|0,0:0|0:0,0:0:0:0:
401,305,13622,2,0,L|329:320,2,60,8|8|8,0:0|0:0|0:0,0:0:0:0:
270,367,14328,70,0,L|262:323,1,45,2|0,0:0|0:0,0:0:0:0:
179,252,14681,2,0,L|188:303,1,45,2|0,0:0|0:0,0:0:0:0:
233,157,15034,2,0,L|225:113,2,45,8|0|0,0:0|0:0|0:0,0:0:0:0:
287,252,15563,1,0,0:0:0:0:
287,252,15652,1,0,0:0:0:0:
287,252,15740,6,0,L|337:242,1,45,2|0,0:0|0:0,0:0:0:0:
340,135,16093,2,0,L|390:125,1,45,2|0,0:0|0:0,0:0:0:0:
304,38,16446,2,0,L|245:49,2,60,8|8|8,0:0|0:0|0:0,0:0:0:0:
218,124,17152,70,0,L|173:132,1,45,4|0,0:0|0:0,0:0:0:0:
103,215,17505,2,0,L|153:205,1,45,2|0,0:0|0:0,0:0:0:0:
243,259,17858,2,0,L|287:251,2,45,8|0|0,0:0|0:0|0:0,0:0:0:0:
150,316,18387,1,0,0:0:0:0:
150,316,18475,1,0,0:0:0:0:
150,316,18563,6,0,L|105:324,1,45,2|0,0:0|0:0,0:0:0:0:
198,377,18916,2,0,L|243:370,1,45,2|0,0:0|0:0,0:0:0:0:
105,324,19269,2,0,L|45:334,2,60,8|8|0,0:0|0:0|0:0,0:0:0:0:
226,246,19975,70,0,L|285:235,2,60,2|2|2,0:0|0:0|0:0,0:0:0:0:
288,231,20622,1,8,0:0:0:0:
292,227,20681,2,0,L|346:217,2,45,8|0|0,0:0|0:0|0:0,0:0:0:0:
400,274,21210,1,0,0:0:0:0:
400,274,21299,1,0,0:0:0:0:
400,274,21387,1,0,0:0:0:0:
400,274,21916,70,0,B|421:250|425:217|423:182|388:153|388:153|376:110|376:110|401:124,1,202.5
336,219,22799,38,0,P|298:214|261:201,1,67.5000025749208,6|0,0:0|0:0,0:0:0:0:
99,190,23063,1,0,0:0:0:0:
107,208,23152,2,0,P|140:201|171:188,1,67.5000025749208,2|0,0:0|0:0,0:0:0:0:
243,82,23416,1,0,0:0:0:0:
247,62,23505,2,0,L|232:139,1,67.5000025749208,2|0,0:0|0:0,0:0:0:0:
206,283,23769,1,0,0:0:0:0:
202,303,23858,1,2,0:0:0:0:
336,219,24034,2,0,P|366:205|399:198,1,67.5000025749208,0|2,0:0|0:0,0:0:0:0:
169,208,24387,5,0,0:0:0:0:
149,214,24475,2,0,L|112:226,1,33.7500012874604,0|2,0:0|0:0,0:0:0:0:
289,288,24740,2,0,P|315:308|338:332,1,67.5000025749208,0|2,0:0|0:0,0:0:0:0:
296,163,25093,1,0,0:0:0:0:
299,145,25181,2,0,L|309:93,1,33.7500012874604,0|2,0:0|0:0,0:0:0:0:
172,29,25446,1,0,0:0:0:0:
172,29,25534,1,0,0:0:0:0:
172,29,25622,70,0,L|185:94,1,67.5000025749208,2|0,0:0|0:0,0:0:0:0:
88,211,25887,1,0,0:0:0:0:
106,221,25975,2,0,P|136:207|169:200,1,67.5000025749208,2|0,0:0|0:0,0:0:0:0:
360,237,26240,1,0,0:0:0:0:
342,247,26328,2,0,P|309:237|276:233,1,67.5000025749208,2|0,0:0|0:0,0:0:0:0:
75,322,26593,1,0,0:0:0:0:
94,327,26681,1,2,0:0:0:0:
346,358,26858,6,0,P|316:339|285:327,1,67.5000025749208,0|2,0:0|0:0,0:0:0:0:
408,162,27210,1,0,0:0:0:0:
412,142,27298,2,0,L|420:104,1,33.7500012874604,0|2,0:0|0:0,0:0:0:0:
250,197,27563,2,0,L|315:182,1,67.5000025749208,0|2,0:0|0:0,0:0:0:0:
119,322,27917,1,0,0:0:0:0:
99,326,28005,2,0,L|61:334,1,33.7500012874604,0|2,0:0|0:0,0:0:0:0:
277,287,28269,1,0,0:0:0:0:
277,287,28358,1,0,0:0:0:0:
277,287,28446,70,0,L|211:301,1,67.5000025749208,2|0,0:0|0:0,0:0:0:0:
370,268,28710,1,0,0:0:0:0:
390,264,28799,2,0,L|428:256,3,33.7500012874604,2|0|0|0,0:0|0:0|0:0|0:0,0:0:0:0:
282,175,29152,2,0,L|237:185,2,33.7500012874604,2|0|0,0:0|0:0|0:0,0:0:0:0:
392,65,29416,1,0,0:0:0:0:
412,62,29505,2,0,L|458:53,1,33.7500012874604,2|0,0:0|0:0,0:0:0:0:
237,13,29681,2,0,L|280:5,1,33.7500012874604
150,107,29858,6,0,L|154:155,2,33.7500012874604,2|0|0,0:0|0:0|0:0,0:0:0:0:
216,211,30122,1,0,0:0:0:0:
216,211,30210,2,0,L|212:259,1,33.7500012874604,2|0,0:0|0:0,0:0:0:0:
247,119,30387,2,0,L|249:85,1,33.7500012874604
311,190,30563,2,0,L|315:238,2,33.7500012874604,2|0|0,0:0|0:0|0:0,0:0:0:0:
377,294,30828,1,0,0:0:0:0:
377,294,30916,2,0,L|373:342,1,33.7500012874604,2|0,0:0|0:0,0:0:0:0:
408,202,31093,2,0,L|410:168,1,33.7500012874604
472,273,31269,70,0,L|476:321,2,33.7500012874604,2|0|0,0:0|0:0|0:0,0:0:0:0:
502,183,31534,1,0,0:0:0:0:
502,183,31622,2,0,L|499:149,1,33.7500012874604,2|0,0:0|0:0,0:0:0:0:
442,46,31799,2,0,L|440:80,1,33.7500012874604
410,168,31975,2,0,L|408:202,2,33.7500012874604,2|0|0,0:0|0:0|0:0,0:0:0:0:
349,96,32240,1,0,0:0:0:0:
349,96,32328,2,0,L|346:62,1,33.7500012874604,2|0,0:0|0:0,0:0:0:0:
193,157,32505,1,0,0:0:0:0:
188,177,32593,1,0,0:0:0:0:
183,197,32681,5,2,0:0:0:0:
209,193,32769,1,0,0:0:0:0:
235,188,32858,1,0,0:0:0:0:
261,184,32946,1,0,0:0:0:0:
287,180,33034,1,2,0:0:0:0:
260,201,33121,1,0,0:0:0:0:
246,232,33210,1,0,0:0:0:0:
248,265,33298,1,0,0:0:0:0:
264,294,33386,1,2,0:0:0:0:
291,313,33475,1,0,0:0:0:0:
317,245,33563,54,0,P|347:268|357:341,1,112.5
149,322,34093,38,0,L|59:314,1,90,6|0,0:0|0:0,0:0:0:0:
87,154,34358,1,0,0:0:0:0:
87,154,34446,2,0,P|117:198|120:239,1,90,8|0,0:0|0:0,0:0:0:0:
229,92,34710,1,0,0:0:0:0:
229,92,34798,2,0,P|199:136|196:177,1,90,2|0,0:0|0:0,0:0:0:0:
306,293,35152,1,8,0:0:0:0:
356,136,35328,1,0,0:0:0:0:
356,136,35505,6,0,L|445:128,1,90,2|0,0:0|0:0,0:0:0:0:
324,153,35769,1,0,0:0:0:0:
292,170,35858,2,0,L|202:162,1,90,8|0,0:0|0:0,0:0:0:0:
320,192,36121,1,0,0:0:0:0:
349,215,36210,2,0,L|438:207,2,90,2|0|8,0:0|0:0|0:0,0:0:0:0:
296,264,36622,1,0,0:0:0:0:
296,264,36681,1,0,0:0:0:0:
296,264,36740,1,0,0:0:0:0:
247,72,36916,70,0,P|192:49|137:47,1,90,2|0,0:0|0:0,0:0:0:0:
24,117,37181,1,0,0:0:0:0:
7,138,37269,2,0,P|48:122|93:118,1,90,8|0,0:0|0:0,0:0:0:0:
226,198,37534,1,0,0:0:0:0:
241,220,37622,2,0,P|200:201|155:194,1,90,2|0,0:0|0:0,0:0:0:0:
84,360,37975,1,8,0:0:0:0:
313,305,38152,1,0,0:0:0:0:
313,305,38328,6,0,B|340:271|340:271|352:223,1,90,2|0,0:0|0:0,0:0:0:0:
380,111,38593,1,0,0:0:0:0:
386,85,38681,2,0,L|429:74,1,45,8|0,0:0|0:0,0:0:0:0:
254,139,38858,2,0,L|298:150,1,45
126,102,39034,2,0,L|169:91,1,45,2|8,0:0|0:0,0:0:0:0:
90,192,39210,2,0,P|108:232|115:277,1,90,0|8,0:0|0:0,0:0:0:0:
115,357,39446,1,0,0:0:0:0:
115,357,39505,1,0,0:0:0:0:
115,357,39563,1,0,0:0:0:0:
259,248,39740,70,0,L|273:352,1,90,2|0,0:0|0:0,0:0:0:0:
350,237,40005,1,0,0:0:0:0:
365,214,40093,2,0,L|351:318,1,90,8|0,0:0|0:0,0:0:0:0:
274,203,40358,1,0,0:0:0:0:
259,180,40446,2,0,L|273:284,1,90,2|0,0:0|0:0,0:0:0:0:
415,63,40799,1,8,0:0:0:0:
190,42,40975,1,0,0:0:0:0:
190,42,41152,6,0,P|145:37|101:44,1,90,2|0,0:0|0:0,0:0:0:0:
228,115,41416,1,0,0:0:0:0:
252,102,41505,2,0,P|296:97|340:104,1,90,8|0,0:0|0:0,0:0:0:0:
412,146,41740,2,0,L|450:141,2,30,0|0|2,0:0|0:0|0:0,0:0:0:0:
406,272,42034,1,0,0:0:0:0:
281,202,42210,1,8,0:0:0:0:
272,365,42387,1,0,0:0:0:0:
93,271,42563,70,0,B|61:241|61:241|41:196,1,90,2|0,0:0|0:0,0:0:0:0:
97,46,42828,1,0,0:0:0:0:
97,46,42916,2,0,B|95:91|95:91|111:132,1,90,8|0,0:0|0:0,0:0:0:0:
263,195,43181,1,0,0:0:0:0:
263,195,43269,2,0,B|228:162|228:162|213:122,1,90,2|0,0:0|0:0,0:0:0:0:
392,73,43622,1,8,0:0:0:0:
435,248,43799,1,0,0:0:0:0:
435,248,43975,6,0,L|425:355,1,90,2|0,0:0|0:0,0:0:0:0:
371,381,44210,1,0,0:0:0:0:
371,381,44269,1,0,0:0:0:0:
371,381,44328,1,8,0:0:0:0:
306,261,44505,2,0,L|315:172,2,90,0|2|0,0:0|0:0|0:0,0:0:0:0:
251,305,44946,1,0,0:0:0:0:
224,300,45034,1,0,0:0:0:0:
197,295,45122,1,0,0:0:0:0:
170,290,45210,1,0,0:0:0:0:
143,286,45299,1,0,0:0:0:0:
91,242,45387,70,0,P|97:286|92:330,1,90,6|0,0:0|0:0,0:0:0:0:
78,216,45652,1,0,0:0:0:0:
65,190,45740,2,0,P|58:145|63:101,1,90,8|0,0:0|0:0,0:0:0:0:
176,39,46005,1,0,0:0:0:0:
189,65,46093,2,0,P|195:109|190:153,1,90,2|0,0:0|0:0,0:0:0:0:
306,268,46446,1,8,0:0:0:0:
372,48,46622,2,0,L|387:-1,1,45
397,70,46799,6,0,L|493:62,1,90,2|0,0:0|0:0,0:0:0:0:
426,151,47063,1,0,0:0:0:0:
408,172,47152,2,0,L|318:179,1,90,8|0,0:0|0:0,0:0:0:0:
393,256,47416,1,0,0:0:0:0:
414,273,47505,2,0,L|503:265,2,90,2|0|8,0:0|0:0|0:0,0:0:0:0:
366,327,47916,1,0,0:0:0:0:
366,327,47975,1,0,0:0:0:0:
366,327,48034,1,0,0:0:0:0:
248,203,48210,70,0,P|211:176|170:160,1,90,2|0,0:0|0:0,0:0:0:0:
25,191,48475,1,0,0:0:0:0:
18,217,48563,2,0,P|59:199|94:170,1,90,8|0,0:0|0:0,0:0:0:0:
139,29,48828,1,0,0:0:0:0:
120,10,48916,2,0,P|114:54|121:98,1,90,2|0,0:0|0:0,0:0:0:0:
161,301,49269,1,8,0:0:0:0:
320,164,49446,2,0,L|330:207,1,45
246,115,49622,6,0,B|237:158|237:158|248:203,1,90,2|0,0:0|0:0,0:0:0:0:
401,165,49887,1,0,0:0:0:0:
401,165,49975,2,0,B|389:120|389:120|362:85,2,90,8|0|2,0:0|0:0|0:0,0:0:0:0:
351,278,50416,1,8,0:0:0:0:
351,278,50505,2,0,L|366:323,1,45
330,207,50681,1,8,0:0:0:0:
330,207,50740,1,0,0:0:0:0:
330,207,50799,1,0,0:0:0:0:
330,207,50858,1,0,0:0:0:0:
169,288,51034,70,0,P|127:306|83:312,1,90,2|0,0:0|0:0,0:0:0:0:
171,204,51299,1,0,0:0:0:0:
197,197,51387,2,0,P|232:169|258:132,1,90,8|0,0:0|0:0,0:0:0:0:
113,152,51652,1,0,0:0:0:0:
94,172,51740,2,0,P|53:190|8:197,1,90,2|0,0:0|0:0,0:0:0:0:
169,288,52093,1,8,0:0:0:0:
181,85,52269,2,0,L|186:37,1,45
144,24,52446,6,0,B|185:39|185:39|231:35,1,90,2|0,0:0|0:0,0:0:0:0:
391,71,52710,1,0,0:0:0:0:
391,71,52799,2,0,B|345:75|345:75|307:97,1,90,8|0,0:0|0:0,0:0:0:0:
253,144,53034,2,0,L|215:147,2,30,0|0|2,0:0|0:0|0:0,0:0:0:0:
376,167,53328,1,0,0:0:0:0:
242,224,53505,1,8,0:0:0:0:
399,261,53681,1,0,0:0:0:0:
224,303,53858,70,0,L|133:310,1,90,2|0,0:0|0:0,0:0:0:0:
228,186,54122,1,0,0:0:0:0:
228,186,54210,2,0,B|269:201|269:201|315:197,1,90,8|0,0:0|0:0,0:0:0:0:
142,104,54475,1,0,0:0:0:0:
142,104,54563,2,0,B|104:125|104:125|58:129,1,90,2|0,0:0|0:0,0:0:0:0:
264,249,54916,1,8,0:0:0:0:
365,68,55093,1,0,0:0:0:0:
365,68,55269,6,0,P|406:51|451:47,1,90,2|0,0:0|0:0,0:0:0:0:
502,101,55505,2,0,L|507:138,2,30,0|0|8,0:0|0:0|0:0,0:0:0:0:
312,158,55799,2,0,P|270:141|225:137,1,90,0|2,0:0|0:0,0:0:0:0:
363,248,56152,1,8,0:0:0:0:
167,275,56328,1,0,0:0:0:0:
167,275,56387,1,0,0:0:0:0:
167,275,56446,1,0,0:0:0:0:
167,275,56505,2,0,L|163:321,1,45
80,224,56681,6,0,L|86:147,2,60,4|0|0,0:2|0:0|0:0,0:0:0:0:
183,141,57269,1,0,0:0:0:0:
183,141,57328,1,0,0:0:0:0:
183,141,57387,2,0,L|176:64,2,60,8|0|0,0:0|0:0|0:0,0:0:0:0:
306,188,58093,5,4,0:0:0:0:
306,188,58799,1,8,0:0:0:0:
387,167,59034,1,0,0:0:0:0:
445,226,59269,1,0,0:0:0:0:
283,267,59505,70,0,L|222:285,2,60,4|0|0,0:0|0:0|0:0,0:0:0:0:
387,167,60093,1,0,0:0:0:0:
387,167,60152,1,0,0:0:0:0:
387,167,60210,2,0,L|448:185,2,60,8|0|0,0:0|0:0|0:0,0:0:0:0:
249,127,60916,5,4,0:0:0:0:
108,159,61622,1,8,0:0:0:0:
96,173,61975,2,0,L|88:213,2,30
113,90,62328,5,2,0:0:0:0:
193,63,62563,1,0,0:0:0:0:
256,118,62799,2,0,L|294:104,1,30,8|0,0:0|0:0,0:0:0:0:
253,124,62975,1,0,0:0:0:0:
250,130,63034,1,8,0:0:0:0:
233,212,63269,1,8,0:0:0:0:
296,267,63505,1,8,0:0:0:0:
152,238,63740,6,0,L|96:259,2,60,2|8|8,0:0|0:0|0:0,0:0:0:0:
313,184,64446,1,8,0:0:0:0:
376,240,64681,1,8,0:0:0:0:
359,322,64916,1,8,0:0:0:0:
455,212,65152,70,0,L|512:194,2,60,2|8|8,0:0|0:0|0:0,0:0:0:0:
453,217,65681,1,0,0:0:0:0:
451,222,65740,1,0,0:0:0:0:
449,227,65799,1,0,0:0:0:0:
447,232,65858,2,0,L|390:250,1,60,8|8,0:0|0:0,0:0:0:0:
233,212,66210,1,0,0:0:0:0:
233,212,66269,1,0,0:0:0:0:
233,212,66328,2,0,L|193:226,1,30,8|0,0:0|0:0,0:0:0:0:
311,184,66563,5,2,0:0:0:0:
326,102,66799,1,8,0:0:0:0:
263,48,67034,1,8,0:0:0:0:
404,74,67269,22,0,L|461:85,1,45.0000017166138,4|0,0:0|0:0,0:0:0:0:
247,131,67505,22,0,L|202:122,1,45.0000017166138,4|0,0:0|0:0,0:0:0:0:
403,226,67740,22,0,L|447:234,1,45.0000017166138,4|0,0:0|0:0,0:0:0:0:
215,295,67975,6,0,B|126:277|126:277|148:306,1,120,6|2,0:0|3:0,0:0:0:0:
244,376,68328,1,8,0:0:0:0:
271,230,68446,2,0,P|268:199|251:154,1,60,2|0,3:0|0:0,0:0:0:0:
212,118,68622,1,0,0:0:0:0:
212,118,68681,2,0,B|240:31|240:31|255:65,1,120,2|2,0:0|3:0,0:0:0:0:
143,134,69034,1,8,0:0:0:0:
329,155,69152,2,0,L|390:140,1,60,2|0,3:0|0:0,0:0:0:0:
271,230,69387,6,0,B|226:218|226:218|165:224,1,90,2|0,0:0|0:0,0:0:0:0:
120,333,69740,2,0,L|243:323,1,90,8|0,0:0|0:0,0:0:0:0:
56,223,70093,1,2,0:0:0:0:
56,223,70181,1,8,0:0:0:0:
56,223,70269,2,0,L|52:274,1,45
120,333,70446,1,8,0:0:0:0:
125,153,70563,2,0,L|131:81,1,60,2|0,3:0|0:0,0:0:0:0:
267,172,70799,70,0,P|312:181|393:166,1,120,2|2,0:0|3:0,0:0:0:0:
296,269,71152,1,8,0:0:0:0:
359,84,71269,2,0,P|391:82|418:88,1,60,2|0,3:0|0:0,0:0:0:0:
471,146,71446,1,0,0:0:0:0:
471,146,71505,2,0,B|481:191|455:224|455:224|461:266,1,120,2|2,0:0|3:0,0:0:0:0:
384,170,71858,1,8,0:0:0:0:
296,269,71975,2,0,P|264:271|236:264,1,60,2|0,3:0|0:0,0:0:0:0:
123,196,72210,6,0,P|133:242|127:293,1,90,2|0,0:0|0:0,0:0:0:0:
198,136,72563,2,0,P|188:90|194:39,1,90,8|0,0:0|0:0,0:0:0:0:
92,89,72916,1,2,0:0:0:0:
92,89,73005,1,8,0:0:0:0:
92,89,73093,2,0,L|36:83,1,45
198,136,73269,1,8,0:0:0:0:
232,126,73358,1,0,0:0:0:0:
267,124,73446,1,0,0:0:0:0:
302,131,73534,1,0,0:0:0:0:
367,115,73622,70,0,B|445:97|445:97|509:106,1,120,2|2,0:0|3:0,0:0:0:0:
380,22,73975,1,8,0:0:0:0:
328,212,74093,2,0,P|326:244|333:272,1,60,2|0,3:0|0:0,0:0:0:0:
267,124,74328,2,0,B|189:142|189:142|125:133,1,120,2|2,0:0|3:0,0:0:0:0:
95,28,74681,1,8,0:0:0:0:
82,196,74799,2,0,L|74:255,1,60,2|0,3:0|0:0,0:0:0:0:
195,336,75034,6,0,P|192:284|205:243,1,90,2|0,0:0|0:0,0:0:0:0:
321,165,75387,2,0,P|324:217|311:258,1,90,8|0,0:0|0:0,0:0:0:0:
189,104,75740,1,2,0:0:0:0:
189,104,75828,1,8,0:0:0:0:
189,104,75916,2,0,L|238:98,1,45
360,86,76093,1,8,0:0:0:0:
202,248,76210,2,0,P|209:222|208:189,1,60,2|0,3:0|0:0,0:0:0:0:
184,15,76446,70,0,B|263:6|263:6|326:23,1,120,2|2,0:0|3:0,0:0:0:0:
438,66,76799,1,8,0:0:0:0:
255,97,76916,2,0,P|253:129|241:160,1,60,2|0,3:0|0:0,0:0:0:0:
204,218,77093,1,0,0:0:0:0:
204,218,77152,2,0,P|237:188|319:190,1,120,2|2,0:0|3:0,0:0:0:0:
419,176,77505,1,8,0:0:0:0:
276,264,77622,2,0,P|266:292|264:322,1,60,2|0,3:0|0:0,0:0:0:0:
309,185,77858,6,0,B|319:140|319:140|311:95,1,90,2|0,0:0|0:0,0:0:0:0:
162,36,78210,2,0,B|152:81|152:81|160:126,1,90,8|0,0:0|0:0,0:0:0:0:
183,212,78475,1,8,0:0:0:0:
183,212,78563,69,2,0:0:0:0:
147,204,78652,1,0,0:0:0:0:
111,208,78740,1,8,0:0:0:0:
82,230,78828,1,0,0:0:0:0:
67,281,78916,5,2,0:0:0:0:
105,242,79005,1,0,0:0:0:0:
116,189,79093,1,8,0:0:0:0:
102,136,79181,1,0,0:0:0:0:
52,84,79269,6,0,B|74:64|103:58|136:71|136:71|175:65|175:65|200:79|225:78,1,180,4|8,0:2|0:0,0:0:0:0:
269,215,80681,6,0,B|266:231|256:246|256:246|272:272|271:299,2,90,2|2|8,0:0|0:0|1:0,0:0:0:0:
362,107,82093,70,0,P|408:97|459:208,1,180,2|8,0:0|0:0,0:0:0:0:
243,169,83505,6,0,B|246:153|256:138|256:138|240:112|241:85,2,90,2|2|8,0:0|0:0|0:0,0:0:0:0:
256,312,84916,53,4,0:0:0:0:
256,192,85005,12,8,88446,0:0:0:0:
139,118,89152,22,0,L|144:157,1,30,4|0,0:0|0:0,0:0:0:0:
211,326,89387,22,0,L|207:296,1,30,4|0,0:0|0:0,0:0:0:0:
216,95,89622,54,0,L|221:134,1,30,4|0,0:0|0:0,0:0:0:0:
288,303,89857,54,0,L|284:273,1,30,4|0,0:0|0:0,0:0:0:0:
293,72,90093,21,4,0:0:0:0:
355,191,90210,22,0,P|389:210|454:204,1,101.250003862381
429,27,90563,6,0,L|416:117,1,90,6|0,0:0|0:0,0:0:0:0:
368,280,90916,2,0,L|354:190,1,90,8|0,0:0|0:0,0:0:0:0:
213,95,91269,1,2,0:0:0:0:
213,95,91358,1,0,0:0:0:0:
213,95,91446,2,0,L|144:81,1,45
91,243,91622,1,8,0:0:0:0:
91,243,91711,1,0,0:0:0:0:
91,243,91799,2,0,L|160:229,1,45
315,345,91975,5,2,0:0:0:0:
315,345,92063,1,0,0:0:0:0:
315,345,92152,1,0,0:0:0:0:
358,333,92240,1,0,0:0:0:0:
390,302,92328,1,8,0:0:0:0:
402,258,92416,1,0,0:0:0:0:
390,215,92505,1,0,0:0:0:0:
358,183,92593,1,0,0:0:0:0:
300,147,92681,2,0,P|293:125|290:103,3,45,2|0|0|0,0:0|0:0|0:0|0:0,0:0:0:0:
187,27,93034,2,0,P|186:49|180:71,3,45,8|0|0|0,0:0|0:0|0:0|0:0,0:0:0:0:
147,193,93387,69,2,0:0:0:0:
147,193,93475,1,0,0:0:0:0:
147,193,93563,2,0,L|96:183,1,45
238,260,93740,1,8,0:0:0:0:
238,260,93828,1,0,0:0:0:0:
238,260,93916,2,0,L|289:250,1,45
134,305,94093,1,2,0:0:0:0:
101,290,94181,1,0,0:0:0:0:
65,290,94269,2,0,P|43:295|23:306,1,45
251,148,94446,1,8,0:0:0:0:
284,163,94534,1,0,0:0:0:0:
320,163,94622,2,0,P|341:157|361:146,1,45
192,24,94799,5,2,0:0:0:0:
155,49,94887,1,0,0:0:0:0:
128,85,94975,1,0,0:0:0:0:
116,128,95063,1,0,0:0:0:0:
118,173,95151,1,8,0:0:0:0:
148,194,95240,1,0,0:0:0:0:
167,224,95328,1,0,0:0:0:0:
172,259,95416,1,0,0:0:0:0:
130,313,95505,69,2,0:0:0:0:
112,317,95593,1,8,0:0:0:0:
95,322,95681,1,0,0:0:0:0:
77,327,95769,1,0,0:0:0:0:
92,252,95858,5,8,0:0:0:0:
74,246,95946,1,0,0:0:0:0:
56,242,96034,1,0,0:0:0:0:
38,238,96122,1,0,0:0:0:0:
89,170,96210,70,0,L|99:121,3,45,6|0|0|0,0:0|0:0|0:0|0:0,0:0:0:0:
208,46,96563,1,8,0:0:0:0:
208,46,96652,1,0,0:0:0:0:
208,46,96740,2,0,L|199:90,1,45
268,208,96916,2,0,L|278:159,3,45,2|0|0|0,0:0|0:0|0:0|0:0,0:0:0:0:
387,84,97269,1,8,0:0:0:0:
387,84,97358,1,0,0:0:0:0:
387,84,97446,2,0,L|378:128,1,45
450,250,97622,5,2,0:0:0:0:
406,239,97710,1,0,0:0:0:0:
362,252,97799,1,0,0:0:0:0:
334,287,97887,1,0,0:0:0:0:
322,354,97975,69,8,0:0:0:0:
273,375,98063,1,0,0:0:0:0:
222,357,98152,1,0,0:0:0:0:
194,309,98240,1,0,0:0:0:0:
204,242,98328,5,2,0:0:0:0:
159,248,98416,1,0,0:0:0:0:
114,255,98505,1,0,0:0:0:0:
69,262,98593,1,0,0:0:0:0:
12,225,98681,69,8,0:0:0:0:
24,172,98769,1,0,0:0:0:0:
36,119,98858,1,0,0:0:0:0:
48,66,98946,1,0,0:0:0:0:
109,39,99034,5,2,0:0:0:0:
126,36,99122,1,0,0:0:0:0:
143,38,99210,1,0,0:0:0:0:
160,44,99299,1,0,0:0:0:0:
174,54,99387,1,8,0:0:0:0:
227,62,99475,1,0,0:0:0:0:
276,41,99563,2,0,P|298:25|314:4,1,45
380,117,99740,69,2,0:0:0:0:
378,134,99828,1,0,0:0:0:0:
376,151,99916,1,0,0:0:0:0:
374,169,100005,1,0,0:0:0:0:
372,186,100093,1,8,0:0:0:0:
403,229,100181,1,0,0:0:0:0:
413,281,100269,2,0,P|410:307|400:332,1,45
260,344,100446,5,2,0:0:0:0:
224,342,100534,1,0,0:0:0:0:
190,328,100622,1,0,0:0:0:0:
165,303,100710,1,0,0:0:0:0:
146,261,100799,1,8,0:0:0:0:
148,216,100887,1,0,0:0:0:0:
170,176,100975,1,0,0:0:0:0:
211,160,101063,1,0,0:0:0:0:
271,192,101152,69,2,0:0:0:0:
318,165,101240,1,0,0:0:0:0:
334,113,101328,1,0,0:0:0:0:
320,62,101417,1,0,0:0:0:0:
272,37,101505,2,0,L|219:31,1,45,2|0,0:0|0:0,0:0:0:0:
461,100,101681,2,0,L|514:94,1,45,2|0,0:0|0:0,0:0:0:0:
271,192,101858,6,0,P|285:218|290:248,3,45,6|0|0|0,0:0|0:0|0:0|0:0,0:0:0:0:
190,296,102210,2,0,P|176:322|171:352,3,45,8|0|0|0,0:0|0:0|0:0|0:0,0:0:0:0:
317,319,102563,1,2,0:0:0:0:
349,302,102652,1,0,0:0:0:0:
371,274,102740,2,0,P|379:245|378:215,1,45
318,73,102916,1,8,0:0:0:0:
319,118,103005,1,0,0:0:0:0:
302,159,103093,2,0,P|288:177|271:191,1,45
75,250,103269,69,2,0:0:0:0:
75,250,103358,1,0,0:0:0:0:
75,250,103446,1,0,0:0:0:0:
119,246,103534,1,0,0:0:0:0:
155,219,103622,1,8,0:0:0:0:
172,177,103710,1,0,0:0:0:0:
163,132,103799,1,0,0:0:0:0:
131,100,103887,1,0,0:0:0:0:
59,137,103975,2,0,P|73:155|91:170,3,45,2|0|0|0,0:0|0:0|0:0|0:0,0:0:0:0:
89,30,104328,2,0,P|110:22|133:19,3,45,8|0|0|0,0:0|0:0|0:0|0:0,0:0:0:0:
255,85,104681,5,2,0:0:0:0:
286,103,104769,1,0,0:0:0:0:
322,108,104858,2,0,P|345:108|379:100,1,45
243,270,105034,1,8,0:0:0:0:
212,252,105122,1,0,0:0:0:0:
176,247,105211,2,0,P|153:247|119:255,1,45
308,345,105387,1,2,0:0:0:0:
314,300,105475,1,0,0:0:0:0:
319,255,105563,2,0,L|327:194,1,45
174,26,105740,1,8,0:0:0:0:
180,71,105828,1,0,0:0:0:0:
185,116,105916,2,0,L|193:177,1,45
100,339,106093,69,2,0:0:0:0:
135,311,106181,1,0,0:0:0:0:
144,267,106269,1,0,0:0:0:0:
122,226,106358,1,0,0:0:0:0:
79,210,106446,1,8,0:0:0:0:
65,176,106534,1,0,0:0:0:0:
67,139,106623,1,0,0:0:0:0:
88,111,106710,1,0,0:0:0:0:
153,90,106799,5,2,0:0:0:0:
170,92,106887,1,8,0:0:0:0:
187,95,106975,1,0,0:0:0:0:
204,97,107063,1,0,0:0:0:0:
239,38,107152,69,8,0:0:0:0:
256,36,107240,1,0,0:0:0:0:
273,33,107328,1,0,0:0:0:0:
290,31,107416,1,0,0:0:0:0:
352,61,107505,5,6,0:0:0:0:
329,88,107593,1,0,0:0:0:0:
321,123,107681,1,0,0:0:0:0:
325,158,107769,1,0,0:0:0:0:
345,188,107858,2,0,P|365:205|387:214,3,45,8|0|0|0,0:0|0:0|0:0|0:0,0:0:0:0:
257,223,108210,1,2,0:0:0:0:
280,250,108298,1,0,0:0:0:0:
288,285,108386,1,0,0:0:0:0:
284,320,108474,1,0,0:0:0:0:
264,350,108563,2,0,P|243:367|222:376,3,45,8|0|0|0,0:0|0:0|0:0|0:0,0:0:0:0:
118,380,108916,69,2,0:0:0:0:
83,347,109005,1,0,0:0:0:0:
77,302,109093,1,0,0:0:0:0:
100,264,109181,1,0,0:0:0:0:
165,247,109269,5,8,0:0:0:0:
195,210,109358,1,0,0:0:0:0:
203,167,109446,1,0,0:0:0:0:
189,121,109534,1,0,0:0:0:0:
148,67,109622,69,2,0:0:0:0:
201,74,109710,1,0,0:0:0:0:
254,82,109799,1,0,0:0:0:0:
307,89,109887,1,0,0:0:0:0:
375,86,109975,5,8,0:0:0:0:
329,122,110063,1,0,0:0:0:0:
314,179,110152,1,0,0:0:0:0:
323,236,110240,1,0,0:0:0:0:
382,269,110328,22,0,B|322:263|322:263|290:270,1,90,6|0,0:0|0:0,0:0:0:0:
181,291,110563,2,0,P|217:263|242:215,1,90,2|0,0:0|0:0,0:0:0:0:
249,109,110799,1,2,0:0:0:0:
238,95,111034,21,6,0:0:0:0:
144,199,111210,1,2,0:0:0:0:
282,171,111387,1,2,0:0:0:0:
154,113,111563,1,2,0:0:0:0:
224,236,111740,22,0,L|252:271,5,30,2|2|2|2|2|2,0:0|0:0|0:0|0:0|0:0|0:0,0:0:0:0:
167,170,112093,1,8,0:0:0:0:
195,319,112269,1,8,0:0:0:0:
310,221,112446,2,0,L|342:212,6,22.5,2|2|2|2|2|2|2,0:0|0:0|0:0|0:0|0:0|0:0|0:0,0:0:0:0:
253,155,112799,21,2,0:0:0:0:
167,170,112916,21,2,0:0:0:0:
111,104,113034,21,2,0:0:0:0:
140,23,113152,6,0,P|188:67|163:174,1,180,4|8,0:2|0:0,0:0:0:0:
67,287,114563,6,0,B|57:344|57:344|65:379,2,90,2|2|8,0:0|0:0|0:0,0:0:0:0:
224,195,115975,70,0,B|245:204|266:206|266:206|228:262|228:262|242:296|233:334,1,180,2|8,0:0|0:0,0:0:0:0:
372,141,117387,6,0,P|379:97|366:54,2,90,2|2|8,0:0|0:0|0:0,0:0:0:0:
196,195,118799,70,0,B|167:206|138:202|111:182|111:182|80:207|80:207|60:193|34:190,1,180,2|8,0:0|0:0,0:0:0:0:
319,287,120210,6,0,B|329:344|329:344|321:379,2,90,2|2|8,0:0|0:0|0:0,0:0:0:0:
192,177,121622,70,0,B|188:131|161:93|161:93|207:99|250:78,1,180,2|8,0:0|0:0,0:0:0:0:
358,224,123034,5,4,0:0:0:0:
