osu file format v14

[General]
AudioFilename: genjuro192bruh.mp3
AudioLeadIn: 0
PreviewTime: 28322
Countdown: 0
SampleSet: Normal
StackLeniency: 0.7
Mode: 1
LetterboxInBreaks: 0
WidescreenStoryboard: 0

[Editor]
Bookmarks: 2830,7936,18149,28361,38574,48787,59000,73042,83254,93467,110063
DistanceSpacing: 0.5
BeatDivisor: 4
GridSize: 32
TimelineZoom: 2.899999

[Metadata]
Title:POINT ZERO
TitleUnicode:POINT ZERO
Artist:Nekomata Master+
ArtistUnicode:猫叉Master+
Creator:_DUSK_
Version:Inner Oni
Source:beatmania IIDX 20 tricoro
Tags:naoyuki sato drum'n'bass dnb jubeat original soundtrack vol. 1 electronic instrumental video game
BeatmapID:1957601
BeatmapSetID:937099

[Difficulty]
HPDrainRate:6
CircleSize:5
OverallDifficulty:6.5
ApproachRate:9
SliderMultiplier:1.4
SliderTickRate:1

[Events]
//Background and Video events
0,0,"umbrellaBG.jpg",0,60
//Break Periods
//Storyboard Layer 0 (Background)
//Storyboard Layer 1 (Fail)
//Storyboard Layer 2 (Pass)
//Storyboard Layer 3 (Foreground)
//Storyboard Layer 4 (Overlay)
//Storyboard Sound Samples

[TimingPoints]
2830,319.148936170213,4,1,0,80,1,0
5383,-99.009900990099,4,1,0,80,0,0
5462,-98.0392156862745,4,1,0,80,0,0
5542,-97.0873786407767,4,1,0,80,0,0
5622,-96.1538461538461,4,1,0,80,0,0
5702,-95.2380952380952,4,1,0,80,0,0
5755,-94.3396226415094,4,1,0,80,0,0
5808,-93.4579439252336,4,1,0,80,0,0
5861,-92.5925925925926,4,1,0,80,0,0
5915,-91.743119266055,4,1,0,80,0,0
5968,-90.9090909090909,4,1,0,80,0,0
6021,-90.0900900900901,4,1,0,80,0,0
6074,-89.2857142857143,4,1,0,80,0,0
6127,-88.4955752212389,4,1,0,80,0,0
6181,-87.719298245614,4,1,0,80,0,0
6659,-111.111111111111,4,1,0,80,0,0
7617,-108.695652173913,4,1,0,80,0,0
7670,-106.382978723404,4,1,0,80,0,0
7723,-104.166666666667,4,1,0,80,0,0
7776,-102.040816326531,4,1,0,80,0,0
7936,-100,4,1,0,80,0,0
18149,-98.0392156862745,4,1,0,80,0,0
28282,-97.0873786407767,4,1,0,80,0,0
28361,-96.1538461538461,4,1,0,80,0,0
37138,-98.0392156862745,4,1,0,80,0,0
37298,-100,4,1,0,80,0,0
37457,-102.040816326531,4,1,0,80,0,0
38095,-101.010101010101,4,1,0,80,0,0
38175,-100,4,1,0,80,0,0
38255,-99.009900990099,4,1,0,80,0,0
38335,-98.0392156862745,4,1,0,80,0,0
38415,-97.0873786407767,4,1,0,80,0,0
38574,-96.1538461538461,4,1,0,80,0,0
48627,-95.2380952380952,4,1,0,80,0,0
48787,-93.4579439252336,4,1,0,80,0,0
59000,319.148936170213,3,1,0,90,1,1
59000,-95.2380952380952,3,1,0,90,0,1
68574,319.148936170213,7,1,0,80,1,0
68574,-95.2380952380952,7,1,0,80,0,0
70488,-111.111111111111,3,1,0,70,0,0
71446,-117.647058823529,3,1,0,60,0,0
72403,-125,3,1,0,50,0,0
72882,-125,3,1,0,80,0,0
73042,319.148936170213,4,1,0,80,1,0
73042,-125,4,1,0,80,0,0
73361,-123.456790123457,4,1,0,80,0,0
73680,-121.951219512195,4,1,0,80,0,0
73999,-120.481927710843,4,1,0,80,0,0
74318,-119.047619047619,4,1,0,80,0,0
74637,-117.647058823529,4,1,0,80,0,0
74956,-116.279069767442,4,1,0,80,0,0
75276,-114.942528735632,4,1,0,80,0,0
75595,-113.636363636364,4,1,0,80,0,0
75914,-112.359550561798,4,1,0,80,0,0
76233,-111.111111111111,4,1,0,80,0,0
76552,-109.89010989011,4,1,0,80,0,0
76871,-108.695652173913,4,1,0,80,0,0
77190,-107.52688172043,4,1,0,80,0,0
77510,-106.382978723404,4,1,0,80,0,0
77829,-105.263157894737,4,1,0,80,0,0
78148,-104.166666666667,4,1,0,80,0,0
78467,-103.092783505155,4,1,0,80,0,0
78786,-102.040816326531,4,1,0,80,0,0
79105,-101.010101010101,4,1,0,80,0,0
79424,-100,4,1,0,80,0,0
79744,-99.009900990099,4,1,0,80,0,0
80063,-98.0392156862745,4,1,0,80,0,0
80382,-97.0873786407767,4,1,0,80,0,0
80701,-96.1538461538461,4,1,0,80,0,0
81020,-95.2380952380952,4,1,0,80,0,0
81339,-94.3396226415094,4,1,0,80,0,0
81659,-93.4579439252336,4,1,0,80,0,0
81978,-92.5925925925926,4,1,0,80,0,0
82297,-91.743119266055,4,1,0,80,0,0
83254,-90.9090909090909,4,1,0,80,0,0
93467,-86.9565217391304,4,1,0,80,0,1
103680,-88.4955752212389,4,1,0,80,0,1
104159,-90.0900900900901,4,1,0,80,0,1
104637,-91.743119266055,4,1,0,80,0,1
105116,-93.4579439252336,4,1,0,80,0,1
105435,-93.4579439252336,4,1,0,80,0,0
105595,-95.2380952380952,4,1,0,80,0,0
106233,-100,4,1,0,60,0,0
107510,-111.111111111111,4,1,0,30,0,0

[HitObjects]
256,192,2470,5,8,0:0:0:0:
256,192,2510,1,8,0:0:0:0:
256,192,2830,5,12,0:0:0:0:
256,192,3069,1,0,0:0:0:0:
256,192,3149,1,8,0:0:0:0:
256,192,3308,1,0,0:0:0:0:
256,192,3627,1,8,0:0:0:0:
256,192,3707,1,0,0:0:0:0:
256,192,3787,1,8,0:0:0:0:
256,192,3947,1,8,0:0:0:0:
256,192,4266,1,8,0:0:0:0:
256,192,4425,1,0,0:0:0:0:
256,192,4585,1,8,0:0:0:0:
256,192,4904,1,8,0:0:0:0:
256,192,5064,1,8,0:0:0:0:
256,192,5223,1,0,0:0:0:0:
256,192,5383,1,8,0:0:0:0:
256,192,5462,1,8,0:0:0:0:
256,192,5542,1,0,0:0:0:0:
256,192,5622,1,0,0:0:0:0:
256,192,5702,1,8,0:0:0:0:
256,192,5755,1,0,0:0:0:0:
256,192,5808,1,0,0:0:0:0:
256,192,5861,1,8,0:0:0:0:
256,192,5915,1,0,0:0:0:0:
256,192,5968,1,0,0:0:0:0:
256,192,6021,1,8,0:0:0:0:
256,192,6074,1,8,0:0:0:0:
256,192,6127,1,8,0:0:0:0:
256,192,6181,1,0,0:0:0:0:
256,192,6659,1,0,0:0:0:0:
256,192,6978,1,8,0:0:0:0:
256,192,7298,1,8,0:0:0:0:
256,192,7617,1,8,0:0:0:0:
256,192,7670,1,8,0:0:0:0:
256,192,7723,1,8,0:0:0:0:
256,192,7776,1,0,0:0:0:0:
256,192,7936,1,12,0:0:0:0:
256,192,8175,1,0,0:0:0:0:
256,192,8255,1,8,0:0:0:0:
256,192,8415,1,8,0:0:0:0:
256,192,8494,1,8,0:0:0:0:
256,192,8574,1,0,0:0:0:0:
256,192,8734,1,0,0:0:0:0:
256,192,8893,1,8,0:0:0:0:
256,192,9212,1,0,0:0:0:0:
256,192,9372,1,0,0:0:0:0:
256,192,9532,1,8,0:0:0:0:
256,192,9611,1,0,0:0:0:0:
256,192,9691,1,8,0:0:0:0:
256,192,9771,1,8,0:0:0:0:
256,192,9851,1,0,0:0:0:0:
256,192,10010,1,0,0:0:0:0:
256,192,10170,1,8,0:0:0:0:
256,192,10489,1,0,0:0:0:0:
256,192,10728,1,0,0:0:0:0:
256,192,10808,1,8,0:0:0:0:
256,192,11048,1,8,0:0:0:0:
256,192,11127,1,0,0:0:0:0:
256,192,11287,1,0,0:0:0:0:
256,192,11367,1,0,0:0:0:0:
256,192,11447,1,8,0:0:0:0:
256,192,11766,1,0,0:0:0:0:
256,192,11925,1,0,0:0:0:0:
256,192,12085,1,8,0:0:0:0:
256,192,12244,1,0,0:0:0:0:
256,192,12404,1,0,0:0:0:0:
256,192,12457,1,0,0:0:0:0:
256,192,12510,1,0,0:0:0:0:
256,192,12564,1,8,0:0:0:0:
256,192,12723,1,8,0:0:0:0:
256,192,12803,1,8,0:0:0:0:
256,192,12883,1,0,0:0:0:0:
256,192,13042,1,8,0:0:0:0:
256,192,13202,1,0,0:0:0:0:
256,192,13361,1,8,0:0:0:0:
256,192,13521,1,8,0:0:0:0:
256,192,13601,1,0,0:0:0:0:
256,192,13681,1,8,0:0:0:0:
256,192,13840,1,0,0:0:0:0:
256,192,14000,1,8,0:0:0:0:
256,192,14319,1,0,0:0:0:0:
256,192,14478,1,0,0:0:0:0:
256,192,14638,1,8,0:0:0:0:
256,192,14718,1,8,0:0:0:0:
256,192,14877,1,8,0:0:0:0:
256,192,14957,1,0,0:0:0:0:
256,192,15117,1,0,0:0:0:0:
256,192,15197,1,0,0:0:0:0:
256,192,15276,1,8,0:0:0:0:
256,192,15436,1,8,0:0:0:0:
256,192,15595,1,0,0:0:0:0:
256,192,15755,1,0,0:0:0:0:
256,192,15915,1,8,0:0:0:0:
256,192,15994,1,0,0:0:0:0:
256,192,16074,1,8,0:0:0:0:
256,192,16234,1,0,0:0:0:0:
256,192,16393,1,8,0:0:0:0:
256,192,16553,1,0,0:0:0:0:
256,192,16633,1,0,0:0:0:0:
256,192,16712,1,8,0:0:0:0:
256,192,17032,1,0,0:0:0:0:
256,192,17351,1,0,0:0:0:0:
256,192,17510,1,8,0:0:0:0:
256,192,17670,1,0,0:0:0:0:
256,192,17830,1,8,0:0:0:0:
256,192,18149,1,12,0:0:0:0:
256,192,18308,1,0,0:0:0:0:
256,192,18388,1,0,0:0:0:0:
256,192,18468,1,8,0:0:0:0:
256,192,18627,1,0,0:0:0:0:
256,192,18787,1,8,0:0:0:0:
256,192,18867,1,8,0:0:0:0:
256,192,18947,1,0,0:0:0:0:
256,192,19026,1,0,0:0:0:0:
256,192,19106,1,8,0:0:0:0:
256,192,19266,1,8,0:0:0:0:
256,192,19345,1,8,0:0:0:0:
256,192,19425,1,0,0:0:0:0:
256,192,19585,1,8,0:0:0:0:
256,192,19744,1,8,0:0:0:0:
256,192,19904,1,0,0:0:0:0:
256,192,19984,1,8,0:0:0:0:
256,192,20064,1,8,0:0:0:0:
256,192,20223,1,8,0:0:0:0:
256,192,20383,1,8,0:0:0:0:
256,192,20462,1,0,0:0:0:0:
256,192,20542,1,8,0:0:0:0:
256,192,20622,1,8,0:0:0:0:
256,192,20702,1,0,0:0:0:0:
256,192,20861,1,0,0:0:0:0:
256,192,20941,1,0,0:0:0:0:
256,192,21021,1,8,0:0:0:0:
256,192,21181,1,0,0:0:0:0:
256,192,21340,1,8,0:0:0:0:
256,192,21420,1,0,0:0:0:0:
256,192,21500,1,0,0:0:0:0:
256,192,21580,1,0,0:0:0:0:
256,192,21659,1,8,0:0:0:0:
256,192,21819,1,8,0:0:0:0:
256,192,21978,1,0,0:0:0:0:
256,192,22138,1,0,0:0:0:0:
256,192,22298,1,8,0:0:0:0:
256,192,22377,1,8,0:0:0:0:
256,192,22457,1,0,0:0:0:0:
256,192,22617,1,8,0:0:0:0:
256,192,22776,1,8,0:0:0:0:
256,192,22855,1,0,0:0:0:0:
256,192,22935,1,0,0:0:0:0:
256,192,23095,1,8,0:0:0:0:
256,192,23255,1,0,0:0:0:0:
256,192,23574,1,8,0:0:0:0:
256,192,23734,1,0,0:0:0:0:
256,192,23814,1,8,0:0:0:0:
256,192,23893,1,0,0:0:0:0:
256,192,24053,1,0,0:0:0:0:
256,192,24212,1,8,0:0:0:0:
256,192,24372,1,8,0:0:0:0:
256,192,24532,1,0,0:0:0:0:
256,192,24691,1,0,0:0:0:0:
256,192,24771,1,0,0:0:0:0:
256,192,24851,1,8,0:0:0:0:
256,192,25010,1,0,0:0:0:0:
256,192,25090,1,8,0:0:0:0:
256,192,25170,1,8,0:0:0:0:
256,192,25250,1,0,0:0:0:0:
256,192,25330,1,8,0:0:0:0:
256,192,25489,1,8,0:0:0:0:
256,192,25649,1,0,0:0:0:0:
256,192,25808,1,0,0:0:0:0:
256,192,26127,1,8,0:0:0:0:
256,192,26287,1,0,0:0:0:0:
256,192,26447,1,8,0:0:0:0:
256,192,26606,1,0,0:0:0:0:
256,192,26686,1,0,0:0:0:0:
256,192,26766,1,8,0:0:0:0:
256,192,26925,1,8,0:0:0:0:
256,192,27085,1,0,0:0:0:0:
256,192,27165,1,0,0:0:0:0:
256,192,27244,1,0,0:0:0:0:
256,192,27404,1,8,0:0:0:0:
256,192,27564,1,0,0:0:0:0:
256,192,27643,1,8,0:0:0:0:
256,192,27723,1,0,0:0:0:0:
256,192,27883,1,8,0:0:0:0:
256,192,28042,1,8,0:0:0:0:
256,192,28122,1,8,0:0:0:0:
256,192,28202,1,0,0:0:0:0:
256,192,28282,1,0,0:0:0:0:
256,192,28361,1,12,0:0:0:0:
256,192,28681,1,8,0:0:0:0:
256,192,28920,1,8,0:0:0:0:
256,192,29000,1,0,0:0:0:0:
256,192,29159,1,0,0:0:0:0:
256,192,29239,1,0,0:0:0:0:
256,192,29319,1,8,0:0:0:0:
256,192,29638,1,0,0:0:0:0:
256,192,29798,1,0,0:0:0:0:
256,192,29957,1,8,0:0:0:0:
256,192,30117,1,0,0:0:0:0:
256,192,30197,1,8,0:0:0:0:
256,192,30277,1,8,0:0:0:0:
256,192,30436,1,0,0:0:0:0:
256,192,30595,1,8,0:0:0:0:
256,192,30675,1,0,0:0:0:0:
256,192,30755,1,8,0:0:0:0:
256,192,30835,1,8,0:0:0:0:
256,192,30915,1,0,0:0:0:0:
256,192,31074,1,0,0:0:0:0:
256,192,31234,1,8,0:0:0:0:
256,192,31393,1,0,0:0:0:0:
256,192,31473,1,0,0:0:0:0:
256,192,31553,1,8,0:0:0:0:
256,192,31712,1,0,0:0:0:0:
256,192,31872,1,8,0:0:0:0:
256,192,31952,1,8,0:0:0:0:
256,192,32032,1,0,0:0:0:0:
256,192,32111,1,0,0:0:0:0:
256,192,32191,1,8,0:0:0:0:
256,192,32351,1,8,0:0:0:0:
256,192,32510,1,0,0:0:0:0:
256,192,32564,1,8,0:0:0:0:
256,192,32617,1,8,0:0:0:0:
256,192,32670,1,0,0:0:0:0:
256,192,32830,1,0,0:0:0:0:
256,192,32989,1,8,0:0:0:0:
256,192,33149,1,8,0:0:0:0:
256,192,33228,1,0,0:0:0:0:
256,192,33308,1,8,0:0:0:0:
256,192,33468,1,0,0:0:0:0:
256,192,33627,1,0,0:0:0:0:
256,192,33787,1,8,0:0:0:0:
256,192,33947,1,8,0:0:0:0:
256,192,34026,1,0,0:0:0:0:
256,192,34106,1,0,0:0:0:0:
256,192,34266,1,0,0:0:0:0:
256,192,34425,1,8,0:0:0:0:
256,192,34585,1,8,0:0:0:0:
256,192,34744,1,0,0:0:0:0:
256,192,34824,1,0,0:0:0:0:
256,192,34904,1,8,0:0:0:0:
256,192,34984,1,0,0:0:0:0:
256,192,35064,1,8,0:0:0:0:
256,192,35223,1,0,0:0:0:0:
256,192,35303,1,8,0:0:0:0:
256,192,35383,1,8,0:0:0:0:
256,192,35542,1,8,0:0:0:0:
256,192,35702,1,8,0:0:0:0:
256,192,35782,1,8,0:0:0:0:
256,192,35861,1,0,0:0:0:0:
256,192,36021,1,8,0:0:0:0:
256,192,36181,1,0,0:0:0:0:
256,192,36260,1,8,0:0:0:0:
256,192,36340,1,0,0:0:0:0:
256,192,36420,1,0,0:0:0:0:
256,192,36500,1,8,0:0:0:0:
256,192,36819,1,8,0:0:0:0:
256,192,36899,1,8,0:0:0:0:
256,192,36978,1,0,0:0:0:0:
256,192,37138,1,8,0:0:0:0:
256,192,37298,1,0,0:0:0:0:
256,192,37457,1,8,0:0:0:0:
256,192,37776,1,8,0:0:0:0:
256,192,37936,1,8,0:0:0:0:
256,192,38016,1,8,0:0:0:0:
256,192,38095,1,8,0:0:0:0:
256,192,38175,1,0,0:0:0:0:
256,192,38255,1,8,0:0:0:0:
256,192,38335,1,8,0:0:0:0:
256,192,38415,1,0,0:0:0:0:
256,192,38574,1,12,0:0:0:0:
256,192,38734,1,0,0:0:0:0:
256,192,38814,1,8,0:0:0:0:
256,192,38893,1,0,0:0:0:0:
256,192,39053,1,8,0:0:0:0:
256,192,39212,1,0,0:0:0:0:
256,192,39292,1,0,0:0:0:0:
256,192,39372,1,8,0:0:0:0:
256,192,39532,1,8,0:0:0:0:
256,192,39691,1,0,0:0:0:0:
256,192,39771,1,8,0:0:0:0:
256,192,39851,1,8,0:0:0:0:
256,192,40010,1,0,0:0:0:0:
256,192,40170,1,8,0:0:0:0:
256,192,40330,1,0,0:0:0:0:
256,192,40409,1,0,0:0:0:0:
256,192,40489,1,8,0:0:0:0:
256,192,40542,1,8,0:0:0:0:
256,192,40595,1,8,0:0:0:0:
256,192,40649,1,0,0:0:0:0:
256,192,40808,1,8,0:0:0:0:
256,192,40968,1,8,0:0:0:0:
256,192,41048,1,8,0:0:0:0:
256,192,41127,1,0,0:0:0:0:
256,192,41287,1,0,0:0:0:0:
256,192,41447,1,8,0:0:0:0:
256,192,41526,1,0,0:0:0:0:
256,192,41606,1,8,0:0:0:0:
256,192,41766,1,0,0:0:0:0:
256,192,41845,1,0,0:0:0:0:
256,192,41925,1,8,0:0:0:0:
256,192,42005,1,0,0:0:0:0:
256,192,42085,1,8,0:0:0:0:
256,192,42244,1,0,0:0:0:0:
256,192,42324,1,8,0:0:0:0:
256,192,42404,1,0,0:0:0:0:
256,192,42564,1,0,0:0:0:0:
256,192,42723,1,8,0:0:0:0:
256,192,42883,1,8,0:0:0:0:
256,192,42962,1,0,0:0:0:0:
256,192,43042,1,8,0:0:0:0:
256,192,43122,1,8,0:0:0:0:
256,192,43202,1,0,0:0:0:0:
256,192,43282,1,0,0:0:0:0:
256,192,43361,1,8,0:0:0:0:
256,192,43441,1,0,0:0:0:0:
256,192,43521,1,0,0:0:0:0:
256,192,43601,1,0,0:0:0:0:
256,192,43681,1,8,0:0:0:0:
256,192,43840,1,0,0:0:0:0:
256,192,44000,1,0,0:0:0:0:
256,192,44080,1,0,0:0:0:0:
256,192,44159,1,8,0:0:0:0:
256,192,44319,1,8,0:0:0:0:
256,192,44478,1,8,0:0:0:0:
256,192,44558,1,0,0:0:0:0:
256,192,44638,1,8,0:0:0:0:
256,192,44798,1,8,0:0:0:0:
256,192,44877,1,0,0:0:0:0:
256,192,44957,1,0,0:0:0:0:
256,192,45037,1,0,0:0:0:0:
256,192,45117,1,8,0:0:0:0:
256,192,45276,1,8,0:0:0:0:
256,192,45436,1,0,0:0:0:0:
256,192,45516,1,8,0:0:0:0:
256,192,45595,1,0,0:0:0:0:
256,192,45649,1,8,0:0:0:0:
256,192,45702,1,8,0:0:0:0:
256,192,45755,1,0,0:0:0:0:
256,192,45915,1,8,0:0:0:0:
256,192,46074,1,8,0:0:0:0:
256,192,46154,1,8,0:0:0:0:
256,192,46234,1,0,0:0:0:0:
256,192,46473,1,0,0:0:0:0:
256,192,46553,1,8,0:0:0:0:
256,192,46712,1,0,0:0:0:0:
256,192,46872,1,0,0:0:0:0:
256,192,46952,1,8,0:0:0:0:
256,192,47032,1,0,0:0:0:0:
256,192,47111,1,0,0:0:0:0:
256,192,47191,1,8,0:0:0:0:
256,192,47351,1,8,0:0:0:0:
256,192,47431,1,8,0:0:0:0:
256,192,47510,1,0,0:0:0:0:
256,192,47670,1,0,0:0:0:0:
256,192,47830,1,8,0:0:0:0:
256,192,47989,1,0,0:0:0:0:
256,192,48069,1,8,0:0:0:0:
256,192,48149,1,8,0:0:0:0:
256,192,48228,1,0,0:0:0:0:
256,192,48308,1,0,0:0:0:0:
256,192,48388,1,0,0:0:0:0:
256,192,48468,1,8,0:0:0:0:
256,192,48627,1,0,0:0:0:0:
256,192,48787,1,12,0:0:0:0:
256,192,49026,1,0,0:0:0:0:
256,192,49106,1,8,0:0:0:0:
256,192,49266,1,0,0:0:0:0:
256,192,49425,1,0,0:0:0:0:
256,192,49505,1,8,0:0:0:0:
256,192,49585,1,0,0:0:0:0:
256,192,49744,1,8,0:0:0:0:
256,192,49904,1,0,0:0:0:0:
256,192,49984,1,0,0:0:0:0:
256,192,50064,1,8,0:0:0:0:
256,192,50223,1,0,0:0:0:0:
256,192,50383,1,8,0:0:0:0:
256,192,50542,1,0,0:0:0:0:
256,192,50622,1,0,0:0:0:0:
256,192,50702,1,8,0:0:0:0:
256,192,50755,1,0,0:0:0:0:
256,192,50808,1,0,0:0:0:0:
256,192,50861,1,8,0:0:0:0:
256,192,51021,1,8,0:0:0:0:
256,192,51181,1,8,0:0:0:0:
256,192,51260,1,8,0:0:0:0:
256,192,51340,1,0,0:0:0:0:
256,192,51580,1,0,0:0:0:0:
256,192,51659,1,8,0:0:0:0:
256,192,51819,1,0,0:0:0:0:
256,192,51978,1,8,0:0:0:0:
256,192,52058,1,0,0:0:0:0:
256,192,52218,1,0,0:0:0:0:
256,192,52298,1,8,0:0:0:0:
256,192,52377,1,8,0:0:0:0:
256,192,52457,1,0,0:0:0:0:
256,192,52617,1,0,0:0:0:0:
256,192,52670,1,0,0:0:0:0:
256,192,52723,1,0,0:0:0:0:
256,192,52776,1,8,0:0:0:0:
256,192,52936,1,8,0:0:0:0:
256,192,53095,1,8,0:0:0:0:
256,192,53175,1,8,0:0:0:0:
256,192,53255,1,0,0:0:0:0:
256,192,53335,1,8,0:0:0:0:
256,192,53415,1,0,0:0:0:0:
256,192,53494,1,0,0:0:0:0:
256,192,53574,1,8,0:0:0:0:
256,192,53654,1,8,0:0:0:0:
256,192,53734,1,0,0:0:0:0:
256,192,53814,1,8,0:0:0:0:
256,192,53893,1,0,0:0:0:0:
256,192,54053,1,0,0:0:0:0:
256,192,54212,1,0,0:0:0:0:
256,192,54292,1,0,0:0:0:0:
256,192,54372,1,8,0:0:0:0:
256,192,54452,1,0,0:0:0:0:
256,192,54532,1,8,0:0:0:0:
256,192,54691,1,0,0:0:0:0:
256,192,54771,1,0,0:0:0:0:
256,192,54851,1,8,0:0:0:0:
256,192,54931,1,8,0:0:0:0:
256,192,55010,1,8,0:0:0:0:
256,192,55170,1,8,0:0:0:0:
256,192,55250,1,0,0:0:0:0:
256,192,55330,1,0,0:0:0:0:
256,192,55489,1,8,0:0:0:0:
256,192,55728,1,0,0:0:0:0:
256,192,55808,1,8,0:0:0:0:
256,192,55861,1,8,0:0:0:0:
256,192,55915,1,8,0:0:0:0:
256,192,55967,1,0,0:0:0:0:
256,192,56047,1,0,0:0:0:0:
256,192,56127,1,8,0:0:0:0:
256,192,56287,1,8,0:0:0:0:
256,192,56367,1,8,0:0:0:0:
256,192,56447,1,0,0:0:0:0:
256,192,56686,1,8,0:0:0:0:
256,192,56766,1,8,0:0:0:0:
256,192,56925,1,0,0:0:0:0:
256,192,57165,1,8,0:0:0:0:
256,192,57244,1,8,0:0:0:0:
256,192,57324,1,8,0:0:0:0:
256,192,57404,1,0,0:0:0:0:
256,192,57564,1,8,0:0:0:0:
256,192,57643,1,8,0:0:0:0:
256,192,57723,1,0,0:0:0:0:
256,192,57803,1,8,0:0:0:0:
256,192,57883,1,8,0:0:0:0:
256,192,57962,1,8,0:0:0:0:
256,192,58042,1,8,0:0:0:0:
256,192,58122,1,0,0:0:0:0:
256,192,58202,1,8,0:0:0:0:
256,192,58282,1,8,0:0:0:0:
256,192,58361,1,0,0:0:0:0:
256,192,58441,1,0,0:0:0:0:
256,192,58521,1,8,0:0:0:0:
256,192,58601,1,0,0:0:0:0:
256,192,58681,1,8,0:0:0:0:
256,192,59000,1,12,0:0:0:0:
256,192,59239,1,0,0:0:0:0:
256,192,59319,1,8,0:0:0:0:
256,192,59478,1,0,0:0:0:0:
256,192,59718,1,0,0:0:0:0:
256,192,59797,1,8,0:0:0:0:
256,192,59957,1,0,0:0:0:0:
256,192,60117,1,8,0:0:0:0:
256,192,60196,1,0,0:0:0:0:
256,192,60276,1,8,0:0:0:0:
256,192,60436,1,0,0:0:0:0:
256,192,60595,1,0,0:0:0:0:
256,192,60675,1,8,0:0:0:0:
256,192,60755,1,0,0:0:0:0:
256,192,60914,1,8,0:0:0:0:
256,192,60994,1,0,0:0:0:0:
256,192,61074,1,0,0:0:0:0:
256,192,61234,1,0,0:0:0:0:
256,192,61393,1,8,0:0:0:0:
256,192,61473,1,8,0:0:0:0:
256,192,61553,1,0,0:0:0:0:
256,192,61712,1,0,0:0:0:0:
256,192,61872,1,8,0:0:0:0:
256,192,61952,1,0,0:0:0:0:
256,192,62031,1,8,0:0:0:0:
256,192,62191,1,0,0:0:0:0:
256,192,62271,1,0,0:0:0:0:
256,192,62351,1,8,0:0:0:0:
256,192,62430,1,8,0:0:0:0:
256,192,62510,1,8,0:0:0:0:
256,192,62670,1,0,0:0:0:0:
256,192,62750,1,0,0:0:0:0:
256,192,62829,1,8,0:0:0:0:
256,192,62989,1,0,0:0:0:0:
256,192,63148,1,8,0:0:0:0:
256,192,63228,1,0,0:0:0:0:
256,192,63308,1,8,0:0:0:0:
256,192,63468,1,0,0:0:0:0:
256,192,63627,1,0,0:0:0:0:
256,192,63787,1,8,0:0:0:0:
256,192,63867,1,0,0:0:0:0:
256,192,64026,1,0,0:0:0:0:
256,192,64106,1,8,0:0:0:0:
256,192,64186,1,0,0:0:0:0:
256,192,64265,1,8,0:0:0:0:
256,192,64425,1,8,0:0:0:0:
256,192,64505,1,0,0:0:0:0:
256,192,64585,1,0,0:0:0:0:
256,192,64744,1,8,0:0:0:0:
256,192,64904,1,0,0:0:0:0:
256,192,64984,1,8,0:0:0:0:
256,192,65063,1,0,0:0:0:0:
256,192,65223,1,8,0:0:0:0:
256,192,65382,1,0,0:0:0:0:
256,192,65462,1,0,0:0:0:0:
256,192,65542,1,8,0:0:0:0:
256,192,65702,1,8,0:0:0:0:
256,192,65781,1,8,0:0:0:0:
256,192,65861,1,0,0:0:0:0:
256,192,65941,1,0,0:0:0:0:
256,192,66021,1,0,0:0:0:0:
256,192,66180,1,8,0:0:0:0:
256,192,66260,1,0,0:0:0:0:
256,192,66340,1,8,0:0:0:0:
256,192,66420,1,8,0:0:0:0:
256,192,66500,1,0,0:0:0:0:
256,192,66659,1,0,0:0:0:0:
256,192,66739,1,0,0:0:0:0:
256,192,66819,1,8,0:0:0:0:
256,192,66898,1,0,0:0:0:0:
256,192,66978,1,8,0:0:0:0:
256,192,67139,1,8,0:0:0:0:
256,192,67218,1,0,0:0:0:0:
256,192,67297,1,0,0:0:0:0:
256,192,67457,1,8,0:0:0:0:
256,192,67617,1,8,0:0:0:0:
256,192,67696,1,8,0:0:0:0:
256,192,67776,1,0,0:0:0:0:
256,192,67936,1,8,0:0:0:0:
256,192,68095,1,0,0:0:0:0:
256,192,68175,1,0,0:0:0:0:
256,192,68255,1,8,0:0:0:0:
256,192,68334,1,0,0:0:0:0:
256,192,68414,1,8,0:0:0:0:
256,192,68574,1,12,0:0:0:0:
256,192,68734,12,0,72404,0:0:0:0:
256,192,73042,5,12,0:0:0:0:
256,192,73361,1,8,0:0:0:0:
256,192,73600,1,8,0:0:0:0:
256,192,73680,1,0,0:0:0:0:
256,192,73839,1,8,0:0:0:0:
256,192,74159,1,4,0:0:0:0:
256,192,74637,1,8,0:0:0:0:
256,192,74690,1,8,0:0:0:0:
256,192,74744,1,8,0:0:0:0:
256,192,74797,1,8,0:0:0:0:
256,192,74877,1,8,0:0:0:0:
256,192,74956,1,0,0:0:0:0:
256,192,75116,1,8,0:0:0:0:
256,192,75355,1,8,0:0:0:0:
256,192,75595,1,8,0:0:0:0:
256,192,75914,1,4,0:0:0:0:
256,192,76173,1,0,0:0:0:0:
256,192,76393,1,8,0:0:0:0:
256,192,76712,1,12,0:0:0:0:
256,192,76871,1,0,0:0:0:0:
256,192,77031,1,0,0:0:0:0:
256,192,77190,1,8,0:0:0:0:
256,192,77350,1,4,0:0:0:0:
256,192,77510,1,8,0:0:0:0:
256,192,77589,1,0,0:0:0:0:
256,192,77669,1,8,0:0:0:0:
256,192,77988,1,12,0:0:0:0:
256,192,78307,1,0,0:0:0:0:
256,192,78467,1,8,0:0:0:0:
256,192,78726,1,0,0:0:0:0:
256,192,78946,1,8,0:0:0:0:
256,192,79265,1,4,0:0:0:0:
256,192,79584,1,8,0:0:0:0:
256,192,79744,1,0,0:0:0:0:
256,192,80003,1,0,0:0:0:0:
256,192,80222,1,0,0:0:0:0:
256,192,80482,1,8,0:0:0:0:
256,192,80701,1,8,0:0:0:0:
256,192,81020,1,4,0:0:0:0:
256,192,81339,1,0,0:0:0:0:
256,192,81499,1,8,0:0:0:0:
256,192,81818,1,12,0:0:0:0:
256,192,81978,1,8,0:0:0:0:
256,192,82031,1,8,0:0:0:0:
256,192,82084,1,8,0:0:0:0:
256,192,82137,1,0,0:0:0:0:
256,192,82456,1,4,0:0:0:0:
256,192,82616,1,0,0:0:0:0:
256,192,82669,1,0,0:0:0:0:
256,192,82722,1,0,0:0:0:0:
256,192,82776,1,8,0:0:0:0:
256,192,83254,1,12,0:0:0:0:
256,192,83414,1,0,0:0:0:0:
256,192,83573,1,8,0:0:0:0:
256,192,83627,1,8,0:0:0:0:
256,192,83680,1,8,0:0:0:0:
256,192,83733,1,0,0:0:0:0:
256,192,83813,1,0,0:0:0:0:
256,192,83893,1,8,0:0:0:0:
256,192,84052,1,0,0:0:0:0:
256,192,84132,1,8,0:0:0:0:
256,192,84292,1,0,0:0:0:0:
256,192,84371,1,8,0:0:0:0:
256,192,84451,1,8,0:0:0:0:
256,192,84531,1,0,0:0:0:0:
256,192,84690,1,8,0:0:0:0:
256,192,84770,1,8,0:0:0:0:
256,192,84850,1,0,0:0:0:0:
256,192,84930,1,8,0:0:0:0:
256,192,85089,1,0,0:0:0:0:
256,192,85169,1,8,0:0:0:0:
256,192,85329,1,8,0:0:0:0:
256,192,85488,1,8,0:0:0:0:
256,192,85568,1,0,0:0:0:0:
256,192,85608,1,0,0:0:0:0:
256,192,85648,1,8,0:0:0:0:
256,192,85728,1,8,0:0:0:0:
256,192,85807,1,0,0:0:0:0:
256,192,86047,1,0,0:0:0:0:
256,192,86127,1,8,0:0:0:0:
256,192,86286,1,0,0:0:0:0:
256,192,86366,1,8,0:0:0:0:
256,192,86446,1,0,0:0:0:0:
256,192,86605,1,0,0:0:0:0:
256,192,86645,1,0,0:0:0:0:
256,192,86685,1,8,0:0:0:0:
256,192,86765,1,0,0:0:0:0:
256,192,86845,1,8,0:0:0:0:
256,192,86924,1,8,0:0:0:0:
256,192,87084,1,8,0:0:0:0:
256,192,87164,1,0,0:0:0:0:
256,192,87244,1,8,0:0:0:0:
256,192,87323,1,8,0:0:0:0:
256,192,87403,1,0,0:0:0:0:
256,192,87483,1,8,0:0:0:0:
256,192,87563,1,0,0:0:0:0:
256,192,87722,1,8,0:0:0:0:
256,192,87882,1,8,0:0:0:0:
256,192,87962,1,8,0:0:0:0:
256,192,88042,1,8,0:0:0:0:
256,192,88095,1,8,0:0:0:0:
256,192,88148,1,8,0:0:0:0:
256,192,88201,1,0,0:0:0:0:
256,192,88361,1,0,0:0:0:0:
256,192,88600,1,0,0:0:0:0:
256,192,88680,1,8,0:0:0:0:
256,192,88839,1,0,0:0:0:0:
256,192,88919,1,0,0:0:0:0:
256,192,88999,1,8,0:0:0:0:
256,192,89159,1,0,0:0:0:0:
256,192,89198,1,0,0:0:0:0:
256,192,89238,1,8,0:0:0:0:
256,192,89318,1,8,0:0:0:0:
256,192,89398,1,0,0:0:0:0:
256,192,89478,1,8,0:0:0:0:
256,192,89637,1,8,0:0:0:0:
256,192,89690,1,8,0:0:0:0:
256,192,89744,1,8,0:0:0:0:
256,192,89797,1,8,0:0:0:0:
256,192,89877,1,8,0:0:0:0:
256,192,89956,1,0,0:0:0:0:
256,192,90116,1,0,0:0:0:0:
256,192,90196,1,0,0:0:0:0:
256,192,90276,1,8,0:0:0:0:
256,192,90435,1,0,0:0:0:0:
256,192,90515,1,8,0:0:0:0:
256,192,90595,1,8,0:0:0:0:
256,192,90648,1,8,0:0:0:0:
256,192,90701,1,8,0:0:0:0:
256,192,90754,1,0,0:0:0:0:
256,192,90914,1,0,0:0:0:0:
256,192,90994,1,8,0:0:0:0:
256,192,91073,1,0,0:0:0:0:
256,192,91153,1,0,0:0:0:0:
256,192,91233,1,8,0:0:0:0:
256,192,91339,1,0,0:0:0:0:
256,192,91446,1,0,0:0:0:0:
256,192,91552,1,8,0:0:0:0:
256,192,91712,1,0,0:0:0:0:
256,192,91792,1,8,0:0:0:0:
256,192,91871,1,8,0:0:0:0:
256,192,91951,1,0,0:0:0:0:
256,192,92031,1,8,0:0:0:0:
256,192,92190,1,8,0:0:0:0:
256,192,92270,1,8,0:0:0:0:
256,192,92350,1,0,0:0:0:0:
256,192,92430,1,0,0:0:0:0:
256,192,92510,1,8,0:0:0:0:
256,192,92589,1,8,0:0:0:0:
256,192,92669,1,0,0:0:0:0:
256,192,92829,1,8,0:0:0:0:
256,192,92988,1,8,0:0:0:0:
256,192,93068,1,8,0:0:0:0:
256,192,93148,1,0,0:0:0:0:
256,192,93307,1,0,0:0:0:0:
256,192,93467,1,12,0:0:0:0:
256,192,93627,1,0,0:0:0:0:
256,192,93786,1,8,0:0:0:0:
256,192,93946,1,0,0:0:0:0:
256,192,94026,1,0,0:0:0:0:
256,192,94105,1,8,0:0:0:0:
256,192,94265,1,0,0:0:0:0:
256,192,94345,1,8,0:0:0:0:
256,192,94504,1,0,0:0:0:0:
256,192,94584,1,8,0:0:0:0:
256,192,94664,1,8,0:0:0:0:
256,192,94744,1,0,0:0:0:0:
256,192,94903,1,8,0:0:0:0:
256,192,94983,1,0,0:0:0:0:
256,192,95063,1,8,0:0:0:0:
256,192,95143,1,8,0:0:0:0:
256,192,95222,1,0,0:0:0:0:
256,192,95302,1,0,0:0:0:0:
256,192,95342,1,0,0:0:0:0:
256,192,95382,1,8,0:0:0:0:
256,192,95542,1,8,0:0:0:0:
256,192,95701,1,8,0:0:0:0:
256,192,95781,1,0,0:0:0:0:
256,192,95861,1,8,0:0:0:0:
256,192,95940,1,8,0:0:0:0:
256,192,96020,1,0,0:0:0:0:
256,192,96073,1,0,0:0:0:0:
256,192,96127,1,0,0:0:0:0:
256,192,96180,1,8,0:0:0:0:
256,192,96233,1,8,0:0:0:0:
256,192,96286,1,8,0:0:0:0:
256,192,96339,1,0,0:0:0:0:
256,192,96499,1,0,0:0:0:0:
256,192,96579,1,8,0:0:0:0:
256,192,96659,1,0,0:0:0:0:
256,192,96818,1,0,0:0:0:0:
256,192,96898,1,0,0:0:0:0:
256,192,96978,1,8,0:0:0:0:
256,192,97031,1,0,0:0:0:0:
256,192,97084,1,0,0:0:0:0:
256,192,97137,1,8,0:0:0:0:
256,192,97217,1,8,0:0:0:0:
256,192,97297,1,0,0:0:0:0:
256,192,97350,1,0,0:0:0:0:
256,192,97403,1,0,0:0:0:0:
256,192,97456,1,8,0:0:0:0:
256,192,97510,1,0,0:0:0:0:
256,192,97563,1,0,0:0:0:0:
256,192,97616,1,8,0:0:0:0:
256,192,97696,1,0,0:0:0:0:
256,192,97776,1,8,0:0:0:0:
256,192,97855,1,8,0:0:0:0:
256,192,97935,1,8,0:0:0:0:
256,192,98015,1,0,0:0:0:0:
256,192,98095,1,8,0:0:0:0:
256,192,98174,1,8,0:0:0:0:
256,192,98254,1,0,0:0:0:0:
256,192,98307,1,0,0:0:0:0:
256,192,98361,1,0,0:0:0:0:
256,192,98414,1,8,0:0:0:0:
256,192,98573,1,0,0:0:0:0:
256,192,98733,1,8,0:0:0:0:
256,192,98893,1,8,0:0:0:0:
256,192,99132,1,8,0:0:0:0:
256,192,99212,1,0,0:0:0:0:
256,192,99371,1,0,0:0:0:0:
256,192,99451,1,8,0:0:0:0:
256,192,99531,1,8,0:0:0:0:
256,192,99690,1,8,0:0:0:0:
256,192,99850,1,0,0:0:0:0:
256,192,99903,1,0,0:0:0:0:
256,192,99956,1,0,0:0:0:0:
256,192,100010,1,8,0:0:0:0:
256,192,100089,1,8,0:0:0:0:
256,192,100169,1,0,0:0:0:0:
256,192,100249,1,0,0:0:0:0:
256,192,100329,1,8,0:0:0:0:
256,192,100409,1,0,0:0:0:0:
256,192,100488,1,8,0:0:0:0:
256,192,100648,1,0,0:0:0:0:
256,192,100728,1,8,0:0:0:0:
256,192,100887,1,0,0:0:0:0:
256,192,100967,1,8,0:0:0:0:
256,192,101127,1,8,0:0:0:0:
256,192,101286,1,0,0:0:0:0:
256,192,101366,1,8,0:0:0:0:
256,192,101446,1,8,0:0:0:0:
256,192,101552,1,0,0:0:0:0:
256,192,101659,1,0,0:0:0:0:
256,192,101765,1,8,0:0:0:0:
256,192,101924,1,0,0:0:0:0:
256,192,102004,1,8,0:0:0:0:
256,192,102084,1,0,0:0:0:0:
256,192,102164,1,0,0:0:0:0:
256,192,102244,1,8,0:0:0:0:
256,192,102403,1,8,0:0:0:0:
256,192,102456,1,8,0:0:0:0:
256,192,102510,1,8,0:0:0:0:
256,192,102563,1,0,0:0:0:0:
256,192,102643,1,8,0:0:0:0:
256,192,102722,1,0,0:0:0:0:
256,192,102802,1,0,0:0:0:0:
256,192,102882,1,8,0:0:0:0:
256,192,103042,1,0,0:0:0:0:
256,192,103201,1,8,0:0:0:0:
256,192,103281,1,8,0:0:0:0:
256,192,103361,1,0,0:0:0:0:
256,192,103520,1,4,0:0:0:0:
256,192,103680,1,8,0:0:0:0:
256,192,103760,1,0,0:0:0:0:
256,192,103839,1,8,0:0:0:0:
256,192,103919,1,8,0:0:0:0:
256,192,103999,1,0,0:0:0:0:
256,192,104159,1,0,0:0:0:0:
256,192,104238,1,8,0:0:0:0:
256,192,104318,1,0,0:0:0:0:
256,192,104398,1,0,0:0:0:0:
256,192,104478,1,8,0:0:0:0:
256,192,104637,1,8,0:0:0:0:
256,192,104717,1,8,0:0:0:0:
256,192,104797,1,0,0:0:0:0:
256,192,104877,1,8,0:0:0:0:
256,192,104956,1,0,0:0:0:0:
256,192,105116,1,0,0:0:0:0:
256,192,105196,1,8,0:0:0:0:
256,192,105276,1,8,0:0:0:0:
256,192,105355,1,0,0:0:0:0:
256,192,105435,1,8,0:0:0:0:
256,192,105595,12,0,110063,0:0:0:0:
