osu file format v14

[General]
AudioFilename: POINT ZERO.mp3
AudioLeadIn: 0
PreviewTime: 38714
Countdown: 1
SampleSet: None
StackLeniency: 0.7
Mode: 1
LetterboxInBreaks: 1
WidescreenStoryboard: 1

[Editor]
DistanceSpacing: 0.5
BeatDivisor: 4
GridSize: 32
TimelineZoom: 3.499999

[Metadata]
Title:POINT ZERO
TitleUnicode:POINT ZERO
Artist:Nekomata Master+
ArtistUnicode:猫叉Master+
Creator:Skull Kid
Version:Oni
Source:beatmania IIDX 20 tricoro
Tags:ORIGINAL SOUNDTRACK Volume 1 konami jubeat saucer plus jukebeat Naoyuki Sato cut version ver.
BeatmapID:1701251
BeatmapSetID:810937

[Difficulty]
HPDrainRate:6
CircleSize:4
OverallDifficulty:6
ApproachRate:9
SliderMultiplier:1.4
SliderTickRate:1

[Events]
//Background and Video events
0,0,"BG.jpg",0,70
//Break Periods
//Storyboard Layer 0 (Background)
//Storyboard Layer 1 (Fail)
//Storyboard Layer 2 (Pass)
//Storyboard Layer 3 (Foreground)
//Storyboard Sound Samples

[TimingPoints]
276,319.148936170213,4,1,0,5,1,0
2350,-100,4,1,0,70,0,0
2830,319.148936170213,4,1,0,70,1,0
7537,-89.2857142857143,4,1,0,50,0,0
7670,-90.9090909090909,4,1,0,50,0,0
7723,-92.5925925925926,4,1,0,50,0,0
7776,-94.3396226415094,4,1,0,50,0,0
7830,-96.1538461538461,4,1,0,50,0,0
7883,-98.0392156862745,4,1,0,50,0,0
7909,-100,4,1,0,70,0,0
15276,-95.2380952380952,4,1,0,70,0,0
15436,-90.9090909090909,4,1,0,70,0,0
15595,-100,4,1,0,70,0,0
15915,-95.2380952380952,4,1,0,70,0,0
16074,-90.9090909090909,4,1,0,70,0,0
16393,-100,4,1,0,70,0,0
16553,-95.2380952380952,4,1,0,70,0,0
16712,-90.9090909090909,4,1,0,70,0,0
16872,-100,4,1,0,70,0,0
17590,-99.009900990099,4,1,0,70,0,0
17670,-98.0392156862745,4,1,0,70,0,0
17750,-97.0873786407767,4,1,0,70,0,0
17830,-96.1538461538461,4,1,0,70,0,0
18149,-95.2380952380952,4,1,0,70,0,0
25489,-90.9090909090909,4,1,0,70,0,0
25649,-86.9565217391304,4,1,0,70,0,0
25808,-95.2380952380952,4,1,0,70,0,0
26127,-90.9090909090909,4,1,0,70,0,0
26287,-86.9565217391304,4,1,0,70,0,0
26606,-95.2380952380952,4,1,0,70,0,0
26766,-90.9090909090909,4,1,0,70,0,0
26925,-86.9565217391304,4,1,0,70,0,0
27085,-95.2380952380952,4,1,0,70,0,0
35702,-90.9090909090909,4,1,0,70,0,0
35861,-86.9565217391304,4,1,0,70,0,0
36021,-95.2380952380952,4,1,0,70,0,0
36340,-90.9090909090909,4,1,0,70,0,0
36500,-86.9565217391304,4,1,0,70,0,0
36819,-95.2380952380952,4,1,0,70,0,0
36978,-90.9090909090909,4,1,0,70,0,0
37138,-86.9565217391304,4,1,0,70,0,0
37298,-95.2380952380952,4,1,0,70,0,0
38574,-95.2380952380952,4,1,0,70,0,1
38654,-95.2380952380952,4,1,0,70,0,0
48787,-95.2380952380952,4,1,0,70,0,1
48867,-95.2380952380952,4,1,0,70,0,0
58521,-94.3396226415094,4,1,0,70,0,0
58601,-93.4579439252336,4,1,0,70,0,0
58681,-92.5925925925926,4,1,0,70,0,0
58840,-91.743119266055,4,1,0,70,0,0
59000,319.148936170213,6,1,0,70,1,1
59000,-90.9090909090909,6,1,0,70,0,1
68574,-90.9090909090909,6,1,0,70,0,0
68654,-90.9090909090909,6,1,0,5,0,0

[HitObjects]
256,192,276,12,0,2191,0:0:0:0:
256,192,2510,5,8,0:0:0:0:
256,192,2830,1,4,0:0:0:0:
256,192,2989,1,0,0:0:0:0:
256,192,3149,1,8,0:0:0:0:
256,192,3308,1,0,0:0:0:0:
256,192,3627,1,0,0:0:0:0:
256,192,3707,1,0,0:0:0:0:
256,192,3787,1,8,0:0:0:0:
256,192,3947,1,0,0:0:0:0:
256,192,4266,1,0,0:0:0:0:
256,192,4425,1,8,0:0:0:0:
256,192,4585,1,0,0:0:0:0:
256,192,4904,1,8,0:0:0:0:
256,192,5064,1,0,0:0:0:0:
256,192,5223,1,0,0:0:0:0:
256,192,5383,1,8,0:0:0:0:
256,192,5462,1,8,0:0:0:0:
256,192,5542,1,0,0:0:0:0:
256,192,5622,1,0,0:0:0:0:
256,192,5702,1,8,0:0:0:0:
256,192,5782,1,0,0:0:0:0:
256,192,5861,1,8,0:0:0:0:
256,192,5941,1,8,0:0:0:0:
256,192,6021,1,0,0:0:0:0:
256,192,6101,1,8,0:0:0:0:
256,192,6181,1,0,0:0:0:0:
256,192,6260,1,0,0:0:0:0:
256,192,6340,1,8,0:0:0:0:
256,192,6420,1,8,0:0:0:0:
256,192,6500,1,8,0:0:0:0:
256,192,6580,1,8,0:0:0:0:
256,192,6659,1,0,0:0:0:0:
256,192,6978,1,0,0:0:0:0:
256,192,7298,1,0,0:0:0:0:
256,192,7617,1,8,0:0:0:0:
256,192,7670,1,8,0:0:0:0:
256,192,7723,1,8,0:0:0:0:
256,192,7776,1,8,0:0:0:0:
256,192,7830,1,8,0:0:0:0:
256,192,7883,1,8,0:0:0:0:
256,192,7936,1,0,0:0:0:0:
256,192,8255,1,8,0:0:0:0:
256,192,8494,1,0,0:0:0:0:
256,192,8574,1,0,0:0:0:0:
256,192,8734,1,0,0:0:0:0:
256,192,8893,1,8,0:0:0:0:
256,192,9212,1,0,0:0:0:0:
256,192,9532,1,8,0:0:0:0:
256,192,9691,1,0,0:0:0:0:
256,192,9771,1,8,0:0:0:0:
256,192,9851,1,0,0:0:0:0:
256,192,10010,1,0,0:0:0:0:
256,192,10170,1,8,0:0:0:0:
256,192,10489,1,0,0:0:0:0:
256,192,10808,1,8,0:0:0:0:
256,192,11048,1,0,0:0:0:0:
256,192,11127,1,0,0:0:0:0:
256,192,11287,1,0,0:0:0:0:
256,192,11447,1,8,0:0:0:0:
256,192,11766,1,0,0:0:0:0:
256,192,11925,1,0,0:0:0:0:
256,192,12085,1,8,0:0:0:0:
256,192,12244,1,0,0:0:0:0:
256,192,12404,1,8,0:0:0:0:
256,192,12484,1,8,0:0:0:0:
256,192,12564,1,0,0:0:0:0:
256,192,12643,1,0,0:0:0:0:
256,192,12723,1,8,0:0:0:0:
256,192,12883,1,8,0:0:0:0:
256,192,13042,1,0,0:0:0:0:
256,192,13361,1,8,0:0:0:0:
256,192,13601,1,0,0:0:0:0:
256,192,13681,1,0,0:0:0:0:
256,192,13840,1,0,0:0:0:0:
256,192,14000,1,8,0:0:0:0:
256,192,14319,1,0,0:0:0:0:
256,192,14638,1,8,0:0:0:0:
256,192,14798,1,0,0:0:0:0:
256,192,14877,1,8,0:0:0:0:
256,192,14957,1,0,0:0:0:0:
256,192,15117,1,8,0:0:0:0:
256,192,15276,1,8,0:0:0:0:
256,192,15436,1,4,0:0:0:0:
256,192,15755,1,0,0:0:0:0:
256,192,15915,1,8,0:0:0:0:
256,192,16074,1,4,0:0:0:0:
256,192,16393,1,8,0:0:0:0:
256,192,16553,1,8,0:0:0:0:
256,192,16712,1,4,0:0:0:0:
256,192,17032,1,0,0:0:0:0:
256,192,17191,1,8,0:0:0:0:
256,192,17351,1,0,0:0:0:0:
256,192,17510,1,8,0:0:0:0:
256,192,17590,1,8,0:0:0:0:
256,192,17670,1,0,0:0:0:0:
256,192,17750,1,0,0:0:0:0:
256,192,17830,1,8,0:0:0:0:
256,192,17989,1,8,0:0:0:0:
256,192,18149,1,4,0:0:0:0:
256,192,18468,1,8,0:0:0:0:
256,192,18627,1,0,0:0:0:0:
256,192,18707,1,8,0:0:0:0:
256,192,18787,1,0,0:0:0:0:
256,192,18947,1,0,0:0:0:0:
256,192,19106,1,8,0:0:0:0:
256,192,19425,1,0,0:0:0:0:
256,192,19585,1,0,0:0:0:0:
256,192,19744,1,8,0:0:0:0:
256,192,19904,1,0,0:0:0:0:
256,192,19984,1,8,0:0:0:0:
256,192,20064,1,8,0:0:0:0:
256,192,20223,1,0,0:0:0:0:
256,192,20383,1,8,0:0:0:0:
256,192,20542,1,8,0:0:0:0:
256,192,20702,1,0,0:0:0:0:
256,192,21021,1,8,0:0:0:0:
256,192,21181,1,0,0:0:0:0:
256,192,21260,1,8,0:0:0:0:
256,192,21340,1,0,0:0:0:0:
256,192,21500,1,0,0:0:0:0:
256,192,21659,1,8,0:0:0:0:
256,192,21978,1,0,0:0:0:0:
256,192,22138,1,0,0:0:0:0:
256,192,22298,1,8,0:0:0:0:
256,192,22457,1,0,0:0:0:0:
256,192,22617,1,8,0:0:0:0:
256,192,22697,1,8,0:0:0:0:
256,192,22776,1,0,0:0:0:0:
256,192,22856,1,0,0:0:0:0:
256,192,22936,1,8,0:0:0:0:
256,192,23095,1,8,0:0:0:0:
256,192,23255,1,0,0:0:0:0:
256,192,23574,1,8,0:0:0:0:
256,192,23734,1,0,0:0:0:0:
256,192,23814,1,8,0:0:0:0:
256,192,23893,1,0,0:0:0:0:
256,192,24053,1,0,0:0:0:0:
256,192,24212,1,8,0:0:0:0:
256,192,24532,1,0,0:0:0:0:
256,192,24691,1,0,0:0:0:0:
256,192,24851,1,8,0:0:0:0:
256,192,25010,1,0,0:0:0:0:
256,192,25090,1,8,0:0:0:0:
256,192,25170,1,0,0:0:0:0:
256,192,25330,1,8,0:0:0:0:
256,192,25489,1,8,0:0:0:0:
256,192,25649,1,4,0:0:0:0:
256,192,25968,1,0,0:0:0:0:
256,192,26127,1,8,0:0:0:0:
256,192,26287,1,4,0:0:0:0:
256,192,26606,1,8,0:0:0:0:
256,192,26766,1,8,0:0:0:0:
256,192,26925,1,4,0:0:0:0:
256,192,27244,1,0,0:0:0:0:
256,192,27404,1,8,0:0:0:0:
256,192,27564,1,0,0:0:0:0:
256,192,27723,1,8,0:0:0:0:
256,192,27883,1,0,0:0:0:0:
256,192,27962,1,0,0:0:0:0:
256,192,28042,1,8,0:0:0:0:
256,192,28122,1,8,0:0:0:0:
256,192,28202,1,8,0:0:0:0:
256,192,28282,1,8,0:0:0:0:
256,192,28361,1,4,0:0:0:0:
256,192,28681,1,8,0:0:0:0:
256,192,28840,1,0,0:0:0:0:
256,192,28920,1,8,0:0:0:0:
256,192,29000,1,0,0:0:0:0:
256,192,29159,1,0,0:0:0:0:
256,192,29319,1,8,0:0:0:0:
256,192,29638,1,0,0:0:0:0:
256,192,29798,1,0,0:0:0:0:
256,192,29957,1,8,0:0:0:0:
256,192,30117,1,0,0:0:0:0:
256,192,30197,1,8,0:0:0:0:
256,192,30276,1,8,0:0:0:0:
256,192,30436,1,0,0:0:0:0:
256,192,30595,1,8,0:0:0:0:
256,192,30755,1,8,0:0:0:0:
256,192,30915,1,0,0:0:0:0:
256,192,31234,1,8,0:0:0:0:
256,192,31393,1,0,0:0:0:0:
256,192,31473,1,8,0:0:0:0:
256,192,31553,1,0,0:0:0:0:
256,192,31712,1,0,0:0:0:0:
256,192,31872,1,8,0:0:0:0:
256,192,32191,1,0,0:0:0:0:
256,192,32351,1,0,0:0:0:0:
256,192,32510,1,8,0:0:0:0:
256,192,32670,1,0,0:0:0:0:
256,192,32830,1,8,0:0:0:0:
256,192,32909,1,8,0:0:0:0:
256,192,32989,1,0,0:0:0:0:
256,192,33069,1,0,0:0:0:0:
256,192,33149,1,8,0:0:0:0:
256,192,33308,1,8,0:0:0:0:
256,192,33468,1,0,0:0:0:0:
256,192,33787,1,8,0:0:0:0:
256,192,33947,1,0,0:0:0:0:
256,192,34026,1,8,0:0:0:0:
256,192,34106,1,0,0:0:0:0:
256,192,34266,1,0,0:0:0:0:
256,192,34425,1,8,0:0:0:0:
256,192,34744,1,0,0:0:0:0:
256,192,34904,1,0,0:0:0:0:
256,192,35064,1,8,0:0:0:0:
256,192,35223,1,0,0:0:0:0:
256,192,35303,1,8,0:0:0:0:
256,192,35383,1,0,0:0:0:0:
256,192,35542,1,8,0:0:0:0:
256,192,35702,1,8,0:0:0:0:
256,192,35861,1,4,0:0:0:0:
256,192,36181,1,0,0:0:0:0:
256,192,36340,1,8,0:0:0:0:
256,192,36500,1,4,0:0:0:0:
256,192,36819,1,8,0:0:0:0:
256,192,36978,1,8,0:0:0:0:
256,192,37138,1,4,0:0:0:0:
256,192,37457,1,0,0:0:0:0:
256,192,37617,1,8,0:0:0:0:
256,192,37776,1,0,0:0:0:0:
256,192,37936,1,8,0:0:0:0:
256,192,38016,1,8,0:0:0:0:
256,192,38095,1,8,0:0:0:0:
256,192,38175,1,0,0:0:0:0:
256,192,38255,1,8,0:0:0:0:
256,192,38415,1,8,0:0:0:0:
256,192,38574,1,4,0:0:0:0:
256,192,38893,1,8,0:0:0:0:
256,192,39053,1,0,0:0:0:0:
256,192,39133,1,0,0:0:0:0:
256,192,39212,1,8,0:0:0:0:
256,192,39372,1,8,0:0:0:0:
256,192,39532,1,0,0:0:0:0:
256,192,39691,1,8,0:0:0:0:
256,192,40010,1,8,0:0:0:0:
256,192,40170,1,0,0:0:0:0:
256,192,40330,1,0,0:0:0:0:
256,192,40489,1,12,0:0:0:0:
256,192,40808,1,0,0:0:0:0:
256,192,40968,1,8,0:0:0:0:
256,192,41048,1,8,0:0:0:0:
256,192,41127,1,0,0:0:0:0:
256,192,41287,1,0,0:0:0:0:
256,192,41447,1,8,0:0:0:0:
256,192,41606,1,0,0:0:0:0:
256,192,41766,1,8,0:0:0:0:
256,192,41925,1,8,0:0:0:0:
256,192,42085,1,0,0:0:0:0:
256,192,42244,1,8,0:0:0:0:
256,192,42564,1,8,0:0:0:0:
256,192,42723,1,0,0:0:0:0:
256,192,42883,1,8,0:0:0:0:
256,192,42962,1,0,0:0:0:0:
256,192,43042,1,8,0:0:0:0:
256,192,43122,1,8,0:0:0:0:
256,192,43202,1,0,0:0:0:0:
256,192,43282,1,8,0:0:0:0:
256,192,43361,1,0,0:0:0:0:
256,192,43441,1,0,0:0:0:0:
256,192,43521,1,8,0:0:0:0:
256,192,43601,1,8,0:0:0:0:
256,192,43681,1,0,0:0:0:0:
256,192,43840,1,0,0:0:0:0:
256,192,44000,1,8,0:0:0:0:
256,192,44159,1,0,0:0:0:0:
256,192,44239,1,0,0:0:0:0:
256,192,44319,1,8,0:0:0:0:
256,192,44478,1,8,0:0:0:0:
256,192,44638,1,0,0:0:0:0:
256,192,44798,1,8,0:0:0:0:
256,192,45117,1,8,0:0:0:0:
256,192,45276,1,0,0:0:0:0:
256,192,45436,1,0,0:0:0:0:
256,192,45595,1,12,0:0:0:0:
256,192,45915,1,0,0:0:0:0:
256,192,46074,1,8,0:0:0:0:
256,192,46154,1,8,0:0:0:0:
256,192,46234,1,0,0:0:0:0:
256,192,46393,1,0,0:0:0:0:
256,192,46553,1,0,0:0:0:0:
256,192,46712,1,8,0:0:0:0:
256,192,47032,1,0,0:0:0:0:
256,192,47191,1,8,0:0:0:0:
256,192,47351,1,8,0:0:0:0:
256,192,47510,1,0,0:0:0:0:
256,192,47670,1,8,0:0:0:0:
256,192,47989,1,0,0:0:0:0:
256,192,48149,1,8,0:0:0:0:
256,192,48308,1,0,0:0:0:0:
256,192,48388,1,0,0:0:0:0:
256,192,48468,1,8,0:0:0:0:
256,192,48627,1,8,0:0:0:0:
256,192,48787,1,4,0:0:0:0:
256,192,49106,1,8,0:0:0:0:
256,192,49266,1,0,0:0:0:0:
256,192,49345,1,0,0:0:0:0:
256,192,49425,1,8,0:0:0:0:
256,192,49585,1,8,0:0:0:0:
256,192,49744,1,0,0:0:0:0:
256,192,49904,1,8,0:0:0:0:
256,192,50223,1,8,0:0:0:0:
256,192,50383,1,0,0:0:0:0:
256,192,50542,1,0,0:0:0:0:
256,192,50702,1,12,0:0:0:0:
256,192,51021,1,0,0:0:0:0:
256,192,51181,1,8,0:0:0:0:
256,192,51260,1,8,0:0:0:0:
256,192,51340,1,0,0:0:0:0:
256,192,51500,1,0,0:0:0:0:
256,192,51659,1,8,0:0:0:0:
256,192,51819,1,0,0:0:0:0:
256,192,51978,1,8,0:0:0:0:
256,192,52138,1,8,0:0:0:0:
256,192,52298,1,0,0:0:0:0:
256,192,52457,1,8,0:0:0:0:
256,192,52776,1,8,0:0:0:0:
256,192,52936,1,0,0:0:0:0:
256,192,53095,1,8,0:0:0:0:
256,192,53175,1,0,0:0:0:0:
256,192,53255,1,8,0:0:0:0:
256,192,53335,1,8,0:0:0:0:
256,192,53415,1,0,0:0:0:0:
256,192,53494,1,8,0:0:0:0:
256,192,53574,1,0,0:0:0:0:
256,192,53654,1,0,0:0:0:0:
256,192,53734,1,8,0:0:0:0:
256,192,53814,1,8,0:0:0:0:
256,192,53893,1,0,0:0:0:0:
256,192,54053,1,0,0:0:0:0:
256,192,54212,1,8,0:0:0:0:
256,192,54372,1,0,0:0:0:0:
256,192,54452,1,0,0:0:0:0:
256,192,54532,1,8,0:0:0:0:
256,192,54691,1,8,0:0:0:0:
256,192,54851,1,0,0:0:0:0:
256,192,55010,1,8,0:0:0:0:
256,192,55330,1,8,0:0:0:0:
256,192,55489,1,0,0:0:0:0:
256,192,55649,1,0,0:0:0:0:
256,192,55808,1,12,0:0:0:0:
256,192,56127,1,0,0:0:0:0:
256,192,56287,1,8,0:0:0:0:
256,192,56367,1,0,0:0:0:0:
256,192,56447,1,8,0:0:0:0:
256,192,56606,1,0,0:0:0:0:
256,192,56686,1,0,0:0:0:0:
256,192,56766,1,0,0:0:0:0:
256,192,56925,1,8,0:0:0:0:
256,192,57085,1,0,0:0:0:0:
256,192,57165,1,8,0:0:0:0:
256,192,57244,1,0,0:0:0:0:
256,192,57404,1,8,0:0:0:0:
256,192,57564,1,0,0:0:0:0:
256,192,57643,1,0,0:0:0:0:
256,192,57723,1,0,0:0:0:0:
256,192,57883,1,8,0:0:0:0:
256,192,58042,1,0,0:0:0:0:
256,192,58122,1,8,0:0:0:0:
256,192,58202,1,0,0:0:0:0:
256,192,58361,1,8,0:0:0:0:
256,192,58521,1,0,0:0:0:0:
256,192,58601,1,8,0:0:0:0:
256,192,58681,1,8,0:0:0:0:
256,192,58840,1,0,0:0:0:0:
256,192,59000,1,12,0:0:0:0:
256,192,59159,1,0,0:0:0:0:
256,192,59239,1,0,0:0:0:0:
256,192,59319,1,0,0:0:0:0:
256,192,59478,1,12,0:0:0:0:
256,192,59638,1,0,0:0:0:0:
256,192,59718,1,8,0:0:0:0:
256,192,59797,1,0,0:0:0:0:
256,192,59957,1,12,0:0:0:0:
256,192,60117,1,0,0:0:0:0:
256,192,60196,1,0,0:0:0:0:
256,192,60276,1,0,0:0:0:0:
256,192,60436,1,12,0:0:0:0:
256,192,60595,1,0,0:0:0:0:
256,192,60675,1,0,0:0:0:0:
256,192,60755,1,8,0:0:0:0:
256,192,60835,1,8,0:0:0:0:
256,192,60914,1,4,0:0:0:0:
256,192,61074,1,8,0:0:0:0:
256,192,61154,1,8,0:0:0:0:
256,192,61234,1,8,0:0:0:0:
256,192,61393,1,4,0:0:0:0:
256,192,61553,1,8,0:0:0:0:
256,192,61632,1,0,0:0:0:0:
256,192,61712,1,8,0:0:0:0:
256,192,61872,1,4,0:0:0:0:
256,192,62031,1,8,0:0:0:0:
256,192,62111,1,8,0:0:0:0:
256,192,62191,1,8,0:0:0:0:
256,192,62351,1,4,0:0:0:0:
256,192,62510,1,8,0:0:0:0:
256,192,62590,1,8,0:0:0:0:
256,192,62670,1,0,0:0:0:0:
256,192,62750,1,0,0:0:0:0:
256,192,62829,1,12,0:0:0:0:
256,192,62989,1,0,0:0:0:0:
256,192,63069,1,0,0:0:0:0:
256,192,63148,1,0,0:0:0:0:
256,192,63308,1,12,0:0:0:0:
256,192,63468,1,0,0:0:0:0:
256,192,63547,1,8,0:0:0:0:
256,192,63627,1,0,0:0:0:0:
256,192,63787,1,12,0:0:0:0:
256,192,63946,1,0,0:0:0:0:
256,192,64026,1,0,0:0:0:0:
256,192,64106,1,0,0:0:0:0:
256,192,64265,1,12,0:0:0:0:
256,192,64425,1,0,0:0:0:0:
256,192,64505,1,0,0:0:0:0:
256,192,64585,1,8,0:0:0:0:
256,192,64664,1,8,0:0:0:0:
256,192,64744,1,4,0:0:0:0:
256,192,64904,1,8,0:0:0:0:
256,192,64984,1,8,0:0:0:0:
256,192,65063,1,8,0:0:0:0:
256,192,65223,1,4,0:0:0:0:
256,192,65382,1,8,0:0:0:0:
256,192,65462,1,0,0:0:0:0:
256,192,65542,1,8,0:0:0:0:
256,192,65702,1,4,0:0:0:0:
256,192,65861,1,8,0:0:0:0:
256,192,65941,1,8,0:0:0:0:
256,192,66021,1,8,0:0:0:0:
256,192,66180,1,4,0:0:0:0:
256,192,66340,1,8,0:0:0:0:
256,192,66420,1,8,0:0:0:0:
256,192,66500,1,0,0:0:0:0:
256,192,66579,1,0,0:0:0:0:
256,192,66659,1,12,0:0:0:0:
256,192,66819,1,0,0:0:0:0:
256,192,66898,1,0,0:0:0:0:
256,192,66978,1,0,0:0:0:0:
256,192,67138,1,12,0:0:0:0:
256,192,67297,1,0,0:0:0:0:
256,192,67377,1,8,0:0:0:0:
256,192,67457,1,0,0:0:0:0:
256,192,67617,1,12,0:0:0:0:
256,192,67776,1,0,0:0:0:0:
256,192,67856,1,0,0:0:0:0:
256,192,67936,1,0,0:0:0:0:
256,192,68095,1,12,0:0:0:0:
256,192,68255,1,0,0:0:0:0:
256,192,68335,1,0,0:0:0:0:
256,192,68414,1,0,0:0:0:0:
256,192,68494,1,0,0:0:0:0:
256,192,68574,1,12,0:0:0:0:
256,192,68734,12,0,72404,0:0:0:0:
