osu file format v14

[General]
AudioFilename: audio.mp3
AudioLeadIn: 0
PreviewTime: 81220
Countdown: 0
SampleSet: Normal
StackLeniency: 0.7
Mode: 1
LetterboxInBreaks: 0
WidescreenStoryboard: 0

[Editor]
DistanceSpacing: 1.7
BeatDivisor: 8
GridSize: 32
TimelineZoom: 1.5

[Metadata]
Title:Lost wing at.0
TitleUnicode:Lost wing at.0
Artist:Nekomata Master+
ArtistUnicode:猫叉Master+
Creator:yassu-
Version:Falling
Source:BeatStream アニムトライヴ
Tags:animtribe beatmania IIDX 24 SINOBUZ jubeat plus Qubell SOUND VOLTEX IV HEAVENLY HAVEN DRUM'N'BASS and electronic instrumental rhythm video game 25 Cannon Ballers Original Soundtrack tjbc #6 japanese beatmap contest tasuke912 Naoyuki Sato POINT ZERO
BeatmapID:1616576
BeatmapSetID:768685

[Difficulty]
HPDrainRate:6
CircleSize:5
OverallDifficulty:6
ApproachRate:5
SliderMultiplier:1.4
SliderTickRate:1

[Events]
//Background and Video events
0,0,"bg[1].jpg",0,0
//Break Periods
//Storyboard Layer 0 (Background)
//Storyboard Layer 1 (Fail)
//Storyboard Layer 2 (Pass)
//Storyboard Layer 3 (Foreground)
//Storyboard Layer 4 (Overlay)
//Storyboard Sound Samples

[TimingPoints]
1031,324.324324324324,4,1,0,90,1,0
21747,-100,6,1,0,80,0,0
57382,-101.010101010101,4,1,0,80,0,0
57463,-102.040816326531,4,1,0,80,0,0
57544,-103.092783505155,4,1,0,80,0,0
57625,-104.166666666667,4,1,0,80,0,0
57706,-105.263157894737,4,1,0,80,0,0
57787,-106.382978723404,4,1,0,80,0,0
57868,-107.52688172043,4,1,0,80,0,0
57949,-108.695652173913,4,1,0,80,0,0
58030,-109.89010989011,4,1,0,80,0,0
58112,-111.111111111111,4,1,0,80,0,0
58274,-111.111111111111,4,1,0,70,0,0
68409,-105.263157894737,4,1,0,70,0,0
73598,-102.040816326531,6,1,0,80,0,0
76193,-100,6,1,0,80,0,0
78828,-100,6,1,0,90,0,0
81138,-90.9090909090909,4,1,0,95,0,0
81463,-90.9090909090909,4,1,0,95,0,1
101409,-91.743119266055,4,1,0,95,0,1
101490,-92.5925925925926,4,1,0,95,0,1
101571,-93.4579439252336,4,1,0,95,0,1
101652,-94.3396226415094,4,1,0,95,0,1
101733,-95.2380952380952,4,1,0,95,0,1
101814,-96.1538461538461,4,1,0,95,0,1
101895,-97.0873786407767,4,1,0,95,0,1
101976,-98.0392156862745,4,1,0,95,0,1
102058,-99.009900990099,4,1,0,95,0,1
102139,-100,4,1,0,95,0,1
102179,-100,4,1,0,90,0,1
102220,-100,6,1,0,90,0,0
117868,-100,4,1,0,60,0,0
119085,-100,4,1,0,50,0,0
120382,-100,4,1,0,40,0,0
120706,-100,4,1,0,30,0,0
121030,-100,4,1,0,20,0,0
121355,-100,4,1,0,10,0,0

[HitObjects]
256,192,1031,5,2,0:0:0:0:
256,192,1355,1,2,0:0:0:0:
256,192,1679,1,0,0:0:0:0:
256,192,1760,1,0,0:0:0:0:
256,192,1841,1,2,0:0:0:0:
256,192,1922,1,2,0:0:0:0:
256,192,2003,1,2,0:0:0:0:
256,192,2166,1,0,0:0:0:0:
256,192,2247,1,2,0:0:0:0:
256,192,2328,1,0,0:0:0:0:
256,192,2571,1,2,0:0:0:0:
256,192,2652,1,2,0:0:0:0:
256,192,2814,1,0,0:0:0:0:
256,192,3139,1,2,0:0:0:0:
256,192,3301,1,4,0:0:0:0:
256,192,3463,1,2,0:0:0:0:
256,192,3544,1,2,0:0:0:0:
256,192,3625,1,0,0:0:0:0:
256,192,3787,1,6,0:0:0:0:
256,192,6058,1,2,0:0:0:0:
256,192,6139,1,2,0:0:0:0:
256,192,6220,1,0,0:0:0:0:
256,192,6463,1,2,0:0:0:0:
256,192,6544,1,2,0:0:0:0:
256,192,6706,1,0,0:0:0:0:
256,192,7030,1,0,0:0:0:0:
256,192,7193,1,6,0:0:0:0:
256,192,7355,1,0,0:0:0:0:
256,192,7436,1,2,0:0:0:0:
256,192,7517,1,2,0:0:0:0:
256,192,7679,1,6,0:0:0:0:
256,192,8003,1,0,0:0:0:0:
256,192,8085,1,0,0:0:0:0:
256,192,8166,1,2,0:0:0:0:
256,192,9301,1,2,0:0:0:0:
256,192,9382,1,2,0:0:0:0:
256,192,9463,1,0,0:0:0:0:
256,192,9625,1,2,0:0:0:0:
256,192,9706,1,2,0:0:0:0:
256,192,9787,1,0,0:0:0:0:
256,192,9868,1,0,0:0:0:0:
256,192,9949,1,2,0:0:0:0:
256,192,10030,1,0,0:0:0:0:
256,192,10112,1,2,0:0:0:0:
256,192,10355,1,2,0:0:0:0:
256,192,10436,1,2,0:0:0:0:
256,192,10598,1,0,0:0:0:0:
256,192,10760,1,0,0:0:0:0:
256,192,10841,1,0,0:0:0:0:
256,192,10922,1,2,0:0:0:0:
256,192,11085,1,4,0:0:0:0:
256,192,11247,1,2,0:0:0:0:
256,192,11328,1,2,0:0:0:0:
256,192,11409,1,0,0:0:0:0:
256,192,11571,1,6,0:0:0:0:
256,192,12382,1,2,0:0:0:0:
256,192,12976,1,2,0:0:0:0:
256,192,13274,1,0,0:0:0:0:
256,192,13355,1,2,0:0:0:0:
256,192,13436,1,2,0:0:0:0:
256,192,13517,1,2,0:0:0:0:
256,192,13598,1,2,0:0:0:0:
256,192,13679,1,0,0:0:0:0:
256,192,13760,1,2,0:0:0:0:
256,192,13841,1,0,0:0:0:0:
256,192,13922,1,0,0:0:0:0:
256,192,14003,1,2,0:0:0:0:
256,192,14247,1,2,0:0:0:0:
256,192,14328,1,2,0:0:0:0:
256,192,14490,1,0,0:0:0:0:
256,192,14652,1,2,0:0:0:0:
256,192,14733,1,0,0:0:0:0:
256,192,14814,1,0,0:0:0:0:
256,192,14976,1,6,0:0:0:0:
256,192,15139,1,0,0:0:0:0:
256,192,15220,1,2,0:0:0:0:
256,192,15301,1,2,0:0:0:0:
256,192,15463,1,6,0:0:0:0:
256,192,16436,1,0,0:0:0:0:
256,192,16517,1,0,0:0:0:0:
256,192,16598,1,2,0:0:0:0:
256,192,17571,1,2,0:0:0:0:
256,192,17679,1,0,0:0:0:0:
256,192,17787,1,0,0:0:0:0:
256,192,17895,1,6,0:0:0:0:
256,192,18139,1,2,0:0:0:0:
256,192,18382,1,2,0:0:0:0:
256,192,19030,1,6,0:0:0:0:
256,192,19274,1,2,0:0:0:0:
256,192,19517,1,0,0:0:0:0:
256,192,20003,1,0,0:0:0:0:
256,192,20328,1,2,0:0:0:0:
256,192,20652,1,2,0:0:0:0:
256,192,20733,1,2,0:0:0:0:
256,192,20814,1,0,0:0:0:0:
256,192,20895,1,0,0:0:0:0:
256,192,20976,1,2,0:0:0:0:
256,192,21030,1,2,0:0:0:0:
256,192,21085,1,2,0:0:0:0:
256,192,21139,1,0,0:0:0:0:
256,192,21220,1,2,0:0:0:0:
256,192,21301,1,0,0:0:0:0:
256,192,21463,1,2,0:0:0:0:
256,192,21625,1,2,0:0:0:0:
256,192,21706,1,2,0:0:0:0:
256,192,21787,1,0,0:0:0:0:
256,192,22112,1,2,0:0:0:0:
256,192,22598,1,0,0:0:0:0:
256,192,22760,1,2,0:0:0:0:
256,192,23085,1,0,0:0:0:0:
256,192,23409,1,2,0:0:0:0:
256,192,23571,1,2,0:0:0:0:
256,192,23895,1,0,0:0:0:0:
256,192,24058,1,2,0:0:0:0:
256,192,24382,1,0,0:0:0:0:
256,192,24706,1,2,0:0:0:0:
256,192,24868,1,0,0:0:0:0:
256,192,25193,1,0,0:0:0:0:
256,192,25355,1,2,0:0:0:0:
256,192,25517,1,0,0:0:0:0:
256,192,25841,1,0,0:0:0:0:
256,192,26003,1,0,0:0:0:0:
256,192,26166,1,2,0:0:0:0:
256,192,26490,1,0,0:0:0:0:
256,192,26652,1,2,0:0:0:0:
256,192,26814,1,2,0:0:0:0:
256,192,26895,1,2,0:0:0:0:
256,192,26976,1,0,0:0:0:0:
256,192,27139,1,0,0:0:0:0:
256,192,27301,1,2,0:0:0:0:
256,192,27544,1,2,0:0:0:0:
256,192,27625,1,2,0:0:0:0:
256,192,27787,1,0,0:0:0:0:
256,192,27949,1,2,0:0:0:0:
256,192,28112,1,2,0:0:0:0:
256,192,28274,1,0,0:0:0:0:
256,192,28598,1,2,0:0:0:0:
256,192,28841,1,0,0:0:0:0:
256,192,28922,1,2,0:0:0:0:
256,192,29085,1,0,0:0:0:0:
256,192,29247,1,2,0:0:0:0:
256,192,29409,1,2,0:0:0:0:
256,192,29490,1,2,0:0:0:0:
256,192,29571,1,0,0:0:0:0:
256,192,29733,1,0,0:0:0:0:
256,192,29895,1,2,0:0:0:0:
256,192,30139,1,2,0:0:0:0:
256,192,30220,1,2,0:0:0:0:
256,192,30382,1,0,0:0:0:0:
256,192,30544,1,2,0:0:0:0:
256,192,30706,1,0,0:0:0:0:
256,192,31030,1,2,0:0:0:0:
256,192,31193,1,0,0:0:0:0:
256,192,31355,1,2,0:0:0:0:
256,192,31517,1,2,0:0:0:0:
256,192,31679,1,0,0:0:0:0:
256,192,31841,1,2,0:0:0:0:
256,192,31922,1,0,0:0:0:0:
256,192,32003,1,2,0:0:0:0:
256,192,32085,1,2,0:0:0:0:
256,192,32166,1,0,0:0:0:0:
256,192,32490,1,2,0:0:0:0:
256,192,32652,1,0,0:0:0:0:
256,192,32814,1,2,0:0:0:0:
256,192,32868,1,2,0:0:0:0:
256,192,32922,1,2,0:0:0:0:
256,192,32976,1,0,0:0:0:0:
256,192,33139,1,2,0:0:0:0:
256,192,33463,1,0,0:0:0:0:
256,192,33706,1,0,0:0:0:0:
256,192,33787,1,2,0:0:0:0:
256,192,33949,1,0,0:0:0:0:
256,192,34030,1,2,0:0:0:0:
256,192,34112,1,0,0:0:0:0:
256,192,34166,1,2,0:0:0:0:
256,192,34220,1,2,0:0:0:0:
256,192,34274,1,0,0:0:0:0:
256,192,34436,1,2,0:0:0:0:
256,192,34760,1,0,0:0:0:0:
256,192,35085,1,2,0:0:0:0:
256,192,35247,1,0,0:0:0:0:
256,192,35409,1,2,0:0:0:0:
256,192,35490,1,2,0:0:0:0:
256,192,35571,1,0,0:0:0:0:
256,192,35733,1,2,0:0:0:0:
256,192,35895,1,0,0:0:0:0:
256,192,35976,1,2,0:0:0:0:
256,192,36220,1,0,0:0:0:0:
256,192,36274,1,0,0:0:0:0:
256,192,36328,1,0,0:0:0:0:
256,192,36382,1,2,0:0:0:0:
256,192,36544,1,0,0:0:0:0:
256,96,36828,1,2,0:0:0:0:
256,96,36868,1,2,0:0:0:0:
256,160,37193,1,2,0:0:0:0:
256,160,37355,1,0,0:0:0:0:
256,192,37679,1,2,0:0:0:0:
256,192,37841,1,0,0:0:0:0:
256,192,37922,1,2,0:0:0:0:
256,192,38003,1,0,0:0:0:0:
256,192,38058,1,2,0:0:0:0:
256,192,38112,1,2,0:0:0:0:
256,192,38166,1,0,0:0:0:0:
256,192,38328,1,2,0:0:0:0:
256,192,38652,1,0,0:0:0:0:
256,192,38895,1,0,0:0:0:0:
256,192,38976,1,2,0:0:0:0:
256,192,39139,1,0,0:0:0:0:
256,192,39220,1,2,0:0:0:0:
256,192,39301,1,0,0:0:0:0:
256,192,39463,1,0,0:0:0:0:
256,192,39625,1,2,0:0:0:0:
256,192,39666,1,2,0:0:0:0:
256,192,39949,1,0,0:0:0:0:
224,192,40193,1,0,0:0:0:0:
256,192,40274,1,2,0:0:0:0:
256,192,40436,1,0,0:0:0:0:
256,192,40517,1,2,0:0:0:0:
256,192,40598,1,2,0:0:0:0:
256,192,40760,1,0,0:0:0:0:
256,192,40922,1,2,0:0:0:0:
256,192,41085,1,0,0:0:0:0:
256,192,41409,1,2,0:0:0:0:
256,192,41463,1,0,0:0:0:0:
256,192,41517,1,0,0:0:0:0:
256,192,41571,1,2,0:0:0:0:
256,192,41733,1,0,0:0:0:0:
256,192,42058,1,2,0:0:0:0:
256,192,42382,1,2,0:0:0:0:
256,192,42544,1,4,0:0:0:0:
256,192,42868,1,2,0:0:0:0:
256,192,43030,1,0,0:0:0:0:
256,192,43112,1,2,0:0:0:0:
256,192,43193,1,2,0:0:0:0:
256,192,43274,1,0,0:0:0:0:
256,192,43355,1,0,0:0:0:0:
256,192,43517,1,2,0:0:0:0:
256,192,43679,1,2,0:0:0:0:
256,192,43760,1,2,0:0:0:0:
256,192,43841,1,0,0:0:0:0:
256,192,44166,1,2,0:0:0:0:
256,192,44409,1,2,0:0:0:0:
256,192,44490,1,0,0:0:0:0:
256,192,44652,1,0,0:0:0:0:
256,192,44814,1,2,0:0:0:0:
256,192,44976,1,0,0:0:0:0:
256,192,45058,1,2,0:0:0:0:
256,192,45139,1,0,0:0:0:0:
256,192,45301,1,0,0:0:0:0:
256,192,45463,1,2,0:0:0:0:
256,192,45706,1,2,0:0:0:0:
256,192,45787,1,2,0:0:0:0:
256,192,45949,1,0,0:0:0:0:
256,192,46112,1,2,0:0:0:0:
256,192,46274,1,0,0:0:0:0:
256,192,46598,1,0,0:0:0:0:
256,192,46760,1,0,0:0:0:0:
256,192,46922,1,2,0:0:0:0:
256,192,47247,1,0,0:0:0:0:
256,192,47409,1,2,0:0:0:0:
256,192,47490,1,2,0:0:0:0:
256,192,47571,1,0,0:0:0:0:
256,192,47652,1,2,0:0:0:0:
256,192,47733,1,0,0:0:0:0:
256,192,47976,1,0,0:0:0:0:
256,192,48058,1,2,0:0:0:0:
256,192,48220,1,0,0:0:0:0:
256,192,48301,1,0,0:0:0:0:
256,192,48382,1,2,0:0:0:0:
256,192,48463,1,2,0:0:0:0:
256,192,48544,1,0,0:0:0:0:
256,192,48706,1,2,0:0:0:0:
256,192,48868,1,2,0:0:0:0:
256,192,48949,1,2,0:0:0:0:
256,192,49030,1,0,0:0:0:0:
256,192,49355,1,2,0:0:0:0:
256,192,49517,1,0,0:0:0:0:
256,192,49598,1,2,0:0:0:0:
256,192,49841,1,0,0:0:0:0:
256,192,50003,1,2,0:0:0:0:
256,192,50166,1,2,0:0:0:0:
256,192,50247,1,2,0:0:0:0:
256,192,50328,1,0,0:0:0:0:
256,192,50490,1,0,0:0:0:0:
256,192,50652,1,2,0:0:0:0:
256,192,50895,1,2,0:0:0:0:
256,192,50976,1,2,0:0:0:0:
256,192,51139,1,0,0:0:0:0:
256,192,51220,1,0,0:0:0:0:
256,192,51301,1,2,0:0:0:0:
256,192,51463,1,0,0:0:0:0:
256,192,51625,1,2,0:0:0:0:
256,192,51787,1,0,0:0:0:0:
256,192,51868,1,2,0:0:0:0:
256,192,51949,1,2,0:0:0:0:
256,192,52112,1,0,0:0:0:0:
256,192,52274,1,2,0:0:0:0:
256,192,52355,1,2,0:0:0:0:
256,192,52436,1,0,0:0:0:0:
256,192,52517,1,0,0:0:0:0:
256,192,52598,1,2,0:0:0:0:
256,192,52760,1,4,0:0:0:0:
256,192,52922,1,2,0:0:0:0:
256,192,53003,1,2,0:0:0:0:
256,192,53085,1,0,0:0:0:0:
256,192,53166,1,0,0:0:0:0:
256,192,53247,1,2,0:0:0:0:
256,192,53328,1,0,0:0:0:0:
256,192,53409,1,2,0:0:0:0:
256,192,53571,1,0,0:0:0:0:
256,192,53652,1,0,0:0:0:0:
256,192,53733,1,2,0:0:0:0:
256,192,53814,1,0,0:0:0:0:
256,192,53895,1,2,0:0:0:0:
256,192,54058,1,0,0:0:0:0:
256,192,54139,1,0,0:0:0:0:
256,192,54220,1,2,0:0:0:0:
256,192,54301,1,0,0:0:0:0:
256,192,54382,1,2,0:0:0:0:
256,192,54463,1,2,0:0:0:0:
256,192,54544,1,0,0:0:0:0:
256,192,54625,1,0,0:0:0:0:
256,192,54706,1,2,0:0:0:0:
256,192,54787,1,2,0:0:0:0:
256,192,54868,1,0,0:0:0:0:
256,192,54949,1,0,0:0:0:0:
256,192,55030,1,2,0:0:0:0:
256,192,55112,1,0,0:0:0:0:
256,192,55193,1,2,0:0:0:0:
256,192,55274,1,2,0:0:0:0:
256,192,55355,1,0,0:0:0:0:
256,192,55436,1,2,0:0:0:0:
256,192,55517,1,0,0:0:0:0:
256,192,55679,1,2,0:0:0:0:
256,192,55760,1,0,0:0:0:0:
256,192,55922,1,2,0:0:0:0:
256,192,56003,1,0,0:0:0:0:
256,192,56166,1,0,0:0:0:0:
256,192,56247,1,0,0:0:0:0:
256,192,56328,1,2,0:0:0:0:
256,192,56382,1,2,0:0:0:0:
256,192,56436,1,2,0:0:0:0:
256,192,56490,1,0,0:0:0:0:
256,192,56652,1,2,0:0:0:0:
256,192,56733,1,0,0:0:0:0:
256,192,56814,1,2,0:0:0:0:
256,192,56895,1,2,0:0:0:0:
256,192,56976,1,0,0:0:0:0:
256,192,57382,1,0,0:0:0:0:
256,192,57463,1,2,0:0:0:0:
256,192,57544,1,2,0:0:0:0:
256,192,57625,1,0,0:0:0:0:
256,192,57706,1,0,0:0:0:0:
256,192,57787,1,2,0:0:0:0:
256,192,57868,1,0,0:0:0:0:
256,192,57949,1,2,0:0:0:0:
256,192,58030,1,2,0:0:0:0:
256,192,58112,1,0,0:0:0:0:
256,192,58355,1,2,0:0:0:0:
256,192,58598,1,2,0:0:0:0:
256,192,59085,1,0,0:0:0:0:
256,192,59328,1,2,0:0:0:0:
256,192,59571,1,2,0:0:0:0:
256,192,60220,1,0,0:0:0:0:
256,192,60301,1,0,0:0:0:0:
256,192,60382,1,2,0:0:0:0:
256,192,60463,1,2,0:0:0:0:
256,192,60544,1,0,0:0:0:0:
256,192,60706,1,2,0:0:0:0:
256,192,60949,1,0,0:0:0:0:
256,192,61193,1,2,0:0:0:0:
256,192,61679,1,2,0:0:0:0:
256,192,61922,1,0,0:0:0:0:
256,192,62166,1,6,0:0:0:0:
256,192,63301,1,0,0:0:0:0:
256,192,63544,1,2,0:0:0:0:
256,192,63787,1,2,0:0:0:0:
256,192,64274,1,0,0:0:0:0:
256,192,64517,1,2,0:0:0:0:
256,192,64760,1,2,0:0:0:0:
256,192,65247,1,0,0:0:0:0:
256,192,65328,1,0,0:0:0:0:
256,192,65409,1,0,0:0:0:0:
256,192,65490,1,2,0:0:0:0:
256,192,65571,1,2,0:0:0:0:
256,192,65652,1,2,0:0:0:0:
256,192,65733,1,0,0:0:0:0:
256,192,65895,1,2,0:0:0:0:
256,192,66139,1,0,0:0:0:0:
256,192,66382,1,2,0:0:0:0:
256,192,66868,1,0,0:0:0:0:
256,192,66949,1,2,0:0:0:0:
256,192,67030,1,2,0:0:0:0:
256,192,67112,1,0,0:0:0:0:
256,192,67274,1,2,0:0:0:0:
256,192,67355,1,0,0:0:0:0:
256,192,67598,1,0,0:0:0:0:
256,192,67679,1,2,0:0:0:0:
256,192,67841,1,2,0:0:0:0:
256,192,68003,1,0,0:0:0:0:
256,192,68085,1,2,0:0:0:0:
256,192,68166,1,0,0:0:0:0:
256,192,68328,1,2,0:0:0:0:
256,192,68490,1,4,0:0:0:0:
256,192,68733,1,2,0:0:0:0:
256,192,68814,1,0,0:0:0:0:
256,192,68976,1,2,0:0:0:0:
256,192,69058,1,0,0:0:0:0:
256,192,69139,1,0,0:0:0:0:
256,192,69301,1,2,0:0:0:0:
256,192,69463,1,0,0:0:0:0:
256,192,69706,1,2,0:0:0:0:
256,192,69787,1,0,0:0:0:0:
256,192,69949,1,2,0:0:0:0:
256,192,70112,1,0,0:0:0:0:
256,192,70274,1,2,0:0:0:0:
256,192,70355,1,2,0:0:0:0:
256,192,70436,1,0,0:0:0:0:
256,192,70517,1,2,0:0:0:0:
256,192,70598,1,0,0:0:0:0:
256,192,70760,1,2,0:0:0:0:
256,192,71085,1,0,0:0:0:0:
256,192,71328,1,0,0:0:0:0:
256,192,71409,1,2,0:0:0:0:
256,192,71571,1,2,0:0:0:0:
256,192,71733,1,0,0:0:0:0:
256,192,71814,1,2,0:0:0:0:
256,192,71895,1,0,0:0:0:0:
256,192,72058,1,2,0:0:0:0:
256,192,72301,1,2,0:0:0:0:
256,192,72382,1,0,0:0:0:0:
256,192,72544,1,2,0:0:0:0:
256,192,72706,1,0,0:0:0:0:
256,192,72787,1,2,0:0:0:0:
256,192,72868,1,0,0:0:0:0:
256,192,72949,1,0,0:0:0:0:
256,192,73030,1,2,0:0:0:0:
256,192,73112,1,2,0:0:0:0:
256,192,73193,1,0,0:0:0:0:
256,192,73355,1,2,0:0:0:0:
256,192,73517,1,2,0:0:0:0:
256,192,73679,1,0,0:0:0:0:
256,192,73922,1,2,0:0:0:0:
256,192,74003,1,0,0:0:0:0:
256,192,74166,1,0,0:0:0:0:
256,192,74247,1,0,0:0:0:0:
256,192,74328,1,2,0:0:0:0:
256,192,74490,1,0,0:0:0:0:
256,192,74652,1,2,0:0:0:0:
256,192,74895,1,2,0:0:0:0:
256,192,74976,1,0,0:0:0:0:
256,192,75139,1,2,0:0:0:0:
256,192,75301,1,0,0:0:0:0:
256,192,75382,1,2,0:0:0:0:
256,192,75463,1,0,0:0:0:0:
256,192,75544,1,0,0:0:0:0:
256,192,75625,1,2,0:0:0:0:
256,192,75787,1,0,0:0:0:0:
256,192,75949,1,2,0:0:0:0:
256,192,76274,1,4,0:0:0:0:
256,192,76517,1,4,0:0:0:0:
256,192,76760,1,4,0:0:0:0:
256,192,76922,1,2,0:0:0:0:
256,192,77085,1,2,0:0:0:0:
256,192,77166,1,2,0:0:0:0:
256,192,77247,1,0,0:0:0:0:
256,192,77409,1,2,0:0:0:0:
256,192,77490,1,0,0:0:0:0:
256,192,77652,1,2,0:0:0:0:
256,192,77733,1,0,0:0:0:0:
256,192,77895,1,2,0:0:0:0:
256,192,78058,1,0,0:0:0:0:
256,192,78220,1,2,0:0:0:0:
256,192,78301,1,2,0:0:0:0:
256,192,78382,1,0,0:0:0:0:
256,192,78463,1,0,0:0:0:0:
256,192,78544,1,2,0:0:0:0:
256,192,78625,1,2,0:0:0:0:
256,192,78706,1,0,0:0:0:0:
256,192,78787,1,0,0:0:0:0:
256,192,78868,1,2,0:0:0:0:
256,192,79030,1,0,0:0:0:0:
256,192,79112,1,2,0:0:0:0:
256,192,79274,1,0,0:0:0:0:
256,192,79355,1,2,0:0:0:0:
256,192,79679,1,0,0:0:0:0:
256,192,79760,1,0,0:0:0:0:
256,192,79841,1,2,0:0:0:0:
256,192,79922,1,0,0:0:0:0:
256,192,80003,1,0,0:0:0:0:
256,192,80085,1,2,0:0:0:0:
256,192,80166,1,0,0:0:0:0:
256,192,80247,1,0,0:0:0:0:
256,192,80328,1,2,0:0:0:0:
256,192,81301,1,2,0:0:0:0:
256,192,81382,1,2,0:0:0:0:
256,192,81463,1,0,0:0:0:0:
256,192,81625,1,2,0:0:0:0:
256,192,81679,1,0,0:0:0:0:
256,192,81733,1,0,0:0:0:0:
256,192,81787,1,2,0:0:0:0:
256,192,81949,1,2,0:0:0:0:
256,192,82112,1,0,0:0:0:0:
256,192,82193,1,2,0:0:0:0:
256,192,82274,1,0,0:0:0:0:
256,192,82355,1,0,0:0:0:0:
256,192,82436,1,2,0:0:0:0:
256,192,82598,1,2,0:0:0:0:
256,192,82652,1,2,0:0:0:0:
256,192,82706,1,2,0:0:0:0:
256,192,82760,1,0,0:0:0:0:
256,192,82922,1,2,0:0:0:0:
256,192,83003,1,0,0:0:0:0:
256,192,83085,1,2,0:0:0:0:
256,192,83247,1,2,0:0:0:0:
256,192,83409,1,0,0:0:0:0:
256,192,83490,1,2,0:0:0:0:
256,192,83571,1,0,0:0:0:0:
256,192,83625,1,0,0:0:0:0:
256,192,83679,1,0,0:0:0:0:
256,192,83733,1,2,0:0:0:0:
256,192,83976,1,2,0:0:0:0:
256,192,84058,1,0,0:0:0:0:
256,192,84220,1,0,0:0:0:0:
256,192,84301,1,0,0:0:0:0:
256,192,84382,1,2,0:0:0:0:
256,192,84544,1,0,0:0:0:0:
256,192,84598,1,2,0:0:0:0:
256,192,84652,1,2,0:0:0:0:
256,192,84706,1,0,0:0:0:0:
256,192,84787,1,2,0:0:0:0:
256,192,84868,1,0,0:0:0:0:
256,192,84949,1,0,0:0:0:0:
256,192,85030,1,2,0:0:0:0:
256,192,85193,1,0,0:0:0:0:
256,192,85274,1,2,0:0:0:0:
256,192,85355,1,0,0:0:0:0:
256,192,85517,1,0,0:0:0:0:
256,192,85598,1,0,0:0:0:0:
256,192,85679,1,2,0:0:0:0:
256,192,85841,1,0,0:0:0:0:
256,192,86003,1,2,0:0:0:0:
256,160,86085,1,2,0:0:0:0:
256,192,86166,1,0,0:0:0:0:
256,192,86247,1,0,0:0:0:0:
224,256,86328,1,2,0:0:0:0:
256,192,86490,1,2,0:0:0:0:
256,192,86652,1,4,0:0:0:0:
256,192,86976,1,2,0:0:0:0:
256,192,87139,1,0,0:0:0:0:
256,192,87220,1,0,0:0:0:0:
256,192,87301,1,2,0:0:0:0:
224,160,87382,1,2,0:0:0:0:
256,192,87463,1,0,0:0:0:0:
256,192,87625,1,2,0:0:0:0:
256,192,87787,1,2,0:0:0:0:
256,192,87868,1,2,0:0:0:0:
256,192,87949,1,0,0:0:0:0:
256,192,88112,1,0,0:0:0:0:
256,192,88274,1,2,0:0:0:0:
256,192,88436,1,2,0:0:0:0:
256,192,88517,5,2,0:0:0:0:
256,192,88598,1,0,0:0:0:0:
256,192,88679,1,2,0:0:0:0:
256,192,88760,1,0,0:0:0:0:
256,192,88841,1,0,0:0:0:0:
256,192,88922,1,2,0:0:0:0:
256,192,89085,1,2,0:0:0:0:
256,192,89247,1,0,0:0:0:0:
256,192,89571,1,2,0:0:0:0:
256,192,89814,1,2,0:0:0:0:
256,192,89895,1,0,0:0:0:0:
256,192,89976,1,2,0:0:0:0:
256,192,90058,1,0,0:0:0:0:
256,192,90220,1,2,0:0:0:0:
256,192,90382,1,0,0:0:0:0:
256,192,90625,1,2,0:0:0:0:
256,192,90706,1,0,0:0:0:0:
256,192,90828,1,2,0:0:0:0:
256,192,90868,1,2,0:0:0:0:
256,192,91030,1,0,0:0:0:0:
256,192,91193,1,2,0:0:0:0:
256,192,91355,1,0,0:0:0:0:
256,192,91436,1,0,0:0:0:0:
256,192,91517,1,2,0:0:0:0:
256,192,91598,1,0,0:0:0:0:
256,192,91679,1,2,0:0:0:0:
256,192,91760,1,2,0:0:0:0:
256,192,91841,1,0,0:0:0:0:
256,192,92003,1,2,0:0:0:0:
256,192,92058,1,0,0:0:0:0:
256,192,92112,1,0,0:0:0:0:
256,192,92166,1,2,0:0:0:0:
256,192,92328,1,2,0:0:0:0:
256,192,92490,1,0,0:0:0:0:
256,192,92571,1,2,0:0:0:0:
256,192,92652,1,0,0:0:0:0:
256,192,92733,1,0,0:0:0:0:
256,192,92814,1,2,0:0:0:0:
256,192,92976,1,2,0:0:0:0:
256,192,93030,1,2,0:0:0:0:
256,192,93085,1,2,0:0:0:0:
256,192,93139,1,0,0:0:0:0:
256,192,93301,1,2,0:0:0:0:
256,192,93382,1,0,0:0:0:0:
256,192,93463,1,2,0:0:0:0:
256,192,93625,1,2,0:0:0:0:
256,192,93787,1,0,0:0:0:0:
256,192,93868,1,2,0:0:0:0:
256,192,93949,1,0,0:0:0:0:
256,192,94003,1,0,0:0:0:0:
256,192,94058,1,0,0:0:0:0:
256,192,94112,1,2,0:0:0:0:
256,192,94355,1,2,0:0:0:0:
256,192,94436,1,0,0:0:0:0:
256,192,94598,1,0,0:0:0:0:
256,192,94679,1,0,0:0:0:0:
256,192,94760,1,2,0:0:0:0:
256,192,94922,1,2,0:0:0:0:
256,192,95003,1,0,0:0:0:0:
256,192,95085,1,2,0:0:0:0:
256,192,95166,1,2,0:0:0:0:
256,192,95247,1,0,0:0:0:0:
256,192,95301,1,2,0:0:0:0:
256,192,95355,1,2,0:0:0:0:
256,192,95409,1,0,0:0:0:0:
256,192,95571,1,2,0:0:0:0:
256,192,95652,1,2,0:0:0:0:
256,192,95733,1,0,0:0:0:0:
256,192,95895,1,2,0:0:0:0:
256,192,95976,1,0,0:0:0:0:
256,192,96058,1,2,0:0:0:0:
256,192,96220,1,0,0:0:0:0:
256,192,96274,1,0,0:0:0:0:
269,174,96328,1,0,0:0:0:0:
256,192,96382,1,2,0:0:0:0:
256,192,96463,1,2,0:0:0:0:
256,192,96544,1,0,0:0:0:0:
256,192,96625,1,0,0:0:0:0:
256,192,96706,1,2,0:0:0:0:
256,192,96868,1,2,0:0:0:0:
256,192,97030,1,4,0:0:0:0:
256,192,97355,1,2,0:0:0:0:
256,192,97517,1,0,0:0:0:0:
256,192,97598,1,0,0:0:0:0:
224,192,97679,1,2,0:0:0:0:
224,192,97760,1,2,0:0:0:0:
256,192,97841,1,0,0:0:0:0:
256,192,98003,1,2,0:0:0:0:
256,192,98166,1,2,0:0:0:0:
256,192,98247,1,2,0:0:0:0:
256,192,98328,1,0,0:0:0:0:
288,192,98490,1,0,0:0:0:0:
288,192,98571,1,0,0:0:0:0:
256,192,98652,1,2,0:0:0:0:
256,192,98814,1,0,0:0:0:0:
256,192,98895,1,0,0:0:0:0:
256,192,98976,1,2,0:0:0:0:
256,192,99058,1,2,0:0:0:0:
256,192,99139,1,0,0:0:0:0:
256,192,99220,1,0,0:0:0:0:
256,192,99301,1,2,0:0:0:0:
256,192,99544,1,2,0:0:0:0:
256,192,99625,1,0,0:0:0:0:
288,192,99787,1,0,0:0:0:0:
256,192,99949,1,2,0:0:0:0:
256,192,100193,1,2,0:0:0:0:
256,224,100274,1,0,0:0:0:0:
256,224,100355,1,2,0:0:0:0:
256,224,100436,1,0,0:0:0:0:
256,192,100517,1,0,0:0:0:0:
256,224,100598,1,2,0:0:0:0:
256,224,100760,1,0,0:0:0:0:
256,175,100814,1,0,0:0:0:0:
256,175,100868,1,0,0:0:0:0:
256,224,100922,1,2,0:0:0:0:
256,224,101003,1,2,0:0:0:0:
256,224,101085,1,0,0:0:0:0:
256,224,101247,1,2,0:0:0:0:
256,224,101409,1,0,0:0:0:0:
256,224,101490,1,2,0:0:0:0:
256,224,101571,1,2,0:0:0:0:
256,224,101652,1,2,0:0:0:0:
256,224,101733,1,0,0:0:0:0:
256,224,101814,1,0,0:0:0:0:
256,224,101895,1,2,0:0:0:0:
256,224,101976,1,2,0:0:0:0:
256,224,102058,1,0,0:0:0:0:
256,224,102139,1,2,0:0:0:0:
256,224,102220,1,0,0:0:0:0:
256,224,102463,1,2,0:0:0:0:
256,224,102544,1,2,0:0:0:0:
256,224,102706,1,0,0:0:0:0:
256,224,102868,1,2,0:0:0:0:
256,224,102949,1,0,0:0:0:0:
256,224,103030,1,0,0:0:0:0:
256,224,103193,1,6,0:0:0:0:
256,224,103355,1,0,0:0:0:0:
256,224,103436,1,2,0:0:0:0:
256,224,103517,1,2,0:0:0:0:
256,224,103679,1,6,0:0:0:0:
256,192,104166,1,2,0:0:0:0:
256,192,104490,1,2,0:0:0:0:
256,192,104814,1,2,0:0:0:0:
256,192,104922,1,2,0:0:0:0:
256,192,105030,1,2,0:0:0:0:
256,192,105139,1,0,0:0:0:0:
256,192,105247,1,0,0:0:0:0:
256,192,105355,1,0,0:0:0:0:
256,192,105463,1,2,0:0:0:0:
256,192,105571,1,2,0:0:0:0:
256,192,105679,1,2,0:0:0:0:
256,192,105787,1,0,0:0:0:0:
256,192,105949,1,2,0:0:0:0:
256,192,106030,1,2,0:0:0:0:
256,192,106112,1,0,0:0:0:0:
256,192,106355,1,2,0:0:0:0:
256,192,106436,1,2,0:0:0:0:
256,192,106598,1,0,0:0:0:0:
256,192,106760,1,0,0:0:0:0:
256,192,106841,1,0,0:0:0:0:
256,192,106922,1,2,0:0:0:0:
256,192,107085,1,4,0:0:0:0:
256,192,107247,1,2,0:0:0:0:
256,192,107328,1,2,0:0:0:0:
256,192,107409,1,0,0:0:0:0:
256,192,107571,1,6,0:0:0:0:
256,192,107895,1,0,0:0:0:0:
256,192,107976,1,0,0:0:0:0:
256,192,108058,1,2,0:0:0:0:
256,192,108220,1,0,0:0:0:0:
256,192,108706,1,2,0:0:0:0:
256,192,108787,1,2,0:0:0:0:
256,192,108868,1,2,0:0:0:0:
256,192,108949,1,2,0:0:0:0:
256,192,109030,1,0,0:0:0:0:
256,192,109193,1,2,0:0:0:0:
256,192,109274,1,2,0:0:0:0:
256,192,109355,1,0,0:0:0:0:
256,192,109517,1,2,0:0:0:0:
256,192,109598,1,2,0:0:0:0:
256,192,109679,1,0,0:0:0:0:
256,192,109760,1,0,0:0:0:0:
256,192,109841,1,2,0:0:0:0:
256,192,109922,1,0,0:0:0:0:
256,192,110003,1,2,0:0:0:0:
256,192,110247,1,2,0:0:0:0:
256,192,110328,1,2,0:0:0:0:
256,192,110490,1,0,0:0:0:0:
256,192,110652,1,2,0:0:0:0:
256,192,110733,1,0,0:0:0:0:
256,192,110814,1,0,0:0:0:0:
256,192,110976,1,6,0:0:0:0:
256,192,111139,1,0,0:0:0:0:
256,192,111220,1,2,0:0:0:0:
256,192,111301,1,2,0:0:0:0:
256,192,111463,1,6,0:0:0:0:
256,224,111949,1,2,0:0:0:0:
256,192,112274,1,2,0:0:0:0:
256,192,112355,1,2,0:0:0:0:
256,192,112436,1,2,0:0:0:0:
256,192,112517,1,2,0:0:0:0:
256,192,112598,1,0,0:0:0:0:
256,192,112679,1,0,0:0:0:0:
256,192,112760,1,0,0:0:0:0:
256,192,112841,1,2,0:0:0:0:
256,192,112922,1,2,0:0:0:0:
256,192,113003,1,2,0:0:0:0:
256,192,113085,1,2,0:0:0:0:
256,192,113166,1,0,0:0:0:0:
256,192,113247,1,2,0:0:0:0:
256,192,113328,1,2,0:0:0:0:
256,192,113409,1,2,0:0:0:0:
256,192,113490,1,2,0:0:0:0:
256,192,113571,1,0,0:0:0:0:
256,192,113652,1,2,0:0:0:0:
256,192,113733,1,0,0:0:0:0:
256,192,113814,1,0,0:0:0:0:
256,192,113895,1,2,0:0:0:0:
256,192,114139,1,2,0:0:0:0:
256,192,114220,1,2,0:0:0:0:
256,192,114382,1,0,0:0:0:0:
256,192,114544,1,0,0:0:0:0:
256,192,114625,1,0,0:0:0:0:
256,192,114706,1,2,0:0:0:0:
256,192,114868,1,4,0:0:0:0:
256,192,115030,1,2,0:0:0:0:
256,192,115112,1,2,0:0:0:0:
256,192,115193,1,0,0:0:0:0:
256,192,115355,1,6,0:0:0:0:
256,192,115841,1,2,0:0:0:0:
256,192,116166,1,2,0:0:0:0:
256,192,116328,1,2,0:0:0:0:
256,192,116409,1,2,0:0:0:0:
256,192,116490,1,0,0:0:0:0:
256,192,116814,1,2,0:0:0:0:
256,192,117139,1,0,0:0:0:0:
256,192,117463,1,0,0:0:0:0:
256,192,117571,1,2,0:0:0:0:
256,192,117679,1,2,0:0:0:0:
256,192,117787,1,4,0:0:0:0:
256,192,117949,12,0,121679,0:0:0:0:
