osu file format v14

[General]
AudioFilename: Kung-Fu Empire Full.mp3
AudioLeadIn: 0
PreviewTime: 138117
Countdown: 1
SampleSet: Normal
StackLeniency: 0.7
Mode: 0
LetterboxInBreaks: 0
WidescreenStoryboard: 1

[Editor]
Bookmarks: 0,25066,46761,91515,114824,126945,137964,159993,169487,181692,203391,210172
DistanceSpacing: 1.1
BeatDivisor: 4
GridSize: 4
TimelineZoom: 4.599998

[Metadata]
Title:Kung-Fu Empire
TitleUnicode:Kung-Fu Empire
Artist:Nekomata Master+
ArtistUnicode:猫叉Master+
Creator:propasy
Version:Insane
Source:
Tags:
BeatmapID:938264
BeatmapSetID:435499

[Difficulty]
HPDrainRate:7
CircleSize:4
OverallDifficulty:8
ApproachRate:8.5
SliderMultiplier:1.50000000596046
SliderTickRate:1

[Events]
//Background and Video events
//Break Periods
2,78824,88721
2,236112,237705
//Storyboard Layer 0 (Background)
//Storyboard Layer 1 (Fail)
//Storyboard Layer 2 (Pass)
//Storyboard Layer 3 (Foreground)
//Storyboard Sound Samples

[TimingPoints]
-20,338.983050847458,4,1,0,100,1,0
63,-200,4,1,0,45,0,0
1575,-200,4,1,0,45,0,0
3963,-133.333333333333,4,1,0,45,0,0
6759,-200,4,1,0,45,0,0
9217,-133.333333333333,4,1,0,45,0,0
9556,-200,4,1,0,45,0,0
10403,-200,4,1,0,25,0,0
10996,-200,4,1,0,35,0,0
11674,-200,4,1,0,45,0,0
12437,-66.6666666666667,4,1,0,60,0,0
13566,-66.6666666666667,4,1,0,60,0,0
14198,-100,4,1,0,60,0,0
16910,-66.6666666666667,4,1,0,60,0,0
18097,-100,4,1,0,60,0,0
18775,-66.6666666666667,4,1,0,60,0,0
19961,-100,4,1,0,60,0,0
21590,-133.333333333333,4,1,0,60,0,0
22861,-100,4,1,0,60,0,0
23521,-100,4,1,0,60,0,0
25300,-66.6666666666667,4,1,0,60,0,0
25554,-100,4,1,0,60,0,0
26741,-66.6666666666667,4,1,0,60,0,0
26910,-100,4,1,0,60,0,0
28859,-66.6666666666667,4,1,0,60,0,0
30978,-100,4,1,0,60,0,0
31995,-66.6666666666667,4,1,0,60,0,0
32334,-100,4,1,0,60,0,0
33084,-66.6666666666667,4,1,0,30,0,0
33878,-66.6666666666667,4,1,0,45,0,0
34302,-66.6666666666667,4,1,0,60,0,0
34622,-66.6666666666667,4,1,0,60,0,0
34873,-100,4,1,0,60,0,0
37179,-200,4,1,0,65,0,0
38950,-66.6666666666667,4,1,0,60,0,0
40552,-100,4,1,0,60,0,0
40657,-100,4,1,0,65,0,0
41311,-200,4,1,0,60,0,0
42654,-100,4,1,0,60,0,0
42997,-100,4,1,0,60,0,0
44302,-100,4,1,0,30,0,0
44810,-100,4,1,0,45,0,0
45573,-100,4,1,0,60,0,0
46147,-50,4,1,0,60,0,0
46741,-100,4,1,0,60,0,0
48860,-50,4,1,0,60,0,0
49368,-100,4,1,0,60,0,0
51657,-50,4,1,0,60,0,0
54793,-100,4,1,0,60,0,0
56658,-100,4,1,0,60,0,0
59201,-66.6666666666667,4,1,0,60,0,0
59370,-100,4,1,0,60,0,0
60811,-100,4,1,0,60,0,0
62352,-66.6666666666667,4,1,0,40,0,0
63439,-100,4,1,0,60,0,0
67846,-100,4,1,0,60,0,0
70050,-50,4,1,0,60,0,0
71745,-100,4,1,0,60,0,0
73115,-200,4,1,0,60,0,0
75475,-50,4,1,0,60,0,0
78696,-50,4,1,0,60,0,0
89386,-100,4,1,0,70,0,0
91844,-100,4,1,0,60,0,0
92088,-100,4,1,0,60,0,0
98360,-50,4,1,0,60,0,0
98784,-100,4,1,0,60,0,0
100056,-66.6666666666667,4,1,0,60,0,0
102853,-66.6666666666667,4,1,0,60,0,0
103446,-100,4,1,0,60,0,0
105141,-50,4,1,0,60,0,0
106243,-200,4,1,0,60,0,0
115821,-66.6666666666667,4,1,0,60,0,0
119386,-133.333333333333,4,1,0,60,0,0
121416,-66.6666666666667,4,1,0,60,0,0
122437,-100,4,1,0,60,0,0
123963,-66.6666666666667,4,1,0,60,0,0
124637,-66.6666666666667,4,1,0,60,0,0
124895,-100,4,1,0,60,0,0
127098,-66.6666666666667,4,1,0,60,0,0
129790,-83.3333333333333,4,1,0,60,0,0
134723,-100,4,1,0,60,0,0
135486,-133.333333333333,4,1,0,60,0,0
137607,-133.333333333333,4,1,0,65,0,1
141590,-200,4,1,0,65,0,1
142861,-200,4,1,0,40,0,1
143115,-200,4,1,0,55,0,1
143284,-66.6666666666667,4,1,0,65,0,1
143623,-100,4,1,0,65,0,1
147776,-100,4,1,0,50,0,1
148878,-100,4,1,0,65,0,1
151506,-200,4,1,0,65,0,1
153708,-200,4,1,0,40,0,1
154049,-66.6666666666667,4,1,0,50,0,1
154302,-66.6666666666667,4,1,0,65,0,1
156931,-66.6666666666667,4,1,0,65,0,1
157268,-100,4,1,0,65,0,1
157324,-66.6666666666667,4,1,0,65,0,1
157946,-66.6666666666667,4,1,0,65,0,1
158624,-66.6666666666667,4,1,0,45,0,1
159895,-200,4,1,0,60,0,0
164556,-200,4,1,0,30,0,0
164810,-200,4,1,0,45,0,0
165090,-66.6666666666667,4,1,0,60,0,0
165831,-100,4,1,0,60,0,0
169386,-100,4,1,0,45,0,0
170064,-100,4,1,0,45,0,0
173375,-200,4,1,0,60,0,0
175318,-200,4,1,0,20,0,0
175657,-200,4,1,0,30,0,0
175912,-200,4,1,0,40,0,0
180234,-200,4,1,0,45,0,0
180912,-200,4,1,0,65,0,0
181757,-200,4,1,0,60,0,0
182258,-100,4,1,0,60,0,0
184556,-200,4,1,0,60,0,0
190064,-100,4,1,0,60,0,0
193793,-200,4,1,0,60,0,0
198964,-100,4,1,0,60,0,0
205657,-100,4,1,0,60,0,0
208708,-133.333333333333,4,1,0,60,0,0
209133,-100,4,1,0,60,0,0
210406,-133.333333333333,4,1,0,60,0,0
214217,-133.333333333333,4,1,0,62,0,0
216255,-100,4,1,0,62,0,0
217018,-86.9565217391304,4,1,0,62,0,0
217866,-100,4,1,0,50,0,0
228708,-100,4,1,0,65,0,0
230403,-100,4,1,0,50,0,0
234479,-100,4,1,0,55,0,0
235912,-100,4,1,0,65,0,0
238454,-100,4,1,0,70,0,1
241005,-66.6666666666667,4,1,0,70,0,1
242691,-66.6666666666667,4,1,0,60,0,1
243793,-66.6666666666667,4,1,0,70,0,1
245996,-66.6666666666667,4,1,0,60,0,1
247352,-66.6666666666667,4,1,0,30,0,1
248030,-66.6666666666667,4,1,0,70,0,1
248974,-100,4,1,0,70,0,1
251420,-100,4,1,0,60,0,1
253454,-100,4,1,0,55,0,1
254132,-100,4,1,0,75,0,1
254810,-100,4,1,0,70,0,1
256166,-100,4,1,0,60,0,1
258878,-100,4,1,0,55,0,1
259556,-100,4,1,0,65,0,1
260234,-133.333333333333,4,1,0,65,0,1
261929,-100,4,1,0,50,0,1
264980,-100,4,1,0,30,0,1
265318,-100,4,1,0,40,0,1
265573,-100,4,1,0,50,0,1
270834,-100,4,1,0,70,0,1
275657,-100,4,1,0,50,0,1
275996,-100,4,1,0,60,0,1
276251,-100,4,1,0,70,0,1
279225,-133.333333333333,4,1,0,70,0,1
279818,-100,4,1,0,70,0,1
287023,-66.6666666666667,4,1,0,70,0,1
288294,-100,4,1,0,70,0,1
291211,-133.333333333333,4,1,0,70,0,1
292533,-50,4,1,0,70,0,1
293285,-66.6666666666667,4,1,0,70,0,1
295573,-100,4,1,0,70,0,1
296929,-66.6666666666667,4,1,0,70,0,1
298073,-100,4,1,0,70,0,1
299992,-66.6666666666667,4,1,0,70,0,1
300924,-100,4,1,0,70,0,1
303624,-100,4,1,0,50,0,0
308200,-100,4,1,0,30,0,0
308539,-100,4,1,0,40,0,0
308793,-100,4,1,0,50,0,0
313115,-100,4,1,0,30,0,0
313624,-100,4,1,0,60,0,0
314471,-100,4,1,0,10,0,0

[Colours]
Combo1 : 119,164,145
Combo2 : 160,159,109
Combo3 : 160,118,118
Combo4 : 124,124,165

[HitObjects]
120,184,1335,54,0,L|100:148,1,28.1250011846423,0|0,0:0|0:0,0:0:0:0:
128,196,1674,2,2,P|160:236|224:240,1,112.500000447034,2|2,0:0|0:0,0:0:0:0:
372,152,2691,1,0,0:0:0:0:
352,208,3369,1,0,0:0:0:0:
396,184,3878,6,0,B|352:208|384:228|376:244,1,56.2500002235172
360,276,4217,2,2,P|280:336|228:304,1,168.750007107854
112,184,5573,2,2,P|104:112|132:96,1,112.500004738569
176,88,6081,1,0,0:0:0:0:
220,104,6420,1,0,0:0:0:0:
248,120,6759,6,0,B|284:144|288:168|292:200|292:200|312:200,1,112.500000447034
348,248,8115,6,0,B|336:268|288:272|240:264|212:244|228:212,1,150.000000596046
240,208,9302,2,0,P|272:216|288:192,1,56.2500002235172
296,176,9641,6,0,B|296:148|368:192|324:112|372:148|364:100,1,112.500000447034
368,108,10488,5,0,0:0:0:0:
368,126,10572,1,0,0:0:0:0:
366,145,10657,1,0,0:0:0:0:
362,163,10742,1,0,0:0:0:0:
355,181,10826,1,0,0:0:0:0:
346,197,10911,1,0,0:0:0:0:
334,211,10996,1,0,0:0:0:0:
318,222,11081,1,0,0:0:0:0:
301,228,11165,1,0,0:0:0:0:
282,230,11250,1,0,0:0:0:0:
264,227,11335,1,0,0:0:0:0:
246,221,11420,1,0,0:0:0:0:
230,212,11504,1,0,0:0:0:0:
215,200,11589,1,0,0:0:0:0:
202,186,11674,1,0,0:0:0:0:
192,170,11759,1,0,0:0:0:0:
185,153,11843,1,0,0:0:0:0:
181,135,11928,1,0,0:0:0:0:
180,116,12013,1,0,0:0:0:0:
183,98,12098,1,0,0:0:0:0:
324,92,13539,5,0,0:0:0:0:
324,92,13878,6,2,P|300:64|300:40,1,56.2500023692846
352,100,14386,2,2,P|404:148|348:224,1,150.000000596046
360,236,15064,1,4,0:0:0:0:
328,268,15573,1,0,0:0:0:0:
308,288,15912,6,4,P|264:304|116:228,1,225.000000894069
356,120,17098,6,0,L|392:92,3,37.5000001490115
252,120,17437,1,0,0:0:0:0:
148,120,17776,2,0,L|120:88,3,37.5000001490115
152,136,18115,2,0,L|156:180,1,37.5000001490115
156,200,18285,2,0,P|172:256|260:264,1,150.000000596046
320,260,18963,6,0,L|356:240,5,37.5000001490115
356,232,19302,2,0,L|356:158,1,75.000000298023
356,132,19810,1,2,0:0:0:0:
284,272,20149,5,0,0:0:0:0:
268,296,20488,2,2,P|120:312|64:268,1,225.000000894069,2|2,0:0|0:0,0:0:0:0:
68,256,21335,1,2,0:0:0:0:
112,236,21674,2,0,B|164:180|180:352|248:300|240:260,1,168.750007107854
240,264,22522,1,4,0:0:0:0:
228,240,22861,2,0,B|280:204|216:208|216:208|264:184|184:184|184:184|168:168,1,150.000000596046
164,204,23708,6,4,B|132:220|132:220|156:224|156:224|136:228|136:228|152:240|152:240|136:248|136:248|108:272,1,150.000000596046,4|4,0:0|0:0,0:0:0:0:
396,112,24386,5,0,0:0:0:0:
396,112,24725,2,0,L|412:56,2,37.5000001490115
388,200,25403,6,4,L|448:228,1,56.2500023692846
368,212,25573,2,0,P|344:248|244:276,1,150.000000596046,0|0,0:0|0:0,0:0:0:0:
176,256,26420,1,0,0:0:0:0:
96,200,26760,6,0,L|36:192,1,56.2500023692846
124,192,26929,2,0,P|112:112|164:64,1,150.000000596046,0|0,0:0|0:0,0:0:0:0:
228,112,28285,5,0,0:0:0:0:
344,176,28624,1,0,0:0:0:0:
280,244,28963,6,0,L|312:296,1,56.2500023692846
248,252,29133,2,0,L|248:316,1,56.2500023692846
208,248,29302,2,0,L|184:312,1,56.2500023692846
176,224,29472,2,0,L|112:268,1,56.2500023692846
160,184,29810,2,0,B|152:176|152:176|168:176|168:176|156:164|156:164|180:168|180:168|156:132|156:132|180:156|180:156|172:140|172:140|172:76,1,225.000000894069,0|0,0:0|0:0,0:0:0:0:
244,96,30827,6,0,L|300:64,1,56.2500023692846
240,128,30996,2,0,P|296:168|320:244,1,150.000000596046,0|0,0:0|0:0,0:0:0:0:
320,268,31844,1,0,0:0:0:0:
224,284,32183,6,0,L|216:348,1,56.2500023692846
200,284,32352,2,0,P|120:264|88:192,1,150.000000596046,0|0,0:0|0:0,0:0:0:0:
96,196,33539,5,0,0:0:0:0:
108,172,33624,1,0,0:0:0:0:
120,152,33708,1,0,0:0:0:0:
132,128,33793,1,0,0:0:0:0:
148,108,33878,1,0,0:0:0:0:
168,96,33963,1,0,0:0:0:0:
192,92,34047,1,0,0:0:0:0:
220,92,34132,1,0,0:0:0:0:
248,96,34217,1,0,0:0:0:0:
272,104,34302,1,0,0:0:0:0:
304,112,34386,6,0,L|328:56,1,56.2500023692846,0|0,0:0|0:0,0:0:0:0:
304,112,34556,2,0,L|360:136,1,56.2500023692846,0|0,0:0|0:0,0:0:0:0:
296,120,34725,2,0,L|272:184,1,56.2500023692846,0|0,0:0|0:0,0:0:0:0:
288,116,34895,2,0,L|252:100,2,37.5000001490115,0|0|0,0:0|0:0|0:0,0:0:0:0:
220,88,35234,6,0,B|212:60|212:60|196:100|196:100|192:44|192:44|184:76|184:76|152:64|120:68|92:60,1,225.000000894069,0|0,0:0|0:0,0:0:0:0:
72,128,36251,5,0,0:0:0:0:
88,156,36420,1,0,0:0:0:0:
200,124,36929,5,0,0:0:0:0:
216,152,37098,1,0,0:0:0:0:
352,148,37607,6,0,L|328:112,2,37.5000001490115
368,168,38454,1,0,0:0:0:0:
416,184,39810,6,0,L|396:244,1,56.2500023692846
348,108,39980,6,0,L|308:64,1,56.2500023692846
320,200,40149,6,0,L|300:256,1,56.2500023692846
240,132,40318,6,0,L|196:80,1,56.2500023692846
216,224,40488,6,0,L|196:284,1,56.2500023692846
120,180,40657,6,0,P|76:220|156:336,1,225.000000894069,0|0,0:0|0:0,0:0:0:0:
152,336,41674,6,0,L|168:300,1,37.5000001490115,0|0,0:0|0:0,0:0:0:0:
252,336,42352,2,0,L|268:292,1,37.5000001490115
372,336,43030,2,0,B|436:296|448:236|444:132|360:196|340:212|376:268|416:284|468:212|468:168|444:116|392:108,1,375.000001490115
391,107,44386,5,0,0:0:0:0:
375,96,44470,1,0,0:0:0:0:
358,87,44555,1,0,0:0:0:0:
341,81,44640,1,0,0:0:0:0:
322,78,44724,1,0,0:0:0:0:
284,68,44810,1,0,0:0:0:0:
246,64,44894,1,0,0:0:0:0:
210,70,44979,1,0,0:0:0:0:
177,89,45064,1,0,0:0:0:0:
156,119,45148,1,0,0:0:0:0:
149,156,45233,1,0,0:0:0:0:
159,192,45318,1,0,0:0:0:0:
185,219,45403,1,0,0:0:0:0:
212,244,45488,1,0,0:0:0:0:
272,269,45572,1,0,0:0:0:0:
337,269,45657,1,0,0:0:0:0:
395,240,45742,1,0,0:0:0:0:
432,192,45827,2,0,L|464:128,3,37.5000001490115
464,156,46420,6,0,L|480:120,2,37.5000001490115
456,172,46590,1,0,0:0:0:0:
440,208,46929,2,0,B|408:256|380:320|352:296|344:280|336:256,1,150.000000596046
144,136,47607,5,0,0:0:0:0:
140,144,47776,1,0,0:0:0:0:
136,152,47946,1,0,0:0:0:0:
132,160,48115,1,0,0:0:0:0:
128,168,48285,1,0,0:0:0:0:
124,180,48454,2,0,L|108:216,4,37.5000001490115,0|0|0|0|0,0:0|0:0|0:0|0:0|0:0,0:0:0:0:
112,132,49132,6,0,L|84:96,2,37.5000001490115
124,148,49302,1,0,0:0:0:0:
132,164,49641,2,0,B|168:208|180:220|200:236|240:236|260:220|240:204,1,150.000000596046,0|0,0:0|0:0,0:0:0:0:
240,188,50149,2,0,P|224:148|272:136,1,75.000000298023,0|0,0:0|0:0,0:0:0:0:
252,128,50488,1,0,0:0:0:0:
260,128,50657,1,0,0:0:0:0:
268,128,50827,1,0,0:0:0:0:
276,128,50996,1,0,0:0:0:0:
284,128,51166,5,0,0:0:0:0:
300,148,51250,1,0,0:0:0:0:
312,172,51335,1,0,0:0:0:0:
316,196,51420,1,0,0:0:0:0:
312,224,51505,1,0,0:0:0:0:
116,292,51844,6,0,L|108:336,2,37.5000001490115
120,276,52013,1,0,0:0:0:0:
144,144,52352,1,0,0:0:0:0:
224,152,52691,5,0,0:0:0:0:
384,200,52860,1,0,0:0:0:0:
208,248,53030,1,0,0:0:0:0:
328,120,53199,1,0,0:0:0:0:
328,288,53369,1,0,0:0:0:0:
196,212,53539,21,0,0:0:0:0:
352,160,53708,1,0,0:0:0:0:
264,296,53878,1,0,0:0:0:0:
256,128,54047,1,0,0:0:0:0:
360,256,54217,1,0,0:0:0:0:
344,316,54556,6,0,L|364:352,2,37.5000001490115
336,304,54725,1,0,0:0:0:0:
316,252,55064,2,0,B|304:208|256:184|220:184|208:200|208:220|212:232,1,150.000000596046,0|0,0:0|0:0,0:0:0:0:
172,344,55742,5,0,0:0:0:0:
128,264,55912,1,0,0:0:0:0:
88,184,56081,1,0,0:0:0:0:
40,104,56251,1,0,0:0:0:0:
224,104,56420,1,0,0:0:0:0:
224,224,56590,1,0,0:0:0:0:
152,300,56759,6,0,L|128:328,2,37.5000001490115
392,304,57098,2,0,L|436:340,2,37.5000001490115
152,96,57437,2,0,L|124:72,2,37.5000001490115
392,96,57776,2,0,L|420:72,2,37.5000001490115
108,264,58455,5,0,0:0:0:0:
112,272,58539,1,0,0:0:0:0:
116,280,58624,1,0,0:0:0:0:
352,264,58794,1,0,0:0:0:0:
348,272,58879,1,0,0:0:0:0:
344,280,58963,1,0,0:0:0:0:
264,280,59302,6,0,B|288:320|292:344|264:360,1,56.2500023692846
264,264,59471,2,0,P|256:224|292:188,1,75.000000298023,0|0,0:0|0:0,0:0:0:0:
280,188,59810,2,0,P|320:160|312:112,1,75.000000298023,0|0,0:0|0:0,0:0:0:0:
304,116,60149,2,0,P|284:76|232:72,1,75.000000298023
220,80,60488,5,0,0:0:0:0:
208,88,60573,1,0,0:0:0:0:
196,96,60658,1,0,0:0:0:0:
88,176,60827,6,0,L|52:204,2,37.5000001490115
272,176,61165,5,0,0:0:0:0:
312,192,61250,1,0,0:0:0:0:
360,212,61335,1,0,0:0:0:0:
244,256,61504,5,0,0:0:0:0:
200,276,61589,1,0,0:0:0:0:
156,296,61674,1,0,0:0:0:0:
252,324,61843,5,0,0:0:0:0:
300,344,61928,1,0,0:0:0:0:
352,364,62013,1,0,0:0:0:0:
252,324,62352,6,0,L|212:304,14,28.1250011846423,0|0|0|0|0|0|0|0|0|0|0|0|0|0|0,2:0|2:0|2:0|2:0|2:0|2:0|2:0|2:0|2:0|2:0|2:0|2:0|2:0|2:0|2:0,2:0:0:0:
208,304,63030,2,0,L|192:264,10,28.1250011846423,0|0|0|0|0|0|0|0|0|0|0,2:0|2:0|2:0|2:0|2:0|2:0|2:0|2:0|2:0|2:0|2:0,2:0:0:0:
304,96,63708,5,0,0:0:0:0:
328,116,63878,1,0,0:0:0:0:
360,144,64047,2,0,P|408:208|376:272,1,150.000000596046,0|0,0:0|0:0,0:0:0:0:
144,272,64725,5,0,0:0:0:0:
120,200,64895,1,0,0:0:0:0:
96,128,65064,1,0,0:0:0:0:
240,128,65403,5,0,0:0:0:0:
264,200,65573,1,0,0:0:0:0:
288,272,65742,1,0,0:0:0:0:
440,272,66081,5,0,0:0:0:0:
416,200,66251,1,0,0:0:0:0:
392,128,66420,1,0,0:0:0:0:
176,140,66590,5,0,0:0:0:0:
176,168,66675,1,0,0:0:0:0:
176,200,66759,1,0,0:0:0:0:
272,208,66929,5,0,0:0:0:0:
272,176,67014,1,0,0:0:0:0:
272,144,67098,1,0,0:0:0:0:
368,144,67268,5,0,0:0:0:0:
368,176,67353,1,0,0:0:0:0:
368,208,67437,1,0,0:0:0:0:
360,304,67607,6,0,L|392:340,2,37.5000001490115,0|0|0,0:0|0:0|0:0,0:0:0:0:
160,304,67945,5,0,0:0:0:0:
152,312,68030,1,0,0:0:0:0:
144,320,68115,1,0,0:0:0:0:
128,204,68284,6,0,L|76:208,2,37.5000001490115,0|0|0,0:0|0:0|0:0,0:0:0:0:
152,92,68623,5,0,0:0:0:0:
144,88,68708,1,0,0:0:0:0:
136,84,68793,1,0,0:0:0:0:
384,184,69301,5,0,0:0:0:0:
404,196,69386,1,0,0:0:0:0:
384,204,69471,2,0,B|356:236|424:272|384:296|384:296,1,75.000000298023
396,296,69810,1,0,0:0:0:0:
404,312,70149,2,0,B|404:324|404:324|380:324|380:324|404:336|404:336|380:336|380:336|404:372|404:372|388:380|388:380|348:384|296:372|256:344|256:308,1,300.000001192092
244,304,70657,5,0,0:0:0:0:
224,280,70742,1,0,0:0:0:0:
204,256,70827,1,0,0:0:0:0:
404,72,71166,5,0,0:0:0:0:
324,140,71335,1,0,0:0:0:0:
340,164,71420,1,0,0:0:0:0:
356,188,71505,1,0,0:0:0:0:
416,304,71844,6,0,L|388:344,2,37.5000001490115
428,284,72183,1,0,0:0:0:0:
128,296,72522,2,0,L|156:328,2,37.5000001490115,0|0|0,0:0|0:0|0:0,0:0:0:0:
116,276,72861,2,0,B|92:232|104:220|108:204,1,75.000000298023
112,168,73200,2,0,B|115:107|147:71|187:59|239:55|291:87,1,225.000000894069
112,168,74555,5,0,0:0:0:0:
312,144,74725,1,0,0:0:0:0:
172,292,74894,1,0,0:0:0:0:
200,92,75064,1,0,0:0:0:0:
300,268,75234,1,0,0:0:0:0:
400,288,75573,5,0,0:0:0:0:
400,56,75742,5,0,0:0:0:0:
372,72,75912,2,0,B|344:72|344:72|348:96|348:96|328:80|328:80|332:100|332:100|316:92|316:92|284:112,1,150.000000596046
60,144,76251,5,0,0:0:0:0:
68,172,76420,1,0,0:0:0:0:
76,200,76590,2,0,B|96:208|96:208|64:232|64:232|108:228|108:228|92:236|92:236|112:284|112:284|132:296|128:300,1,150.000000596046
336,320,76929,5,0,0:0:0:0:
348,292,77098,1,0,0:0:0:0:
364,264,77268,1,0,0:0:0:0:
432,240,77437,5,0,0:0:0:0:
432,224,77522,1,0,0:0:0:0:
432,208,77607,1,0,0:0:0:0:
284,192,77776,5,0,0:0:0:0:
284,176,77861,1,0,0:0:0:0:
284,160,77946,1,0,0:0:0:0:
432,128,78115,5,0,0:0:0:0:
432,112,78200,1,0,0:0:0:0:
432,96,78285,1,0,0:0:0:0:
272,92,78454,5,0,0:0:0:0:
272,104,78624,1,0,0:0:0:0:
84,48,89471,6,0,P|84:92|136:116,1,75.000000298023,0|0,3:0|3:0,3:0:0:0:
124,124,89810,1,0,3:0:0:0:
444,200,90318,5,0,3:0:0:0:
116,316,90827,5,0,3:0:0:0:
88,332,91166,1,0,3:0:0:0:
108,164,92013,5,0,0:0:0:0:
268,92,92183,1,0,0:0:0:0:
400,176,92352,5,0,0:0:0:0:
384,208,92437,1,0,0:0:0:0:
368,240,92522,1,0,0:0:0:0:
272,272,92691,5,0,0:0:0:0:
240,260,92776,1,0,0:0:0:0:
208,248,92861,1,0,0:0:0:0:
144,176,93030,5,0,0:0:0:0:
128,144,93115,1,0,0:0:0:0:
112,112,93200,1,0,0:0:0:0:
328,116,93708,6,0,L|376:104,2,37.5000001490115
284,256,94047,6,0,L|312:288,2,37.5000001490115,0|0|0,0:0|0:0|0:0,0:0:0:0:
200,336,94556,5,0,0:0:0:0:
72,264,94725,1,0,0:0:0:0:
200,192,94894,1,0,0:0:0:0:
336,192,95064,1,0,0:0:0:0:
464,120,95233,1,0,0:0:0:0:
336,48,95403,1,0,0:0:0:0:
200,48,95572,1,0,0:0:0:0:
112,128,95742,5,0,0:0:0:0:
88,152,95827,1,0,0:0:0:0:
64,172,95911,1,0,0:0:0:0:
208,316,96081,1,0,0:0:0:0:
328,84,96250,1,0,0:0:0:0:
392,136,96420,5,0,0:0:0:0:
412,164,96505,1,0,0:0:0:0:
392,188,96589,1,0,0:0:0:0:
348,236,96759,2,0,P|320:264|276:248,1,75.000000298023,0|0,0:0|0:0,0:0:0:0:
264,240,97098,2,0,P|220:216|172:244,1,75.000000298023,0|0,0:0|0:0,0:0:0:0:
164,228,97607,6,0,B|104:252|4:204|36:100|112:96|180:160,1,300.000001192092
208,168,98623,6,0,L|232:136,2,37.5000001490115
264,212,98962,2,0,P|304:244|372:240,1,112.500000447034
368,240,99301,1,0,0:0:0:0:
392,224,99470,1,0,0:0:0:0:
416,204,99641,2,0,P|448:176|408:88,1,150.000000596046
380,84,100148,5,0,0:0:0:0:
348,96,100318,2,0,B|312:120|276:112|272:92|288:76|300:88|308:96|288:140|248:148,1,112.500004738569
224,168,100657,1,0,0:0:0:0:
204,196,100827,1,0,0:0:0:0:
184,220,100996,2,0,B|148:244|132:256|104:240|112:224|124:220|140:208|108:296|120:316,1,112.500004738569
148,288,101335,5,0,0:0:0:0:
180,300,101505,1,0,0:0:0:0:
368,312,101674,1,0,0:0:0:0:
108,264,101844,5,0,0:0:0:0:
100,272,101928,1,0,0:0:0:0:
112,272,102013,1,0,0:0:0:0:
356,172,102183,5,0,0:0:0:0:
348,168,102268,1,0,0:0:0:0:
356,164,102352,1,0,0:0:0:0:
116,112,102522,5,0,0:0:0:0:
112,120,102607,1,0,0:0:0:0:
108,112,102691,1,0,0:0:0:0:
288,288,102946,2,0,L|308:328,2,37.5000001490115
264,248,103200,5,2,0:0:0:0:
256,232,103284,1,2,0:0:0:0:
248,216,103368,1,2,0:0:0:0:
216,168,103538,6,0,L|176:192,2,37.5000001490115
204,132,103877,5,2,0:0:0:0:
192,112,103962,1,2,0:0:0:0:
184,96,104047,1,2,0:0:0:0:
96,200,104386,5,0,0:0:0:0:
104,312,104555,5,2,0:0:0:0:
132,312,104640,1,0,0:0:0:0:
160,312,104725,1,0,0:0:0:0:
308,316,104894,5,0,0:0:0:0:
192,312,105064,1,0,0:0:0:0:
131,212,105403,6,0,L|87:196,1,37.5000001490115,0|0,0:0|0:0,0:0:0:0:
236,148,105572,6,0,L|276:136,1,37.5000001490115,0|0,0:0|0:0,0:0:0:0:
116,84,105742,5,0,0:0:0:0:
96,104,105827,1,0,0:0:0:0:
92,132,105911,1,0,0:0:0:0:
104,160,105996,1,0,0:0:0:0:
116,176,106081,1,0,0:0:0:0:
228,292,106420,5,0,0:0:0:0:
316,324,106589,5,0,0:0:0:0:
332,328,106674,1,0,0:0:0:0:
344,336,106759,1,0,0:0:0:0:
352,176,106929,5,0,0:0:0:0:
352,136,107013,1,0,0:0:0:0:
352,104,107098,1,0,0:0:0:0:
288,136,107267,5,0,0:0:0:0:
268,152,107352,1,0,0:0:0:0:
248,168,107437,1,0,0:0:0:0:
192,208,107607,5,0,0:0:0:0:
176,236,107691,1,0,0:0:0:0:
192,256,107776,1,0,0:0:0:0:
264,288,107946,5,0,0:0:0:0:
292,300,108030,1,0,0:0:0:0:
312,280,108115,1,0,0:0:0:0:
364,232,108454,2,0,P|392:188|388:156,1,75.000000298023
388,144,108963,2,0,P|384:108|416:72,1,75.000000298023
428,64,109471,5,0,0:0:0:0:
444,180,109641,1,0,0:0:0:0:
336,136,109810,1,0,0:0:0:0:
372,24,109980,1,0,0:0:0:0:
440,116,110149,1,0,0:0:0:0:
372,212,110318,1,0,0:0:0:0:
304,116,110488,1,0,0:0:0:0:
132,128,110827,5,0,0:0:0:0:
256,160,110996,1,0,0:0:0:0:
216,52,111166,1,0,0:0:0:0:
180,192,111505,5,0,0:0:0:0:
276,96,111674,1,0,0:0:0:0:
140,60,111844,1,0,0:0:0:0:
116,132,112183,6,0,L|80:108,2,37.5000001490115
176,168,112691,5,0,0:0:0:0:
208,188,112776,1,0,0:0:0:0:
232,204,112861,1,0,0:0:0:0:
204,264,113030,5,0,0:0:0:0:
172,240,113115,1,0,0:0:0:0:
144,228,113200,1,0,0:0:0:0:
112,284,113369,5,0,0:0:0:0:
140,300,113454,1,0,0:0:0:0:
172,324,113539,1,0,0:0:0:0:
368,324,113878,5,0,0:0:0:0:
376,244,114047,5,0,0:0:0:0:
364,248,114132,1,0,0:0:0:0:
376,256,114217,1,0,0:0:0:0:
448,272,114386,5,0,0:0:0:0:
464,232,114471,1,0,0:0:0:0:
456,192,114556,1,0,0:0:0:0:
420,172,114641,1,0,0:0:0:0:
380,172,114725,1,0,0:0:0:0:
180,188,115064,5,0,0:0:0:0:
168,184,115149,1,0,0:0:0:0:
180,176,115234,1,0,0:0:0:0:
256,204,115403,5,0,0:0:0:0:
272,164,115488,1,0,0:0:0:0:
264,124,115573,1,0,0:0:0:0:
228,104,115658,1,0,0:0:0:0:
188,104,115742,1,0,0:0:0:0:
152,280,116082,6,0,P|208:272|224:244,1,75.000000298023,0|0,0:0|0:0,0:0:0:0:
216,240,116251,2,0,P|212:196|264:188,1,75.000000298023,0|0,0:0|0:0,0:0:0:0:
272,180,116421,2,0,P|316:172|316:132,1,75.000000298023,0|0,0:0|0:0,0:0:0:0:
320,132,116590,5,0,0:0:0:0:
108,120,116759,5,0,0:0:0:0:
108,120,116844,1,0,0:0:0:0:
108,120,116928,1,0,0:0:0:0:
84,136,117098,5,0,0:0:0:0:
84,164,117183,1,0,0:0:0:0:
104,180,117267,1,0,0:0:0:0:
124,192,117352,1,0,0:0:0:0:
152,188,117437,1,0,0:0:0:0:
208,272,117606,6,0,P|260:264|304:220,1,112.500004738569,0|0,0:0|0:0,0:0:0:0:
312,200,117945,6,0,P|344:152|320:104,1,112.500004738569,0|0,0:0|0:0,0:0:0:0:
288,92,118284,6,0,P|224:80|184:116,1,112.500004738569,0|0,0:0|0:0,0:0:0:0:
160,140,118624,6,0,P|156:196|184:248,1,112.500004738569,0|0,0:0|0:0,0:0:0:0:
208,260,118963,5,0,0:0:0:0:
364,328,119302,1,0,0:0:0:0:
396,256,119471,5,0,0:0:0:0:
396,256,119556,1,0,0:0:0:0:
396,256,119641,1,0,0:0:0:0:
368,224,119810,5,0,0:0:0:0:
352,232,119895,1,0,0:0:0:0:
348,264,119980,1,0,0:0:0:0:
328,276,120064,1,0,0:0:0:0:
304,268,120149,2,0,B|288:264|296:228|268:264|240:232,1,56.2500023692846,0|0,0:0|0:0,0:0:0:0:
136,124,120488,5,0,0:0:0:0:
136,124,120573,1,0,0:0:0:0:
136,124,120658,1,0,0:0:0:0:
108,164,120827,5,0,0:0:0:0:
148,180,120912,1,0,0:0:0:0:
188,172,120997,1,0,0:0:0:0:
208,136,121082,1,0,0:0:0:0:
208,96,121166,1,0,0:0:0:0:
340,132,121505,6,0,L|396:144,1,56.2500023692846
160,192,121674,6,0,L|104:216,1,56.2500023692846
312,260,121844,6,0,L|376:288,1,56.2500023692846
124,304,122013,1,0,0:0:0:0:
208,332,122183,5,0,0:0:0:0:
240,332,122267,1,0,0:0:0:0:
272,336,122352,1,0,0:0:0:0:
320,256,122522,5,0,0:0:0:0:
288,256,122606,1,0,0:0:0:0:
256,256,122691,1,0,0:0:0:0:
224,256,122776,1,0,0:0:0:0:
192,256,122861,2,0,L|132:256,1,56.2500023692846,0|0,0:0|0:0,0:0:0:0:
88,104,123200,5,0,0:0:0:0:
88,104,123284,1,0,0:0:0:0:
88,104,123369,1,0,0:0:0:0:
56,136,123539,5,0,0:0:0:0:
76,152,123623,1,0,0:0:0:0:
100,160,123708,1,0,0:0:0:0:
128,160,123793,1,0,0:0:0:0:
160,152,123878,1,0,0:0:0:0:
224,80,124047,6,2,L|248:24,1,56.2500023692846,2|2,0:0|0:0,0:0:0:0:
260,212,124217,6,2,L|240:272,1,56.2500023692846,2|2,0:0|0:0,0:0:0:0:
328,136,124386,6,2,L|348:72,1,56.2500023692846,2|2,0:0|0:0,0:0:0:0:
408,208,124556,6,2,L|392:264,1,56.2500023692846,2|2,0:0|0:0,0:0:0:0:
408,180,124725,6,0,L|424:120,1,56.2500023692846,0|0,0:0|0:0,0:0:0:0:
304,224,124895,6,0,L|288:248,1,18.7500000745057,0|0,0:0|0:0,0:0:0:0:
312,216,124980,2,0,L|304:188,1,18.7500000745057,0|0,0:0|0:0,0:0:0:0:
320,228,125064,2,0,L|340:236,1,18.7500000745057,0|0,0:0|0:0,0:0:0:0:
232,176,125234,6,0,L|240:148,1,18.7500000745057,0|0,0:0|0:0,0:0:0:0:
204,172,125319,2,0,L|200:144,1,18.7500000745057,0|0,0:0|0:0,0:0:0:0:
176,176,125403,2,0,L|164:160,1,18.7500000745057,0|0,0:0|0:0,0:0:0:0:
160,196,125488,2,0,L|140:188,1,18.7500000745057,0|0,0:0|0:0,0:0:0:0:
152,224,125573,2,0,L|116:224,1,18.7500000745057,0|0,0:0|0:0,0:0:0:0:
256,300,125912,6,0,L|224:304,1,18.7500000745057,0|0,0:0|0:0,0:0:0:0:
260,280,125997,2,0,L|232:264,1,18.7500000745057,0|0,0:0|0:0,0:0:0:0:
284,264,126082,2,0,L|276:240,1,18.7500000745057,0|0,0:0|0:0,0:0:0:0:
352,232,126251,6,0,L|368:244,1,18.7500000745057,0|0,0:0|0:0,0:0:0:0:
368,188,126336,2,0,L|392:188,1,18.7500000745057
352,140,126420,2,0,L|376:120,1,18.7500000745057
312,104,126505,2,0,L|332:76,1,18.7500000745057
268,84,126590,2,0,L|276:52,1,18.7500000745057
104,240,127437,5,0,0:0:0:0:
104,240,127946,1,0,0:0:0:0:
116,168,128454,5,0,0:0:0:0:
380,116,128623,1,0,0:0:0:0:
204,324,128793,1,0,0:0:0:0:
220,56,128962,1,0,0:0:0:0:
388,268,129132,5,0,0:0:0:0:
356,252,129302,1,0,0:0:0:0:
324,236,129471,1,0,0:0:0:0:
292,220,129641,1,0,0:0:0:0:
260,204,129810,1,0,0:0:0:0:
228,188,129980,1,0,0:0:0:0:
104,120,130149,5,0,0:0:0:0:
48,188,130318,1,0,0:0:0:0:
76,200,130403,1,0,0:0:0:0:
104,204,130488,1,0,0:0:0:0:
96,136,130657,5,0,0:0:0:0:
112,100,130742,1,0,0:0:0:0:
124,72,130827,2,0,L|144:24,2,44.9999988055228,0|0|0,0:0|0:0|0:0,0:0:0:0:
320,288,131335,5,0,0:0:0:0:
328,276,131420,1,0,0:0:0:0:
336,292,131505,1,0,0:0:0:0:
268,344,131674,5,0,0:0:0:0:
248,296,131759,1,0,0:0:0:0:
260,248,131844,2,0,L|292:208,2,44.9999988055228,0|0|0,0:0|0:0|0:0,0:0:0:0:
104,148,132861,5,2,0:0:0:0:
104,148,133369,1,2,0:0:0:0:
88,92,134217,5,0,0:0:0:0:
408,92,134556,1,0,0:0:0:0:
84,288,134895,1,0,0:0:0:0:
112,304,135064,1,0,0:0:0:0:
380,304,135234,2,0,B|420:300|444:288|400:276,1,75.000000298023,0|0,0:0|0:0,0:0:0:0:
384,256,135573,6,0,B|332:236|244:188|224:104|224:108,1,225.000009477138
200,92,137607,2,0,P|156:96|176:148,1,112.500004738569
204,176,138116,5,0,0:0:0:0:
224,192,138200,1,0,0:0:0:0:
244,208,138285,1,0,0:0:0:0:
384,288,138624,1,0,0:0:0:0:
320,60,138879,1,0,0:0:0:0:
320,60,138963,1,0,0:0:0:0:
300,88,139302,2,0,B|272:112|304:168|248:192,1,112.500004738569
257,187,139811,5,0,0:0:0:0:
257,187,139895,1,0,0:0:0:0:
257,187,139980,1,0,0:0:0:0:
256,336,140319,1,0,0:0:0:0:
420,192,140488,1,0,0:0:0:0:
80,192,140658,1,0,0:0:0:0:
256,60,140827,1,0,0:0:0:0:
244,72,140997,2,0,B|204:128|268:156|220:204,1,140.625005923211,0|0,0:0|0:0,0:0:0:0:
232,211,141505,1,0,0:0:0:0:
232,211,141590,1,0,0:0:0:0:
232,211,141674,2,0,B|204:240|248:248|268:248|264:264,1,75.000000298023,0|0,0:0|0:0,0:0:0:0:
356,304,142352,5,0,0:0:0:0:
420,232,142521,1,0,0:0:0:0:
460,144,142691,1,0,0:0:0:0:
352,52,142860,5,0,0:0:0:0:
316,52,142945,1,0,0:0:0:0:
284,60,143030,1,0,0:0:0:0:
248,80,143115,1,0,0:0:0:0:
220,104,143199,1,0,0:0:0:0:
200,136,143284,1,0,0:0:0:0:
180,168,143369,1,0,0:0:0:0:
164,204,143454,1,0,0:0:0:0:
152,244,143539,1,0,0:0:0:0:
152,276,143624,1,0,0:0:0:0:
168,304,143708,6,4,P|220:324|352:304,1,168.750007107854,4|4,0:0|0:0,0:0:0:0:
376,260,144302,1,0,0:0:0:0:
380,244,144386,1,0,0:0:0:0:
156,168,144725,1,0,0:0:0:0:
360,200,145064,5,0,0:0:0:0:
360,44,145234,1,0,0:0:0:0:
244,192,145403,1,0,0:0:0:0:
356,48,145573,1,0,0:0:0:0:
176,60,145742,1,0,0:0:0:0:
96,152,145912,1,0,0:0:0:0:
136,272,146081,1,0,0:0:0:0:
256,336,146251,1,0,0:0:0:0:
320,336,146420,6,0,B|348:320|348:320|308:320|308:320|344:292|344:292|300:288|300:288|336:268|336:268|316:236|372:176,1,300.000001192092,0|0,0:0|0:0,0:0:0:0:
256,184,147776,5,8,0:0:0:0:
88,84,147945,1,8,0:0:0:0:
256,184,148115,1,8,0:0:0:0:
100,300,148284,1,8,0:0:0:0:
256,184,148454,1,8,0:0:0:0:
288,360,148623,1,8,0:0:0:0:
256,184,148793,1,8,0:0:0:0:
436,260,148962,5,0,0:0:0:0:
436,260,149047,1,0,0:0:0:0:
436,260,149132,2,2,B|436:232|436:232|416:236|416:236|424:208|424:208|400:216|400:216|416:184|360:172,1,150.000000596046,2|2,0:0|0:0,0:0:0:0:
112,104,149641,1,0,0:0:0:0:
104,136,149725,1,0,0:0:0:0:
96,160,149810,1,0,0:0:0:0:
232,292,150149,1,0,0:0:0:0:
232,212,150488,5,0,0:0:0:0:
128,104,150657,1,0,0:0:0:0:
240,212,150827,1,0,0:0:0:0:
344,104,150996,1,0,0:0:0:0:
236,216,151166,1,0,0:0:0:0:
408,192,151335,1,0,0:0:0:0:
288,316,151505,1,0,0:0:0:0:
296,232,151674,1,0,0:0:0:0:
392,296,151844,6,0,B|356:292|348:236|308:244,1,93.7500003725287
312,236,152352,2,0,L|280:232,2,18.7500000745057
232,164,153200,5,0,0:0:0:0:
172,84,153369,1,0,0:0:0:0:
72,72,153539,1,0,0:0:0:0:
256,56,153709,5,0,0:0:0:0:
276,72,153794,1,0,0:0:0:0:
292,92,153878,1,0,0:0:0:0:
304,108,153963,1,0,0:0:0:0:
312,132,154048,1,0,0:0:0:0:
316,160,154133,1,0,0:0:0:0:
312,184,154217,1,0,0:0:0:0:
304,200,154302,1,0,0:0:0:0:
292,224,154387,1,0,0:0:0:0:
276,244,154472,1,0,0:0:0:0:
252,268,154556,6,0,B|236:268|236:268|244:296|244:296|212:280|212:280|232:308|232:308|208:324|168:304|148:276,1,206.250000819563
104,108,155149,1,0,0:0:0:0:
92,108,155234,1,0,0:0:0:0:
368,192,155573,1,0,0:0:0:0:
140,268,155912,1,0,0:0:0:0:
264,108,156081,1,0,0:0:0:0:
248,312,156251,1,0,0:0:0:0:
380,160,156420,1,0,0:0:0:0:
384,288,156590,5,0,0:0:0:0:
200,236,156759,1,0,0:0:0:0:
388,192,156929,1,0,0:0:0:0:
204,136,157098,1,0,0:0:0:0:
128,104,157268,2,4,L|84:88,8,37.5000001490115
152,176,158624,5,12,0:0:0:0:
376,160,158794,1,12,0:0:0:0:
200,296,158963,1,12,0:0:0:0:
268,80,159133,1,12,0:0:0:0:
360,284,159302,1,12,0:0:0:0:
320,60,159472,1,12,0:0:0:0:
172,228,159641,1,12,0:0:0:0:
120,8,159811,1,12,0:0:0:0:
256,192,159980,12,0,161335,0:0:0:0:
44,192,161673,5,0,0:0:0:0:
152,248,161843,1,0,0:0:0:0:
176,128,162013,1,0,0:0:0:0:
280,184,162182,1,0,0:0:0:0:
296,64,162352,1,0,0:0:0:0:
316,68,162521,1,0,0:0:0:0:
332,72,162691,2,0,B|376:72|408:120|416:168|416:240|380:292|336:320,1,300.000001192092
304,324,164555,5,0,0:0:0:0:
276,312,164640,1,0,0:0:0:0:
248,296,164725,1,0,0:0:0:0:
232,280,164810,1,0,0:0:0:0:
212,248,164894,1,0,0:0:0:0:
200,228,164979,1,0,0:0:0:0:
200,196,165064,1,0,0:0:0:0:
204,168,165149,1,0,0:0:0:0:
216,140,165233,1,0,0:0:0:0:
224,124,165318,1,0,0:0:0:0:
236,112,165403,6,0,B|240:132|256:136|256:136|220:144|220:144|264:172|264:172|228:168|228:168|260:192|260:192|228:192|228:192|264:208|264:208|232:200|232:200|272:228|292:232|296:220|316:192|288:180|280:184,1,393.750016584992
297,194,166081,2,0,L|268:156,8,37.5000001490115
252,192,167098,5,0,0:0:0:0:
408,72,167268,1,0,0:0:0:0:
108,72,167437,1,0,0:0:0:0:
408,312,167607,1,0,0:0:0:0:
104,312,167776,1,0,0:0:0:0:
256,192,167946,1,0,0:0:0:0:
264,200,168115,2,0,L|296:232,8,37.5000001490115
72,168,169471,5,0,0:0:0:0:
88,212,169640,1,0,0:0:0:0:
108,248,169810,1,0,0:0:0:0:
128,288,169979,1,0,0:0:0:0:
296,28,170149,5,0,0:0:0:0:
328,128,170318,1,0,0:0:0:0:
364,228,170488,1,0,0:0:0:0:
404,324,170657,1,0,0:0:0:0:
400,336,170827,6,0,P|352:360|288:300,1,150.000000596046,0|0,0:0|0:0,0:0:0:0:
292,312,171505,2,0,P|304:244|228:232,1,150.000000596046,0|0,0:0|0:0,0:0:0:0:
232,232,172183,1,0,0:0:0:0:
280,40,172860,5,0,0:0:0:0:
344,224,173030,1,0,0:0:0:0:
176,116,173199,1,0,0:0:0:0:
372,116,173369,1,0,0:0:0:0:
232,220,173538,6,0,P|216:236|192:232,1,37.5000001490115
272,136,173877,1,0,0:0:0:0:
340,72,174047,2,0,P|344:44|360:32,1,37.5000001490115
272,136,174386,1,0,0:0:0:0:
176,96,174555,2,2,P|168:80|148:76,1,37.5000001490115,2|2,0:0|0:0,0:0:0:0:
272,136,174894,1,0,0:0:0:0:
352,304,175403,5,0,0:0:0:0:
331,306,175487,1,0,0:0:0:0:
310,307,175572,1,0,0:0:0:0:
289,305,175657,1,0,0:0:0:0:
269,300,175741,1,0,0:0:0:0:
250,292,175826,1,0,0:0:0:0:
234,279,175911,1,0,0:0:0:0:
222,262,175996,1,0,0:0:0:0:
215,242,176080,1,0,0:0:0:0:
212,222,176165,1,0,0:0:0:0:
208,192,176251,6,0,B|228:180|268:180|292:116|344:152,1,150.000000596046
228,240,177607,1,0,0:0:0:0:
176,256,178285,5,0,0:0:0:0:
184,84,178454,1,0,0:0:0:0:
276,176,178624,1,0,0:0:0:0:
88,168,178793,1,0,0:0:0:0:
184,168,178963,2,0,B|192:192|260:148|208:284|284:280,1,150.000000596046
248,280,180318,5,0,0:0:0:0:
228,272,180488,1,0,0:0:0:0:
204,260,180657,1,0,0:0:0:0:
184,252,180827,1,0,0:0:0:0:
136,100,180996,5,0,0:0:0:0:
212,148,181166,1,0,0:0:0:0:
296,200,181335,1,0,0:0:0:0:
384,256,181505,1,0,0:0:0:0:
120,288,181674,5,0,0:0:0:0:
200,76,182013,2,0,L|216:48,1,18.7500000745057
140,208,182183,1,0,0:0:0:0:
296,116,182522,2,0,P|336:108|296:168,1,150.000000596046
368,232,183200,5,0,0:0:0:0:
352,240,183369,1,0,0:0:0:0:
336,248,183539,1,0,0:0:0:0:
320,256,183709,1,0,0:0:0:0:
240,228,183878,1,0,0:0:0:0:
304,184,184048,1,0,0:0:0:0:
368,144,184217,1,0,0:0:0:0:
432,104,184387,1,0,0:0:0:0:
220,96,184726,6,0,L|244:120,1,18.7500000745057
332,200,184895,1,0,0:0:0:0:
220,96,185234,1,2,0:0:0:0:
260,144,185573,2,0,B|268:164|232:184|208:176|224:216,1,75.000000298023
224,208,186082,1,0,0:0:0:0:
224,208,186251,1,0,0:0:0:0:
228,212,186421,1,0,0:0:0:0:
228,212,186590,1,0,0:0:0:0:
228,212,186759,5,0,0:0:0:0:
248,232,186844,1,0,0:0:0:0:
284,240,186928,1,0,0:0:0:0:
320,228,187013,1,0,0:0:0:0:
344,200,187098,1,0,0:0:0:0:
80,232,187437,6,0,L|100:224,1,18.7500000745057
240,168,187946,1,0,0:0:0:0:
264,64,188285,5,0,0:0:0:0:
240,296,188454,1,0,0:0:0:0:
172,84,188624,1,0,0:0:0:0:
336,272,188793,1,0,0:0:0:0:
124,160,188963,1,0,0:0:0:0:
380,192,189132,1,0,0:0:0:0:
144,260,189302,1,0,0:0:0:0:
356,112,189471,2,0,P|380:92|396:100,2,37.5000001490115
332,152,190149,6,0,L|372:160,2,37.5000001490115
172,124,190657,1,0,0:0:0:0:
80,284,190996,5,0,0:0:0:0:
104,168,191166,1,0,0:0:0:0:
188,296,191335,1,0,0:0:0:0:
124,88,191505,1,0,0:0:0:0:
284,300,191674,1,0,0:0:0:0:
216,80,191844,1,0,0:0:0:0:
336,216,192013,1,0,0:0:0:0:
324,104,192183,1,0,0:0:0:0:
352,88,192352,6,0,L|388:68,2,37.5000001490115,0|0|0,0:0|0:0|0:0,0:0:0:0:
128,132,192691,2,0,L|64:116,2,37.5000001490115,0|0|0,0:0|0:0|0:0,0:0:0:0:
360,224,193030,2,0,L|404:208,2,37.5000001490115,0|0|0,0:0|0:0|0:0,0:0:0:0:
168,284,193369,2,0,L|128:276,2,37.5000001490115,0|0|0,0:0|0:0|0:0,0:0:0:0:
332,276,194047,5,0,0:0:0:0:
340,284,194132,1,0,0:0:0:0:
340,284,194217,2,0,L|368:308,2,37.5000001490115,0|0|0,0:0|0:0|0:0,0:0:0:0:
160,120,194894,5,0,0:0:0:0:
104,228,195064,1,0,0:0:0:0:
60,320,195233,1,0,0:0:0:0:
184,280,195403,1,4,0:0:0:0:
320,100,195572,1,4,0:0:0:0:
268,320,195742,1,4,0:0:0:0:
216,100,195911,1,4,0:0:0:0:
364,268,196081,1,4,0:0:0:0:
160,176,196250,1,4,0:0:0:0:
384,176,196420,1,4,0:0:0:0:
180,272,196589,1,4,0:0:0:0:
184,272,196759,6,0,P|200:284|224:276,1,37.5000001490115,0|0,0:0|0:0,0:0:0:0:
416,224,197099,2,0,P|424:204|408:184,1,37.5000001490115,0|0,0:0|0:0,0:0:0:0:
248,92,197438,2,0,P|224:92|220:116,1,37.5000001490115,0|0,0:0|0:0,0:0:0:0:
108,228,197777,1,4,0:0:0:0:
108,228,197861,5,0,0:0:0:0:
108,228,197946,2,4,B|120:248|168:272|196:292|308:252|304:204,1,225.000000894069,4|4,0:0|0:0,0:0:0:0:
404,68,199302,6,0,B|424:80|424:80|392:84|392:84|424:96|424:96|408:108|396:128|424:160|432:144,1,150.000000596046
448,164,199979,1,0,0:0:0:0:
116,124,200318,5,0,0:0:0:0:
108,168,200487,1,0,0:0:0:0:
100,204,200657,1,0,0:0:0:0:
392,232,200996,1,0,0:0:0:0:
400,192,201165,1,0,0:0:0:0:
408,148,201335,1,0,0:0:0:0:
256,124,201674,1,0,0:0:0:0:
248,168,201844,1,0,0:0:0:0:
240,208,202013,1,0,0:0:0:0:
112,280,202183,5,0,0:0:0:0:
112,280,202267,1,0,0:0:0:0:
112,280,202352,1,0,0:0:0:0:
380,280,202522,1,0,0:0:0:0:
380,280,202607,1,0,0:0:0:0:
380,280,202692,1,0,0:0:0:0:
244,112,202861,2,0,L|244:68,2,37.5000001490115
244,232,203200,6,0,L|244:284,2,37.5000001490115
356,108,203539,2,0,L|400:80,2,37.5000001490115
136,108,203878,2,0,L|96:80,2,37.5000001490115
244,232,204217,2,0,L|244:272,1,37.5000001490115
244,296,204386,2,0,B|240:344|256:376|376:376,1,150.000000596046
360,376,204895,5,0,0:0:0:0:
376,376,204980,1,0,0:0:0:0:
388,376,205064,1,0,0:0:0:0:
392,264,205234,1,0,0:0:0:0:
304,304,205403,1,0,0:0:0:0:
304,304,205742,6,0,B|256:312|272:284|256:276,1,37.5000001490115
240,248,205912,2,0,P|208:188|208:160,1,75.000000298023
196,144,206251,1,0,0:0:0:0:
172,136,206336,1,0,0:0:0:0:
152,140,206420,1,0,0:0:0:0:
136,76,206590,6,0,B|156:68|188:72|200:80,1,37.5000001490115
200,72,206759,2,0,B|240:52|252:100|288:80,1,75.000000298023
300,116,207013,1,0,0:0:0:0:
280,156,207098,2,0,P|260:164|228:144,1,37.5000001490115
172,144,207268,6,0,P|116:168|112:188,1,75.000000298023
116,252,207607,5,0,0:0:0:0:
116,272,207691,1,0,0:0:0:0:
116,292,207776,1,0,0:0:0:0:
212,296,207946,5,0,0:0:0:0:
212,276,208030,1,0,0:0:0:0:
212,252,208115,1,0,0:0:0:0:
308,252,208285,5,0,0:0:0:0:
308,276,208369,1,0,0:0:0:0:
308,300,208454,1,0,0:0:0:0:
400,252,208624,5,0,0:0:0:0:
400,340,208793,6,0,B|392:384|352:376|288:360,1,112.500004738569
236,352,209471,1,0,0:0:0:0:
80,124,209810,6,0,B|76:164|144:200|212:216|180:244,1,150.000000596046,0|0,0:0|0:0,0:0:0:0:
296,288,210488,2,0,L|348:324,2,56.2500023692846,0|0|0,0:0|0:0|0:0,0:0:0:0:
332,104,211166,5,0,0:0:0:0:
468,164,211336,1,0,0:0:0:0:
336,240,211505,1,0,0:0:0:0:
224,244,211844,5,0,0:0:0:0:
128,360,212014,1,0,0:0:0:0:
76,228,212183,1,0,0:0:0:0:
136,132,212522,5,0,0:0:0:0:
216,32,212691,1,0,0:0:0:0:
276,144,212861,1,0,0:0:0:0:
136,240,213030,5,0,0:0:0:0:
136,256,213115,1,0,0:0:0:0:
136,276,213200,1,0,0:0:0:0:
240,240,213369,5,0,0:0:0:0:
240,256,213454,1,0,0:0:0:0:
240,272,213539,1,0,0:0:0:0:
336,240,213708,5,0,0:0:0:0:
336,256,213793,1,0,0:0:0:0:
336,272,213878,1,0,0:0:0:0:
120,40,214216,5,0,0:0:0:0:
124,132,214385,5,0,0:0:0:0:
124,132,214470,1,0,0:0:0:0:
124,132,214555,1,0,0:0:0:0:
152,124,214724,5,0,0:0:0:0:
132,108,214809,1,0,0:0:0:0:
100,112,214894,1,0,0:0:0:0:
88,132,214979,1,0,0:0:0:0:
92,156,215063,1,0,0:0:0:0:
376,208,215402,5,0,0:0:0:0:
376,208,215487,1,0,0:0:0:0:
376,208,215572,1,0,0:0:0:0:
360,228,215741,5,0,0:0:0:0:
332,224,215826,1,0,0:0:0:0:
316,200,215911,1,0,0:0:0:0:
316,172,215996,1,0,0:0:0:0:
316,144,216081,1,0,0:0:0:0:
168,64,216420,6,0,L|128:80,1,37.5000001490115
384,140,216589,2,0,L|432:160,1,37.5000001490115
204,248,216759,2,0,L|160:288,1,37.5000001490115
348,284,216928,6,0,L|384:304,1,37.5000001490115
144,168,217098,2,0,L|100:148,2,37.5000001490115
336,200,217437,5,0,0:0:0:0:
364,192,217521,1,0,0:0:0:0:
376,160,217606,1,0,0:0:0:0:
364,136,217691,1,0,0:0:0:0:
336,124,217776,1,0,0:0:0:0:
224,112,217945,6,0,L|208:76,1,37.5000001490115,0|0,0:0|0:0,0:0:0:0:
156,152,218115,2,0,L|120:128,1,37.5000001490115,0|0,0:0|0:0,0:0:0:0:
120,232,218284,2,0,L|72:228,1,37.5000001490115,0|0,0:0|0:0,0:0:0:0:
136,308,218454,2,0,L|92:336,1,37.5000001490115,0|0,0:0|0:0,0:0:0:0:
216,328,218623,2,0,L|200:372,1,37.5000001490115,0|0,0:0|0:0,0:0:0:0:
316,324,218793,2,0,L|336:368,1,37.5000001490115,0|0,0:0|0:0,0:0:0:0:
380,260,218963,2,0,L|424:284,4,37.5000001490115
300,60,219471,2,0,B|252:64|260:112|224:116,1,75.000000298023,0|0,0:0|0:0,0:0:0:0:
176,160,219809,5,0,0:0:0:0:
160,184,219894,1,0,0:0:0:0:
144,208,219979,1,0,0:0:0:0:
96,280,220148,5,0,0:0:0:0:
152,296,220233,1,0,0:0:0:0:
208,284,220318,1,0,0:0:0:0:
264,256,220402,1,0,0:0:0:0:
296,208,220487,1,0,0:0:0:0:
348,80,220827,5,0,0:0:0:0:
320,80,220912,1,0,0:0:0:0:
300,80,220996,1,0,0:0:0:0:
184,156,221166,5,0,0:0:0:0:
236,160,221251,1,0,0:0:0:0:
288,176,221335,1,0,0:0:0:0:
340,200,221420,1,0,0:0:0:0:
384,236,221505,1,0,0:0:0:0:
176,92,221844,6,0,L|120:72,1,37.5000001490115,0|0,0:0|0:0,0:0:0:0:
356,152,222014,2,0,L|400:156,1,37.5000001490115
184,244,222183,2,0,L|144:264,1,37.5000001490115
356,360,222353,5,0,0:0:0:0:
388,280,222522,5,0,0:0:0:0:
376,280,222607,1,0,0:0:0:0:
368,276,222692,1,0,0:0:0:0:
328,248,222861,5,0,0:0:0:0:
308,256,222946,1,0,0:0:0:0:
296,268,223031,1,0,0:0:0:0:
296,288,223116,1,0,0:0:0:0:
304,304,223200,1,0,0:0:0:0:
164,84,223539,6,0,L|120:76,2,37.5000001490115
320,116,223878,2,0,L|368:120,4,37.5000001490115
320,116,224386,2,0,P|276:116|272:172,1,75.000000298023
256,200,224725,2,0,P|244:224|200:232,1,75.000000298023,0|0,0:0|0:0,0:0:0:0:
72,104,225064,5,0,0:0:0:0:
76,108,225573,1,0,0:0:0:0:
412,200,226420,5,0,0:0:0:0:
412,200,226929,1,0,0:0:0:0:
128,292,227776,5,0,0:0:0:0:
128,292,228285,1,0,0:0:0:0:
120,128,228792,5,0,0:0:0:0:
320,84,228962,1,0,0:0:0:0:
196,244,229131,1,0,0:0:0:0:
196,40,229301,1,0,0:0:0:0:
320,200,229470,1,0,0:0:0:0:
312,300,229640,5,0,0:0:0:0:
376,108,229809,1,0,0:0:0:0:
180,212,229979,1,0,0:0:0:0:
228,4,230148,1,0,0:0:0:0:
48,100,230318,1,0,0:0:0:0:
372,268,230488,5,0,0:0:0:0:
372,268,230996,1,0,0:0:0:0:
124,180,231844,5,0,0:0:0:0:
124,180,232352,1,0,0:0:0:0:
376,56,233200,5,0,0:0:0:0:
376,56,233708,1,0,0:0:0:0:
120,204,234556,6,0,L|100:240,3,37.5000001490115,0|0|0|0,0:0|0:0|0:0|0:0,0:0:0:0:
168,120,234895,2,0,L|192:84,3,37.5000001490115
236,216,235234,2,0,L|212:260,1,37.5000001490115
284,132,235403,2,0,L|304:100,1,37.5000001490115
352,228,235573,2,0,L|328:272,1,37.5000001490115
400,144,235742,2,0,L|420:112,1,37.5000001490115
456,244,235912,1,0,3:0:0:0:
340,148,238455,5,10,0:0:0:0:
312,96,238539,1,10,0:0:0:0:
268,56,238624,1,10,0:0:0:0:
132,92,238963,5,4,0:0:0:0:
244,192,239302,6,6,B|264:188|264:188|236:212|236:212|288:204|272:240|328:236,1,150.000000596046,6|6,0:0|0:0,0:0:0:0:
348,244,239980,1,4,0:0:0:0:
164,300,240149,1,4,0:0:0:0:
164,300,240234,1,4,0:0:0:0:
164,300,240318,1,4,0:0:0:0:
392,284,240657,1,10,0:0:0:0:
120,100,240827,1,10,0:0:0:0:
260,328,240996,1,10,0:0:0:0:
252,56,241166,1,10,0:0:0:0:
116,288,241335,2,4,B|164:208|240:196|328:244|312:112|376:96,1,281.250011846423,4|4,0:0|0:0,0:0:0:0:
360,96,241844,2,0,L|392:48,2,56.2500023692846
408,216,242691,5,10,0:0:0:0:
292,92,242861,1,10,0:0:0:0:
260,256,243030,1,10,0:0:0:0:
144,132,243200,1,10,0:0:0:0:
128,300,243369,1,10,0:0:0:0:
128,64,243539,1,10,0:0:0:0:
248,272,243708,1,10,0:0:0:0:
276,36,243878,5,0,0:0:0:0:
316,84,243963,1,0,0:0:0:0:
344,140,244047,2,0,B|384:156|384:156|336:192|392:208|392:208|348:240|304:232|360:288,1,225.000000894069
124,296,244641,5,4,0:0:0:0:
124,296,244725,1,4,0:0:0:0:
108,216,245064,2,0,B|76:188|76:188|128:168|64:152|64:152|120:128|52:112|104:72|156:76,1,225.000000894069,0|0,0:0|0:0,0:0:0:0:
156,40,245573,1,0,0:0:0:0:
216,64,245657,1,0,0:0:0:0:
272,112,245742,1,0,0:0:0:0:
272,112,246081,5,12,0:0:0:0:
376,328,246251,1,12,0:0:0:0:
272,112,246420,1,12,0:0:0:0:
152,328,246590,1,12,0:0:0:0:
272,112,246759,2,12,B|216:152|292:152|356:136|348:88|288:40|208:60|200:92|196:132|216:140|232:152|256:160,1,225.000009477138,12|12,0:0|0:0,0:0:0:0:
192,256,247437,1,4,2:0:0:0:
68,60,248115,5,12,0:0:0:0:
272,200,248285,1,12,0:0:0:0:
88,332,248454,1,12,0:0:0:0:
272,200,248624,1,12,0:0:0:0:
444,56,248793,1,12,0:0:0:0:
272,200,248963,1,12,0:0:0:0:
444,332,249132,1,12,0:0:0:0:
258,184,249302,5,10,0:0:0:0:
208,136,249386,1,10,0:0:0:0:
160,88,249471,2,10,B|108:116|160:172|112:232|84:288,1,150.000000596046,10|10,0:0|0:0,0:0:0:0:
104,264,250149,2,4,L|88:312,3,37.5000001490115,4|4|4|4,0:0|0:0|0:0|0:0,0:0:0:0:
108,248,250488,2,2,B|124:184|208:152|236:152,1,150.000000596046,2|2,0:0|0:0,0:0:0:0:
316,152,250996,1,0,0:0:0:0:
344,164,251081,1,0,0:0:0:0:
364,196,251166,1,0,0:0:0:0:
424,264,251505,5,12,0:0:0:0:
264,360,251674,1,12,0:0:0:0:
152,184,251844,1,12,0:0:0:0:
308,92,252013,1,12,0:0:0:0:
416,260,252183,6,12,B|364:260|316:184|264:176,1,150.000000596046,12|12,0:0|0:0,0:0:0:0:
256,168,252691,1,0,0:0:0:0:
224,156,252775,1,0,0:0:0:0:
196,144,252860,1,0,0:0:0:0:
152,128,253539,5,12,0:0:0:0:
380,212,253709,1,12,0:0:0:0:
152,128,253878,1,12,0:0:0:0:
384,216,254048,1,12,0:0:0:0:
192,328,254217,5,12,0:0:0:0:
344,40,254387,1,12,0:0:0:0:
192,328,254556,1,12,0:0:0:0:
348,44,254726,1,12,0:0:0:0:
348,44,254895,2,4,L|408:60,3,37.5000001490115,4|4|4|4,0:0|0:0|0:0|0:0,0:0:0:0:
348,52,255234,2,12,B|284:100|336:152|256:176,1,150.000000596046,12|12,0:0|0:0,0:0:0:0:
216,220,255742,5,4,0:0:0:0:
160,248,255827,1,4,0:0:0:0:
96,252,255912,1,4,0:0:0:0:
96,252,256251,5,12,0:0:0:0:
256,360,256420,1,12,0:0:0:0:
400,252,256590,1,12,0:0:0:0:
256,360,256759,1,12,0:0:0:0:
256,180,256929,1,12,0:0:0:0:
256,360,257098,1,12,0:0:0:0:
256,100,257268,1,12,0:0:0:0:
256,360,257437,1,12,0:0:0:0:
252,32,257607,2,12,B|172:120|352:184|224:304,1,300.000001192092,12|12,0:0|0:0,0:0:0:0:
416,72,258962,5,4,0:0:0:0:
424,88,259131,1,4,0:0:0:0:
428,104,259301,1,4,0:0:0:0:
432,120,259471,1,4,0:0:0:0:
432,136,259640,5,12,0:0:0:0:
212,140,259810,1,12,0:0:0:0:
436,156,259979,1,12,0:0:0:0:
208,152,260149,1,12,0:0:0:0:
436,192,260318,2,0,B|464:288|312:380|180:372|108:204,1,450.000018954276
60,128,262013,5,2,0:0:0:0:
136,216,262183,1,2,0:0:0:0:
244,252,262352,1,2,0:0:0:0:
364,268,262522,1,2,0:0:0:0:
112,252,262691,1,2,0:0:0:0:
240,296,262861,1,2,0:0:0:0:
48,168,263030,6,2,L|24:128,7,37.5000001490115,2|2|2|2|2|2|2|2,0:0|0:0|0:0|0:0|0:0|0:0|0:0|0:0,0:0:0:0:
152,292,264386,5,2,0:0:0:0:
208,116,264555,5,4,0:0:0:0:
256,152,264640,1,4,0:0:0:0:
288,204,264725,1,4,0:0:0:0:
408,212,265064,5,12,0:0:0:0:
392,160,265149,1,12,0:0:0:0:
360,112,265233,1,12,0:0:0:0:
316,76,265318,1,12,0:0:0:0:
260,52,265403,1,12,0:0:0:0:
204,48,265488,1,12,0:0:0:0:
144,60,265572,1,12,0:0:0:0:
88,92,265657,1,12,0:0:0:0:
256,192,265742,12,12,267098,0:0:0:0:
104,288,267437,5,2,0:0:0:0:
216,180,267607,1,2,0:0:0:0:
136,220,267776,1,2,0:0:0:0:
256,112,267946,1,2,0:0:0:0:
176,152,268115,1,2,0:0:0:0:
308,56,268285,1,2,0:0:0:0:
344,88,268454,6,2,B|324:136|368:176|328:248,1,150.000000596046,2|2,0:0|0:0,0:0:0:0:
332,320,269132,2,2,L|320:364,6,37.5000001490115,2|2|2|2|2|2|2,0:0|0:0|0:0|0:0|0:0|0:0|0:0,0:0:0:0:
344,276,269810,1,0,0:0:0:0:
352,232,270318,5,10,0:0:0:0:
352,176,270403,1,10,0:0:0:0:
332,116,270488,1,10,0:0:0:0:
92,240,270996,5,10,0:0:0:0:
108,168,271081,1,10,0:0:0:0:
172,132,271166,1,10,0:0:0:0:
304,84,271420,2,2,L|316:32,1,37.5000001490115,2|2,0:0|0:0,0:0:0:0:
380,196,271674,1,0,0:0:0:0:
360,256,271759,1,0,0:0:0:0:
304,288,271844,1,0,0:0:0:0:
196,288,272013,6,4,L|180:336,2,37.5000001490115,4|4|4,0:0|0:0|0:0,0:0:0:0:
124,104,272522,5,12,0:0:0:0:
336,68,272691,1,12,0:0:0:0:
368,284,272861,1,12,0:0:0:0:
156,320,273030,1,12,0:0:0:0:
224,40,273200,1,12,0:0:0:0:
404,160,273369,1,12,0:0:0:0:
272,332,273539,1,12,0:0:0:0:
96,204,273708,1,12,0:0:0:0:
224,56,273878,2,12,B|192:92|264:88|248:16|204:16|160:56|176:104|256:136|264:204|200:188,1,225.000000894069,12|12,0:0|0:0,0:0:0:0:
196,220,274471,5,0,0:0:0:0:
188,232,274556,1,0,0:0:0:0:
380,104,275234,5,2,0:0:0:0:
408,176,275742,5,0,0:0:0:0:
413,208,275826,1,0,0:0:0:0:
411,242,275911,1,0,0:0:0:0:
400,273,275996,1,0,0:0:0:0:
379,298,276080,1,0,0:0:0:0:
350,314,276165,1,0,0:0:0:0:
317,321,276250,1,0,0:0:0:0:
284,319,276335,1,0,0:0:0:0:
253,308,276419,1,0,0:0:0:0:
226,288,276504,1,0,0:0:0:0:
212,272,276590,6,12,B|172:244|220:196|176:108,1,150.000000596046
168,116,277183,1,0,0:0:0:0:
168,116,277268,1,0,0:0:0:0:
200,284,277607,5,0,0:0:0:0:
416,184,277946,5,0,0:0:0:0:
64,132,278285,5,6,0:0:0:0:
124,232,278454,1,6,0:0:0:0:
172,100,278624,1,6,0:0:0:0:
312,44,278793,1,6,0:0:0:0:
248,180,278963,1,6,0:0:0:0:
256,336,279132,1,6,0:0:0:0:
352,280,279302,6,6,B|384:232|304:168|396:84,1,196.875008292496,6|6,0:0|0:0,0:0:0:0:
396,80,279980,2,4,L|424:44,8,37.5000001490115,4|4|4|4|4|4|4|4|4,0:0|0:0|0:0|0:0|0:0|0:0|0:0|0:0|0:0,0:0:0:0:
256,192,280742,12,0,281335,0:0:0:0:
152,120,281844,5,4,0:0:0:0:
152,120,281928,1,4,0:0:0:0:
156,124,282013,2,4,B|136:176|188:200|228:268,1,150.000000596046,4|4,0:0|0:0,0:0:0:0:
288,316,282691,6,4,B|352:336|412:296|424:228,1,150.000000596046,4|4,0:0|0:0,0:0:0:0:
348,120,283369,5,0,0:0:0:0:
156,112,283539,5,10,0:0:0:0:
180,172,283624,1,10,0:0:0:0:
220,220,283708,1,10,0:0:0:0:
348,120,284047,5,12,0:0:0:0:
200,216,284217,1,12,0:0:0:0:
376,288,284386,1,12,0:0:0:0:
348,120,284556,1,0,0:0:0:0:
256,148,284725,6,6,B|216:172|244:240|188:296|96:264|104:284,1,187.500000745057,6|6,0:0|0:0,0:0:0:0:
100,300,285234,2,4,L|60:340,2,37.5000001490115,4|4|4,0:0|0:0|0:0,0:0:0:0:
112,224,286081,5,10,0:0:0:0:
72,64,286250,1,10,0:0:0:0:
236,88,286420,1,0,0:0:0:0:
312,116,286589,5,12,0:0:0:0:
320,168,286674,1,12,0:0:0:0:
324,216,286759,1,12,0:0:0:0:
308,264,286844,1,12,0:0:0:0:
268,304,286928,1,12,0:0:0:0:
216,320,287013,1,12,0:0:0:0:
164,304,287098,1,12,0:0:0:0:
124,268,287183,1,12,0:0:0:0:
88,228,287268,1,12,0:0:0:0:
68,180,287352,1,12,0:0:0:0:
48,132,287437,6,2,B|28:96|28:96|76:116|32:72|32:72|108:68|176:36,1,225.000009477138
288,88,288030,2,2,L|320:60,1,37.5000001490115
344,152,288454,2,2,B|392:184|396:272|328:300,1,150.000000596046,2|2,0:0|0:0,0:0:0:0:
272,312,288963,5,10,0:0:0:0:
204,308,289047,1,10,0:0:0:0:
148,272,289132,1,10,0:0:0:0:
112,184,289471,5,10,0:0:0:0:
40,56,289641,1,10,0:0:0:0:
208,64,289810,1,10,0:0:0:0:
324,72,290149,6,8,P|452:164|408:288,1,300.000001192092
252,320,291505,6,8,L|200:360,3,56.2500023692846,8|8|8|8,0:0|0:0|0:0|0:0,0:0:0:0:
100,264,292183,1,8,0:0:0:0:
336,228,292352,1,8,0:0:0:0:
104,140,292522,1,8,0:0:0:0:
336,84,292691,1,8,0:0:0:0:
392,148,292861,6,0,B|424:176|384:232|384:232|448:260|412:284|412:284|332:352|264:320,1,300.000001192092
100,264,293539,1,2,0:0:0:0:
80,164,293878,2,2,B|52:128|92:128|92:128|56:100|88:112|88:112|84:36|184:56,1,225.000009477138
256,72,294386,1,10,0:0:0:0:
320,84,294471,1,10,0:0:0:0:
380,108,294556,1,10,0:0:0:0:
372,176,294895,5,10,0:0:0:0:
312,328,295064,1,10,0:0:0:0:
208,196,295234,1,10,0:0:0:0:
372,176,295403,1,10,0:0:0:0:
312,328,295573,2,10,L|280:360,4,37.5000001490115
280,304,296082,5,2,0:0:0:0:
252,280,296166,1,2,0:0:0:0:
240,244,296251,1,2,0:0:0:0:
124,64,296929,6,12,L|104:24,1,37.500001579523
224,172,297099,2,12,L|264:180,1,37.500001579523
104,212,297268,2,12,L|88:248,1,37.500001579523
160,152,297438,6,12,L|144:112,1,37.500001579523
240,244,297607,2,12,L|284:256,1,37.500001579523
164,292,297777,2,12,L|148:332,1,37.500001579523
168,220,297946,5,12,0:0:0:0:
248,300,298116,5,14,0:0:0:0:
304,336,298201,1,14,0:0:0:0:
360,352,298285,2,10,B|360:324|360:324|380:348|380:348|376:320|376:320|416:328|424:304|404:288,1,150.000000596046,10|10,0:0|0:0,0:0:0:0:
356,132,298963,6,6,B|352:92|304:72|248:104|204:64,1,150.000000596046,6|6,0:0|0:0,0:0:0:0:
184,80,299641,1,0,0:0:0:0:
96,144,299810,5,12,0:0:0:0:
112,212,299895,1,12,0:0:0:0:
168,256,299980,1,12,0:0:0:0:
272,280,300318,6,12,L|296:328,1,37.5000001490115,12|12,0:0|0:0,0:0:0:0:
280,140,300487,2,12,L|252:100,1,37.5000001490115
384,232,300657,2,12,L|408:268,1,37.5000001490115
384,92,300826,2,12,L|360:56,1,37.5000001490115
464,144,300996,2,10,L|496:120,4,37.5000001490115,10|10|10|10|10,0:0|0:0|0:0|0:0|0:0,0:0:0:0:
244,156,301674,1,0,0:0:0:0:
56,72,302352,5,0,0:0:0:0:
168,308,302521,1,0,0:0:0:0:
316,92,302691,1,0,0:0:0:0:
428,332,302861,1,0,0:0:0:0:
400,192,303030,5,10,0:0:0:0:
136,192,303200,1,10,0:0:0:0:
256,52,303369,1,10,0:0:0:0:
256,316,303539,1,10,0:0:0:0:
160,108,303708,6,0,B|108:144|100:280|240:332,1,262.50000104308
240,336,304386,2,0,L|284:352,8,37.5000001490115
424,192,305403,5,0,0:0:0:0:
328,276,305573,1,0,0:0:0:0:
252,172,305742,1,0,0:0:0:0:
352,92,305912,1,0,0:0:0:0:
404,272,306081,1,0,0:0:0:0:
244,172,306251,1,0,0:0:0:0:
256,360,306420,5,0,0:0:0:0:
120,264,306759,2,0,P|92:252|76:264,1,37.5000001490115
260,348,306928,1,0,0:0:0:0:
352,304,307268,2,0,P|384:276|384:168,1,150.000000596046
388,174,307776,5,0,0:0:0:0:
384,152,307946,1,0,0:0:0:0:
372,132,308115,1,0,0:0:0:0:
328,84,308285,5,0,0:0:0:0:
259,69,308369,1,0,0:0:0:0:
191,84,308454,1,0,0:0:0:0:
131,121,308539,1,0,0:0:0:0:
97,181,308623,1,0,0:0:0:0:
103,250,308708,1,0,0:0:0:0:
143,308,308793,1,0,0:0:0:0:
203,343,308878,1,0,0:0:0:0:
272,353,308962,1,0,0:0:0:0:
340,360,309047,1,0,0:0:0:0:
404,356,309132,1,0,0:0:0:0:
352,128,309810,2,0,L|320:96,8,37.5000001490115
240,112,310827,5,2,0:0:0:0:
360,268,310997,1,2,0:0:0:0:
172,220,311166,1,2,0:0:0:0:
348,148,311336,1,2,0:0:0:0:
288,212,311505,1,2,0:0:0:0:
228,280,311675,1,2,0:0:0:0:
160,340,311844,2,0,B|128:364|128:364|152:228,1,150.000000596046
176,72,312522,5,4,0:0:0:0:
180,156,313199,5,2,0:0:0:0:
180,156,313369,1,2,0:0:0:0:
180,156,313538,1,2,0:0:0:0:
180,156,313708,5,2,0:0:0:0:
444,204,313878,1,0,0:0:0:0:
288,328,314047,1,0,0:0:0:0:
336,40,314217,1,0,0:0:0:0:
180,156,314386,1,0,0:0:0:0:
256,192,314556,12,0,319980,0:0:0:0:
