osu file format v14

[General]
AudioFilename: audio.mp3
AudioLeadIn: 0
PreviewTime: 45502
Countdown: 0
SampleSet: None
StackLeniency: 0.3
Mode: 0
LetterboxInBreaks: 0
WidescreenStoryboard: 1

[Editor]
Bookmarks: 38285,40459,61415,69676,76980,92893
DistanceSpacing: 1
BeatDivisor: 6
GridSize: 16
TimelineZoom: 4.054334

[Metadata]
Title:Funny shuffle
TitleUnicode:Funny shuffle
Artist:Nekomata Master+
ArtistUnicode:猫叉Master+
Creator:blixys
Version:Insane
Source:beatmania IIDX 21 SPADA
Tags:neko shuffle swing 1/3 1/6 funny beatmania
BeatmapID:2232927
BeatmapSetID:959548

[Difficulty]
HPDrainRate:6
CircleSize:3.7
OverallDifficulty:8
ApproachRate:9
SliderMultiplier:3.32999990463257
SliderTickRate:1

[Events]
//Background and Video events
0,0,"funny.jpg",0,0
//Break Periods
//Storyboard Layer 0 (Background)
//Storyboard Layer 1 (Fail)
//Storyboard Layer 2 (Pass)
//Storyboard Layer 3 (Foreground)
//Storyboard Layer 4 (Overlay)
//Storyboard Sound Samples

[TimingPoints]
-1260,521.739130434783,4,1,1,100,1,0
7087,-100,4,1,1,100,0,0
7348,-200,4,1,1,100,0,0
7609,-100,4,1,1,100,0,0
7870,-200,4,1,1,100,0,0
8131,-100,4,1,1,100,0,0
8392,-200,4,1,1,100,0,0
9174,-100,4,1,1,100,0,0
9696,-66.6666666666667,4,1,1,100,0,0
10218,-100,4,1,1,100,0,0
13348,-66.6666666666667,4,1,1,100,0,0
13609,-133.333333333333,4,1,1,100,0,0
13870,-66.6666666666667,4,1,1,100,0,0
14131,-133.333333333333,4,1,1,100,0,0
14392,-66.6666666666667,4,1,1,100,0,0
14653,-133.333333333333,4,1,1,100,0,0
17000,-200,4,1,1,100,0,0
17435,-200,4,1,1,5,0,0
17522,-100,4,1,1,100,0,0
18044,-66.6666666666667,4,1,1,100,0,0
18566,-100,4,1,1,100,0,0
21696,-66.6666666666667,4,1,1,100,0,0
21957,-133.333333333333,4,1,1,100,0,0
22218,-66.6666666666667,4,1,1,100,0,0
22479,-133.333333333333,4,1,1,100,0,0
22740,-66.6666666666667,4,1,1,100,0,0
23001,-133.333333333333,4,1,1,100,0,0
23261,-66.6666666666667,4,1,1,100,0,0
23522,-133.333333333333,4,1,1,100,0,0
25348,-200,4,1,1,100,0,0
25870,-133.333333333333,4,1,1,100,0,0
26131,-100,4,1,1,100,0,0
26392,-133.333333333333,4,1,1,100,0,0
26653,-100,4,1,1,100,0,0
26913,-133.333333333333,4,1,1,100,0,0
27174,-100,4,1,1,100,0,0
27957,-133.333333333333,4,1,1,100,0,0
28218,-100,4,1,1,100,0,0
28479,-133.333333333333,4,1,1,100,0,0
28740,-100,4,1,1,100,0,0
29000,-133.333333333333,4,1,1,100,0,0
29261,-100,4,1,1,100,0,0
30044,-133.333333333333,4,1,1,100,0,0
30305,-100,4,1,1,100,0,0
30566,-133.333333333333,4,1,1,100,0,0
30827,-100,4,1,1,100,0,0
31087,-133.333333333333,4,1,1,100,0,0
31348,-100,4,1,1,100,0,0
32131,-133.333333333333,4,1,1,100,0,0
32392,-75,4,1,1,100,0,0
32653,-133.333333333333,4,1,1,100,0,0
32913,-75,4,1,1,100,0,0
33174,-100,4,1,1,100,0,0
34218,-133.333333333333,4,1,1,100,0,0
34479,-100,4,1,1,100,0,0
34740,-133.333333333333,4,1,1,100,0,0
35000,-36.3636363636364,4,1,1,100,0,0
35261,-100,4,1,1,100,0,0
35522,-66.6666666666667,4,1,1,100,0,0
36305,-66.6666666666667,4,1,1,100,0,0
36566,-100,4,1,1,100,0,0
36827,-133.333333333333,4,1,1,100,0,0
37088,-100,4,1,1,100,0,0
37348,-133.333333333333,4,1,1,100,0,0
37609,-100,4,1,1,100,0,0
38392,-133.333333333333,4,1,1,100,0,0
38653,-100,4,1,1,100,0,0
38914,-133.333333333333,4,1,1,100,0,0
39175,-100,4,1,1,100,0,0
39435,-133.333333333333,4,1,1,100,0,0
39696,-100,4,1,1,100,0,0
40479,-133.333333333333,4,1,1,100,0,0
40740,-75,4,1,1,100,0,0
41001,-133.333333333333,4,1,1,100,0,0
41261,-75,4,1,1,100,0,0
41522,-100,4,1,1,100,0,0

[Colours]
Combo1 : 147,255,255
Combo2 : 210,0,105
Combo3 : 255,128,255

[HitObjects]
56,42,566,5,0,0:0:0:0:
64,38,653,5,0,0:0:0:0:
72,34,740,5,0,0:0:0:0:
80,30,826,5,0,0:0:0:0:
80,30,1087,1,0,0:0:0:0:
40,99,1348,1,0,0:0:0:0:
40,99,1609,1,0,0:0:0:0:
120,99,1870,1,0,0:0:0:0:
120,99,2131,1,0,0:0:0:0:
80,168,2392,1,0,0:0:0:0:
80,168,2653,1,0,0:0:0:0:
200,99,2913,5,0,0:0:0:0:
200,99,3174,1,0,0:0:0:0:
120,98,3435,1,0,0:0:0:0:
120,98,3696,1,0,0:0:0:0:
160,168,3957,1,0,0:0:0:0:
160,168,4218,1,0,0:0:0:0:
80,168,4479,5,0,0:0:0:0:
214,315,4653,2,0,L|284:308,1,55.4999984105428
270,310,5000,6,0,P|323:297|369:325,1,110.999996821086
378,339,5261,1,0,0:0:0:0:
348,233,5522,6,0,P|332:285|285:312,1,110.999996821086
270,310,5783,1,0,0:0:0:0:
378,339,6044,6,0,P|340:299|341:244,1,110.999996821086
350,232,6305,1,0,0:0:0:0:
378,339,6479,2,0,L|409:155,1,166.499995231629
472,14,6826,2,0,L|497:167,1,110.999996821086
384,84,7087,6,0,P|331:99|305:147,1,110.999996821086
307,163,7348,2,0,L|322:237,1,55.4999984105428
203,110,7609,6,0,P|165:149|166:204,1,110.999996821086
175,216,7870,2,0,L|224:272,1,55.4999984105428
59,223,8131,6,0,P|46:276|74:322,1,110.999996821086
88,328,8392,2,0,L|159:352,1,55.4999984105428
59,223,8652,1,0,0:0:0:0:
59,223,8913,1,0,0:0:0:0:
81,47,9174,5,0,0:0:0:0:
81,47,9435,2,0,L|240:60,1,110.999996821086
263,114,9696,2,0,P|311:63|399:91,1,166.5000015831
485,221,9957,2,0,P|437:170|349:198,1,166.5000015831
304,272,10218,1,0,0:0:0:0:
304,272,10392,1,0,0:0:0:0:
288,273,10479,2,0,L|224:278,2,55.4999984105428
342,348,10740,2,0,L|485:335,1,110.999996821086
484,320,11000,2,0,L|340:332,1,110.999996821086
151,347,11261,5,0,0:0:0:0:
151,347,11522,2,0,P|183:267|216:256,1,110.999996821086
328,248,11783,1,0,0:0:0:0:
328,248,12044,2,0,B|382:257|382:257|434:238,1,110.999996821086
328,144,12305,1,0,0:0:0:0:
328,144,12566,2,0,B|273:134|273:134|221:153,1,110.999996821086
39,178,12826,6,0,L|29:67,1,83.2499976158143
107,130,13087,6,0,L|113:212,1,83.2499976158143
125,379,13348,2,0,P|157:307|236:305,1,166.5000015831
254,321,13609,2,0,L|271:347,3,31.2187502968312
196,210,13870,2,0,P|260:164|329:202,1,166.5000015831
336,224,14131,2,0,L|337:255,3,31.2187502968312
341,99,14392,2,0,P|419:91|460:159,1,166.5000015831
456,181,14653,2,0,L|441:208,3,31.2187502968312
463,285,14913,1,0,0:0:0:0:
143,132,15174,1,0,0:0:0:0:
259,301,15435,5,0,0:0:0:0:
259,301,15696,1,0,0:0:0:0:
347,116,15957,5,0,0:0:0:0:
347,116,16218,1,0,0:0:0:0:
48,16,17000,6,0,B|64:32|64:32|48:48|48:48|48:152,1,138.749996026357
48,160,17522,1,0,0:0:0:0:
48,160,17783,2,0,B|96:160|96:160|104:152|104:152|160:152,1,110.999996821086
176,152,18044,2,0,P|224:101|312:129,1,166.5000015831
320,136,18305,2,0,P|317:65|399:23,1,166.5000015831
416,24,18566,1,0,0:0:0:0:
430,206,18739,1,0,0:0:0:0:
429,190,18826,2,0,L|424:126,2,55.4999984105428
352,241,19087,6,2,L|365:384,1,110.999996821086
380,383,19348,2,2,L|368:239,1,110.999996821086
176,287,19609,5,0,0:0:0:0:
176,287,19870,2,0,B|133:287|133:287|115:304|115:304|73:304,1,110.999996821086
57,305,20131,1,0,0:0:0:0:
0,172,20392,2,0,B|42:172|42:172|60:189|60:189|102:189,1,110.999996821086
119,190,20653,1,0,0:0:0:0:
176,57,20913,2,0,B|133:57|133:57|115:74|115:74|73:74,1,110.999996821086
56,74,21174,6,0,L|64:157,1,83.2499976158143
138,192,21435,6,0,L|132:109,1,83.2499976158143
144,275,21696,2,0,P|222:283|263:215,1,166.5000015831
258,192,21957,2,0,L|243:164,3,31.2187502968312
325,298,22218,2,0,P|396:265|398:186,1,166.5000015831
383,169,22479,2,0,L|356:152,3,31.2187502968312
494,227,22740,2,0,P|539:163|501:93,1,166.5000015831
480,87,23001,2,0,L|449:86,3,31.2187502968312
352,96,23261,6,0,B|280:102|280:102|282:126|282:126|210:132,1,166.5000015831
185,117,23522,2,0,L|175:6,1,83.2500007915498
109,82,23783,1,0,0:0:0:0:
109,82,24044,1,0,0:0:0:0:
73,195,24305,6,0,L|17:200,2,41.6250003957749
154,231,24566,2,0,L|209:236,2,41.6250003957749
83,284,24826,1,0,0:0:0:0:
496,160,25870,6,0,L|400:151,1,83.2500007915498
399,151,26131,2,0,B|402:107|402:107|387:88|387:88|390:45,1,110.999996821086
224,144,26392,6,0,L|319:135,1,83.2500007915498
320,136,26653,2,0,P|295:218|313:248,1,110.999996821086
219,279,26913,6,0,L|123:269,1,83.2500007915498
122,270,27174,2,0,B|125:226|125:226|110:207|110:207|113:164,1,110.999996821086
107,145,27435,2,0,P|62:145|18:100,1,110.999996821086
16,90,27696,2,0,P|16:45|60:1,1,110.999996821086
80,0,27957,6,0,L|191:9,1,83.2500007915498
175,8,28218,2,0,B|229:12|229:12|225:67,1,110.999996821086
288,112,28479,2,0,L|383:103,1,83.2500007915498
383,103,28740,2,0,P|337:139|343:202,1,110.999996821086
272,240,29000,6,0,L|176:231,1,83.2500007915498
176,231,29261,2,0,B|179:187|179:187|164:168|164:168|167:125,1,110.999996821086
160,112,29522,2,0,P|160:67|204:23,1,110.999996821086
215,21,29783,2,0,P|259:21|303:65,1,110.999996821086
318,96,30044,6,0,L|222:105,1,83.2500007915498
221,105,30305,2,0,B|224:148|224:148|209:167|209:167|212:210,1,110.999996821086
194,292,30566,6,0,L|98:283,1,83.2500007915498
98,283,30827,2,0,P|136:206|123:172,1,110.999996821086
223,158,31087,6,0,L|320:151,1,83.2500007915498,0|0,2:0|2:0,2:0:0:0:
321,151,31348,2,0,B|326:195|326:195|344:211|344:211|347:254,1,110.999996821086,0|0,2:0|2:0,2:0:0:0:
352,272,31609,2,0,P|352:317|308:361,1,110.999996821086
297,363,31870,2,0,P|253:363|209:319,1,110.999996821086
208,304,32131,2,0,L|96:313,1,83.2500007915498
0,192,32392,6,0,P|18:171|43:160,1,55.4999984105428
63,159,32522,2,0,P|87:174|102:198,1,55.4999984105428
112,208,32653,2,0,L|223:198,1,83.2500007915498
368,96,32913,6,0,P|344:72|320:64,1,55.4999984105428
304,64,33043,2,0,P|276:83|264:105,1,55.4999984105428
256,112,33174,2,0,L|144:102,1,110.999996821086
24,32,33435,2,0,L|135:22,1,110.999996821086
161,19,33696,1,0,0:0:0:0:
264,58,33870,1,0,0:0:0:0:
291,55,33957,1,0,0:0:0:0:
394,94,34131,1,0,0:0:0:0:
421,91,34218,6,0,L|413:173,1,83.2500007915498
429,237,34479,2,0,B|432:196|432:196|414:174|414:174|417:134,1,110.999996821086
172,176,34740,6,0,L|254:183,1,83.2500007915498
350,220,35000,2,0,B|349:283|267:321|203:235|254:183|254:183|171:176,1,305.249994169076
102,151,35261,6,0,L|92:261,1,110.999996821086
54,351,35522,2,0,B|59:290|59:290|92:262|92:262|97:201,1,166.5000015831
