osu file format v14

[General]
AudioFilename: audio.mp3
AudioLeadIn: 0
PreviewTime: 45502
Countdown: 0
SampleSet: Normal
StackLeniency: 0.3
Mode: 0
LetterboxInBreaks: 0
WidescreenStoryboard: 1

[Editor]
Bookmarks: 38285,40459,61415,69676,76980,92893
DistanceSpacing: 1
BeatDivisor: 6
GridSize: 32
TimelineZoom: 6.423995

[Metadata]
Title:Funny shuffle
TitleUnicode:Funny shuffle
Artist:Nekomata Master+
ArtistUnicode:猫叉Master+
Creator:blixys
Version:Boo!
Source:beatmania IIDX 21 SPADA
Tags:neko shuffle swing 1/3 1/6 funny beatmania
BeatmapID:2019688
BeatmapSetID:959548

[Difficulty]
HPDrainRate:6
CircleSize:3
OverallDifficulty:8
ApproachRate:9.7
SliderMultiplier:3.59999990463257
SliderTickRate:1

[Events]
//Background and Video events
0,0,"funny.jpg",0,0
//Break Periods
//Storyboard Layer 0 (Background)
//Storyboard Layer 1 (Fail)
//Storyboard Layer 2 (Pass)
//Storyboard Layer 3 (Foreground)
//Storyboard Layer 4 (Overlay)
//Storyboard Sound Samples

[TimingPoints]
-1260,521.739130434783,4,1,1,100,1,0
566,-100000000000,4,2,1,45,0,0
826,-250,4,2,1,45,0,0
5000,-149.925037481259,4,2,1,45,0,0
5261,-125,4,2,1,45,0,0
5522,-149.925037481259,4,2,1,45,0,0
5783,-125,4,2,1,45,0,0
7087,-149.925037481259,4,2,1,45,0,0
7348,-125,4,2,1,45,0,0
7609,-149.925037481259,4,2,1,45,0,0
7870,-125,4,2,1,45,0,0
8653,-83.3333333333333,4,1,1,65,0,0
9174,-100,4,1,1,75,0,0
13348,-100,4,1,1,75,0,0
13609,-100,4,1,1,75,0,0
13870,-83.3333333333333,4,1,1,75,0,0
14131,-100,4,1,1,75,0,0
14392,-90.9090909090909,4,1,1,75,0,0
14653,-100,4,1,1,75,0,0
14913,-66.6666666666667,4,1,1,75,0,0
15435,-133.333333333333,4,1,1,75,0,0
16479,-50,4,1,1,75,0,0
16804,-50,4,1,1,5,0,0
17000,-1000,4,1,1,75,0,0
17522,-75.0187546886722,4,1,1,75,0,0
18044,-66.6666666666667,4,1,1,75,0,0
18740,-100,4,1,1,75,0,0
19087,-55.5555555555556,4,1,1,80,0,0
19348,-62.5,4,1,1,80,0,0
19609,-100,4,1,1,80,0,0
21696,-100,4,1,1,75,0,0
21957,-100,4,1,1,75,0,0
22218,-83.3333333333333,4,1,1,75,0,0
22479,-100,4,1,1,75,0,0
22740,-90.9090909090909,4,1,1,75,0,0
23001,-100,4,1,1,75,0,0
23261,-66.6666666666667,4,1,1,75,0,0
25870,-100,4,1,1,75,0,0
31087,-66.6666666666667,4,1,1,75,0,0
31609,-100,4,1,1,75,0,0
32392,-40,4,1,1,75,0,0
32653,-100,4,1,1,75,0,0
32913,-40,4,1,1,75,0,0
33174,-66.6666666666667,4,1,1,75,0,0
34218,-100,4,1,1,75,0,0
39435,-66.6666666666667,4,1,1,75,0,0
39870,-100,4,1,1,75,0,0
40479,-100,4,1,1,75,0,0
41522,-66.6666666666667,4,1,1,75,0,0
42044,-100,4,1,1,75,0,0
42392,-66.6666666666667,4,1,1,5,0,0
42479,-66.6666666666667,4,1,1,75,0,0
43174,-100,4,1,1,75,0,0
43435,-66.6666666666667,4,1,1,5,0,0
43522,-66.6666666666667,4,1,1,75,0,0
44044,-100,4,1,1,75,0,0
44131,-100,4,1,2,5,0,0
45609,-100,4,2,1,75,0,0
45957,-111.111111111111,4,2,1,75,0,0
46218,-125,4,2,1,75,0,0
46479,-142.857142857143,4,2,1,75,0,0
46740,-33.3333333333333,4,1,1,100,0,1
46913,-66.6666666666667,4,1,1,80,0,1
47783,-43.4782608695652,4,1,1,80,0,1
48479,-66.6666666666667,4,1,1,80,0,1
48826,-100,4,1,1,80,0,1
49087,-125,4,1,1,80,0,1
49348,-166.666666666667,4,1,1,80,0,1
49609,-125,4,1,1,80,0,1
49870,-55.5555555555556,4,1,1,80,0,1
50131,-62.5,4,1,1,80,0,1
50392,-75,4,1,1,80,0,1
50566,-133.333333333333,4,1,1,80,0,1
50913,-50,4,1,1,100,0,1
51174,-80,4,1,1,80,0,1
51609,-72.7272727272727,4,1,1,80,0,1
51957,-33.3333333333333,4,1,1,80,0,1
52218,-55.5555555555556,4,1,1,80,0,1
52479,-37.037037037037,4,1,1,80,0,1
52653,-55.5555555555556,4,1,1,80,0,1
53000,-50,4,1,1,80,0,1
53261,-66.6666666666667,4,1,1,80,0,1
53522,-55.5555555555556,4,1,1,80,0,1
54044,-55.5555555555556,4,1,1,80,0,1
55087,-33.3333333333333,4,1,1,80,0,1
55261,-66.6666666666667,4,1,1,80,0,1
55783,-50,4,1,1,80,0,1
56131,-66.6666666666667,4,1,1,80,0,1
56653,-111.111111111111,4,1,1,80,0,1
57174,-50,4,1,1,80,0,1
57435,-62.5,4,1,1,80,0,1
57696,-83.3333333333333,4,1,1,80,0,1
57957,-125,4,1,1,80,0,1
58218,-50,4,1,1,80,0,1
59261,-33.3333333333333,4,1,1,100,0,1
59435,-66.6666666666667,4,1,1,80,0,1
59522,-55.5555555555556,4,1,1,80,0,1
60305,-45.4545454545455,4,1,1,80,0,1
60566,-55.5555555555556,4,1,1,80,0,1
61087,-62.5,4,1,1,80,0,1
61348,-35.7142857142857,4,1,1,80,0,1
61435,-71.4285714285714,4,1,1,5,0,1
61609,-33.3333333333333,4,1,1,80,0,1
61696,-34.4827586206897,4,1,1,80,0,1
61783,-35.7142857142857,4,1,1,80,0,1
61870,-37.037037037037,4,1,1,80,0,1
61957,-38.4615384615385,4,1,1,80,0,1
62044,-40,4,1,1,80,0,1
62131,-41.6666666666667,4,1,1,80,0,1
62218,-43.4782608695652,4,1,1,80,0,1
62653,-66.6666666666667,4,1,1,80,0,1
63435,-100,4,2,1,80,0,0
71783,-100,4,1,1,80,0,0
75435,-66.6666666666667,4,1,1,80,0,0
75957,-100,4,1,1,80,0,0
80131,-200,4,1,1,80,0,0
84305,-66.6666666666667,4,1,1,80,0,0
85870,-133.333333333333,4,1,1,80,0,0
86653,-100,4,1,1,80,0,0
88479,-66.6666666666667,4,1,1,80,0,0
90566,-66.6666666666667,4,1,1,80,0,0
92653,-63.7037037037226,4,1,1,80,0,0
92913,-47.6190476190476,4,1,1,80,0,0
93174,-63.7037037037226,4,1,1,80,0,0
93434,-47.6190476190476,4,1,1,80,0,0
93696,-63.7037037037226,4,1,1,80,0,0
93956,-47.6190476190476,4,1,1,80,0,0
94218,-63.7037037037226,4,1,1,80,0,0
94478,-47.6190476190476,4,1,1,80,0,0
94740,-100,4,1,1,80,0,0
95783,-66.6666666666667,4,1,1,75,0,0
96305,-100,4,1,1,75,0,0
96653,-66.6666666666667,4,1,1,5,0,0
96740,-66.6666666666667,4,1,1,75,0,0
97435,-100,4,1,1,75,0,0
97696,-66.6666666666667,4,1,1,5,0,0
97783,-66.6666666666667,4,1,1,75,0,0
98305,-100,4,1,1,75,0,0
98740,-66.6666666666667,4,1,1,75,0,0
99261,-220.507166482911,4,1,1,75,0,0
99435,-100,4,2,1,5,0,0
101913,-25,4,3,1,80,0,0

[Colours]
Combo1 : 147,255,255
Combo2 : 210,0,105
Combo3 : 255,128,255

[HitObjects]
132,15,566,5,0,0:0:0:0:
127,47,653,1,0,0:0:0:0:
124,77,740,1,0,0:0:0:0:
137,95,826,6,0,L|127:174,1,71.9999980926514
228,285,1261,1,0,0:0:0:0:
213,266,1348,2,0,L|223:185,1,71.9999980926514
110,61,1783,1,0,0:0:0:0:
124,76,1870,2,0,L|114:156,1,71.9999980926514
240,298,2305,1,0,0:0:0:0:
226,283,2392,2,0,L|236:203,1,71.9999980926514
429,82,2913,6,0,L|349:73,1,71.9999980926514
242,174,3348,1,0,0:0:0:0:
259,158,3435,2,0,L|338:168,1,71.9999980926514
466,56,3870,1,0,0:0:0:0:
446,68,3957,2,0,L|368:59,1,71.9999980926514
214,181,4392,5,0,0:0:0:0:
229,177,4479,1,0,0:0:0:0:
365,244,4653,5,0,0:0:0:0:
371,260,4740,1,0,0:0:0:0:
290,113,5000,6,0,L|179:99,1,80.0399999681102
192,116,5261,2,0,L|180:211,1,95.9999974568685
123,285,5522,6,0,L|42:274,1,80.0399999681102
30,258,5783,2,0,L|41:162,1,95.9999974568685
219,297,6044,6,0,L|313:309,1,95.9999974568685
330,310,6305,1,0,0:0:0:0:
198,198,6479,6,0,L|357:216,1,143.999996185303
358,217,6826,2,0,L|341:344,1,95.9999974568685
20,337,7087,6,0,L|131:350,1,80.0399999681102
117,333,7348,2,0,L|129:237,1,95.9999974568685
240,122,7609,6,0,L|128:108,1,80.0399999681102
143,127,7870,2,0,L|130:221,1,95.9999974568685
245,348,8131,6,0,L|340:360,1,95.9999974568685
356,362,8392,1,0,0:0:0:0:
379,124,8566,1,0,0:0:0:0:
323,57,8653,6,0,B|387:25|387:25|446:68,1,143.999991790772
436,191,8913,2,0,B|372:223|372:223|313:180,1,143.999991790772
248,94,9174,5,0,0:0:0:0:
114,28,9348,5,0,0:0:0:0:
132,15,9435,2,0,L|114:158,1,119.999996821086
94,316,9696,2,0,B|102:253|102:253|166:260,1,119.999996821086
317,215,9957,2,0,B|308:278|308:278|246:270,1,119.999996821086
251,351,10218,5,0,0:0:0:0:
96,172,10392,1,0,0:0:0:0:
112,173,10479,2,0,L|192:183,2,59.9999984105428
130,288,10740,1,0,0:0:0:0:
219,90,10913,1,0,0:0:0:0:
203,88,11000,2,0,L|29:67,1,119.999996821086
20,1,11261,5,0,0:0:0:0:
242,302,11435,1,0,0:0:0:0:
255,320,11522,2,0,L|270:193,1,119.999996821086
376,254,11783,2,0,L|361:381,1,119.999996821086
458,249,12044,2,0,B|465:185|465:185|386:175,1,119.999996821086
322,167,12305,1,0,0:0:0:0:
68,136,12479,5,0,0:0:0:0:
51,149,12566,2,0,L|177:166,1,119.999996821086
188,0,12826,6,0,L|176:86,1,89.9999976158143
240,222,13087,2,0,L|252:128,1,89.9999976158143
338,40,13348,6,0,L|457:55,1,119.999996821086
477,96,13609,2,0,L|521:102,2,44.9999988079071
287,135,13870,6,0,L|429:152,1,143.999991790772
451,193,14131,2,0,L|493:199,2,44.9999988079071
287,233,14392,6,0,L|419:249,1,132.000000531515
439,290,14653,2,0,L|493:297,2,44.9999988079071
213,137,14913,2,0,B|118:126|118:126|106:221,1,180.000002098084
94,316,15174,1,0,0:0:0:0:
241,173,15435,6,0,L|368:188,1,90.0000010490418
353,187,15696,1,0,0:0:0:0:
418,307,15957,2,0,L|291:292,1,90.0000010490418
307,294,16218,1,0,0:0:0:0:
120,108,17000,6,0,L|123:78,1,29.9999992052714
126,62,17522,1,0,0:0:0:0:
280,49,17696,1,0,0:0:0:0:
296,51,17783,2,0,B|384:62|384:62|370:172,1,159.959999252845
352,316,18044,2,0,L|146:291,1,180.000002098084
97,300,18305,2,0,L|303:326,1,180.000002098084
430,342,18566,1,0,0:0:0:0:
342,138,18740,1,0,0:0:0:0:
340,153,18826,2,0,L|330:232,2,59.9999984105428
354,42,19087,6,0,B|247:29|247:29|233:136,1,215.999987686158
245,136,19348,2,0,B|257:40|257:40|351:52,1,191.999994913737
472,67,19609,5,0,0:0:0:0:
206,266,19783,1,0,0:0:0:0:
222,267,19870,2,0,L|348:283,1,119.999996821086
436,294,20131,5,0,0:0:0:0:
236,27,20305,1,0,0:0:0:0:
234,44,20392,2,0,L|218:169,1,119.999996821086
222,267,20653,2,0,L|348:283,1,119.999996821086
234,44,20913,2,0,L|218:169,1,119.999996821086
233,245,21174,6,0,L|129:232,1,89.9999976158143
132,323,21435,2,0,L|221:334,1,89.9999976158143
430,361,21696,6,0,L|310:345,1,119.999996821086
290,304,21957,2,0,L|246:298,2,44.9999988079071
481,265,22218,6,0,L|338:247,1,143.999991790772
317,207,22479,2,0,L|273:201,2,44.9999988079071
480,168,22740,6,0,L|349:151,1,132.000000531515
328,110,23000,2,0,L|275:103,2,49.500000199318
154,26,23261,2,0,L|129:232,1,180.000002098084
139,281,23522,2,0,L|165:75,1,180.000002098084
154,26,23783,1,0,0:0:0:0:
139,281,24044,1,0,0:0:0:0:
337,185,24305,5,0,0:0:0:0:
319,163,24392,5,0,0:0:0:0:
329,138,24479,5,0,0:0:0:0:
356,134,24566,5,0,0:0:0:0:
373,156,24653,5,0,0:0:0:0:
363,181,24740,5,0,0:0:0:0:
346,159,24826,5,0,0:0:0:0:
77,246,25870,6,0,L|251:224,1,119.999996821086
339,214,26131,2,0,L|164:235,1,119.999996821086
150,382,26392,6,0,B|142:318|142:318|253:305,1,119.999996821086,0|0,0:0|0:0,0:0:0:0:
349,293,26653,2,0,L|174:314,1,119.999996821086,0|0,0:0|0:0,0:0:0:0:
33,219,26913,6,0,B|25:155|25:155|137:142,1,119.999996821086,0|0,0:0|0:0,0:0:0:0:
184,136,27174,1,0,0:0:0:0:
388,151,27348,5,0,0:0:0:0:
381,160,27435,2,0,L|390:239,1,59.9999984105428,0|0,0:0|0:0,0:0:0:0:
465,254,27609,5,0,0:0:0:0:
472,246,27696,2,0,L|462:166,1,59.9999984105428,0|0,0:0|0:0,0:0:0:0:
447,43,27957,2,0,L|468:218,1,119.999996821086
479,305,28218,2,0,L|458:130,1,119.999996821086
311,116,28479,6,0,B|374:108|374:108|388:220,1,119.999996821086
400,315,28740,2,0,L|378:140,1,119.999996821086
234,279,29000,6,0,B|226:215|226:215|337:202,1,119.999996821086,0|0,0:0|0:0,0:0:0:0:
385,196,29261,1,0,0:0:0:0:
61,119,29435,5,0,0:0:0:0:
54,128,29522,2,0,L|134:118,1,59.9999984105428
262,110,29696,5,0,0:0:0:0:
269,101,29783,2,0,L|189:111,1,59.9999984105428
73,214,29957,1,0,0:0:0:0:
66,223,30044,2,0,B|201:206,1,119.999996821086
312,193,30305,1,0,0:0:0:0:
76,367,30479,1,0,0:0:0:0:
84,374,30566,2,0,B|77:314|77:314|136:307,1,119.999996821086
299,283,30826,1,0,0:0:0:0:
196,167,31000,5,0,0:0:0:0:
189,175,31087,2,0,L|388:151,1,180.000002098084
436,153,31348,2,0,L|238:178,1,180.000002098084
210,84,31609,5,0,0:0:0:0:
201,77,31696,2,0,L|281:68,1,59.9999984105428
407,44,31870,5,0,0:0:0:0:
416,51,31957,2,0,L|336:61,1,59.9999984105428
70,190,32131,2,0,L|245:169,1,119.999996821086
290,229,32392,6,0,B|312:331|324:227,1,112.499997019768
290,229,32522,6,0,B|302:125|324:227,1,112.499997019768
148,366,32653,2,0,L|267:351,1,119.999996821086
484,283,32913,6,0,B|462:385|450:281,1,112.499997019768
484,283,33043,6,0,B|472:179|450:281,1,112.499997019768
308,32,33174,2,0,L|333:230,1,180.000002098084
344,253,33435,2,0,L|323:86,1,90.0000010490418
351,74,33609,5,0,0:0:0:0:
352,58,33696,1,0,0:0:0:0:
220,90,33869,5,0,0:0:0:0:
222,74,33956,1,0,0:0:0:0:
89,107,34131,5,0,0:0:0:0:
91,91,34218,2,0,L|72:242,1,119.999996821086
210,363,34479,2,0,L|229:212,1,119.999996821086
100,213,34740,2,0,L|251:231,1,119.999996821086
338,242,35000,2,0,B|409:251|409:251|402:314,1,119.999996821086
337,378,35261,2,0,L|186:360,1,119.999996821086
100,213,35522,1,0,0:0:0:0:
397,152,35696,5,0,0:0:0:0:
404,161,35783,2,0,L|325:152,1,59.9999984105428
121,304,35957,5,0,0:0:0:0:
114,295,36044,2,0,L|193:305,1,59.9999984105428
95,51,36218,1,0,0:0:0:0:
102,60,36305,2,0,L|237:76,1,119.999996821086
356,91,36566,2,0,L|222:74,1,119.999996821086
150,66,36826,2,0,B|87:58|87:58|77:137,1,119.999996821086
0,249,37087,2,0,B|62:256|62:256|72:177,1,119.999996821086
230,68,37348,2,0,L|214:203,1,119.999996821086
199,322,37609,2,0,L|211:226,1,59.9999984105428
296,188,37783,5,0,0:0:0:0:
287,195,37870,2,0,L|297:116,1,59.9999984105428
150,130,38044,5,0,0:0:0:0:
159,123,38131,2,0,L|149:203,1,59.9999984105428
149,275,38305,1,0,0:0:0:0:
140,282,38392,2,0,L|259:297,1,119.999996821086
346,307,38653,2,0,B|425:317|425:317|421:357,1,119.999996821086
241,246,38913,2,0,B|248:187|248:187|307:194,1,119.999996821086
461,152,39174,2,0,B|454:211|454:211|394:203,1,119.999996821086
64,47,39435,2,0,L|302:76,1,180.000002098084
261,79,39696,2,0,L|102:60,1,90.0000010490418
62,63,39870,5,0,0:0:0:0:
71,56,39957,2,0,L|63:116,1,59.9999984105428
208,121,40131,5,0,0:0:0:0:
199,128,40218,2,0,L|206:69,1,59.9999984105428
209,49,40392,1,0,0:0:0:0:
79,237,40479,6,0,L|207:205,1,119.999996821086
191,189,40740,2,0,L|255:173,2,59.9999984105428
159,269,41000,2,0,L|287:301,1,119.999996821086
271,333,41261,5,0,0:0:0:0:
309,342,41348,1,0,0:0:0:0:
348,352,41435,1,0,0:0:0:0:
386,361,41522,1,0,0:0:0:0:
176,120,41696,1,0,0:0:0:0:
184,128,41783,2,0,P|240:112|336:152,1,90.0000010490418
360,176,41957,1,0,0:0:0:0:
32,104,42218,6,0,P|40:48|40:104,1,119.999996821086
88,176,42479,1,0,0:0:0:0:
96,184,42566,2,0,P|80:240|176:224,1,180.000002098084
171,242,42826,2,0,P|216:208|272:216,1,90.0000010490418
328,256,43000,1,0,0:0:0:0:
480,280,43261,6,0,P|472:336|472:280,1,119.999996821086
424,208,43522,1,0,0:0:0:0:
416,200,43609,2,0,P|432:144|336:160,1,180.000002098084
248,206,43870,2,0,P|204:212|171:242,1,90.0000010490418
64,144,44044,2,0,B|74:109|126:35|216:84|240:129|232:179|206:216|94:317|94:317|299:281,1,599.999984105428
5,173,45609,1,0,0:0:0:0:
131,197,45696,6,0,P|59:195|4:184,1,119.999996821086
244,234,45957,2,0,P|193:214|140:204,1,107.999993843079
321,312,46218,2,0,P|281:284|248:250,1,95.9999974568685
360,384,46479,2,0,P|349:343|333:304,1,83.9999952112835
36,110,46740,6,0,B|27:46|27:46|202:25|202:25|217:141,1,360.000004196167
202,143,47000,2,0,L|91:155,2,90.0000010490418
345,125,47261,1,0,0:0:0:0:
37,384,47435,2,0,B|26:304|26:304|217:280,1,270.000003147125
313,269,47783,6,0,B|487:247|487:247|473:136,1,275.999997952779
464,161,48044,2,0,B|481:303,2,137.99999897639
309,100,48305,1,0,0:0:0:0:
121,123,48479,2,0,B|308:100|308:100|317:180,1,270.000003147125
318,181,48826,6,0,L|304:62,1,119.999996821086
323,72,49087,2,0,L|335:167,1,95.9999974568685
348,155,49348,2,0,L|339:79,1,71.9999958953859
353,98,49609,6,0,L|359:146,1,47.9999987284343
373,257,49783,1,0,0:0:0:0:
265,271,49870,6,0,B|372:256|372:256|388:361,1,215.999987686158
378,368,50131,2,0,B|364:272|364:272|268:285,1,191.999994913737
180,299,50393,2,0,L|189:378,1,79.9999978807238
93,316,50566,2,0,L|76:182,1,135.000001573563
74,166,50913,2,0,B|-3:175|-3:175|7:278|7:278|87:268,1,239.999993642171
79,271,51174,2,0,L|90:365,2,74.9999980131785
121,88,51435,1,0,0:0:0:0:
137,231,51609,6,0,B|121:88|121:88|224:74,1,247.499995803833
258,224,51957,6,0,B|147:238|147:238|130:95|130:95|233:81,1,360.000004196167
250,81,52218,2,0,L|394:63,1,107.999993843079
378,65,52392,1,0,0:0:0:0:
458,145,52479,2,0,B|467:224|467:224|387:234,1,161.999996326447
189,186,52653,2,0,B|264:176|264:176|287:368|284:344,1,215.999987686158
10,209,52913,5,0,0:0:0:0:
26,206,53000,2,0,L|264:176,1,239.999993642171
128,76,53261,2,0,L|138:165,1,90.0000010490418
156,301,53435,1,0,0:0:0:0:
248,56,53522,6,0,B|140:68|140:68|150:174,1,215.999987686158
160,182,53783,2,0,B|150:76|150:76|258:64,1,215.999987686158
476,78,54044,2,0,B|368:89,1,107.999993843079
431,176,54218,1,0,0:0:0:0:
216,198,54305,2,0,B|324:187,1,107.999993843079
279,285,54479,1,0,0:0:0:0:
3,222,54566,6,0,B|110:210|110:210|124:317,1,215.999987686158
217,198,54826,6,0,B|110:210|110:210|96:103,1,215.999987686158
250,18,55087,6,0,B|314:9|314:9|335:185|335:185|177:203,1,360.000004196167
216,187,55348,2,0,B|205:97,2,90.0000010490418
235,331,55608,1,0,0:0:0:0:
384,112,55783,2,0,B|377:47|377:47|201:69|201:69|222:227,1,360.000004196167
326,324,56131,6,0,B|303:146,1,180.000002098084
216,185,56392,6,0,B|227:274,2,90.0000010490418
201,69,56653,1,0,0:0:0:0:
227,274,56826,5,0,0:0:0:0:
229,294,56912,1,0,0:0:0:0:
201,69,57086,1,0,0:0:0:0:
222,67,57174,2,0,L|462:37,1,239.999993642171
438,51,57435,2,0,L|247:74,1,191.999994913737
273,84,57696,2,0,L|416:66,1,143.999991790772
393,81,57957,2,0,L|297:92,1,95.9999974568685
34,135,58218,6,0,P|70:87|125:69,2,119.999996821086
135,181,58479,2,0,P|188:157|247:169,2,119.999996821086
238,61,58740,5,0,0:0:0:0:
93,286,58913,1,0,0:0:0:0:
206,272,59000,6,0,P|272:282|313:334,2,119.999996821086
313,375,59261,2,0,B|338:168|338:168|450:180|450:180|443:229|443:229|365:219,1,360.000004196167
442,234,59522,2,0,L|334:222,2,107.999993843079
452,126,59783,1,0,0:0:0:0:
337,14,59957,6,0,B|512:35|512:35|502:132|502:132|452:126,1,323.999981529237
284,305,60305,2,0,B|156:288|156:288|146:368|146:368|4:350|4:350,1,264.000001063029
35,203,60566,6,0,L|22:310,2,107.999993843079
161,156,60826,2,0,L|133:378,1,215.999987686158
125,355,61087,2,0,L|147:164,1,191.999994913737
138,173,61348,6,0,L|115:339,1,167.999990422567
252,84,61609,6,0,L|430:105,1,180.000002098084
423,111,61783,2,0,L|256:90,1,167.999990422567
262,98,61957,2,0,L|416:116,1,155.999988726299
410,122,62131,2,0,L|266:104,1,143.999991790772
334,146,62305,1,0,0:0:0:0:
333,160,62392,1,0,0:0:0:0:
111,202,62653,6,0,P|46:191|97:236,1,180.000002098084
191,255,62913,2,0,B|271:248|271:248|304:261|304:261|416:252,1,180.000002098084
452,266,63174,2,0,P|420:186|335:177,1,180.000002098084
410,371,63435,6,0,L|267:354,1,119.999996821086
204,346,63696,1,0,0:0:0:0:
9,225,63957,6,0,L|152:243,1,119.999996821086
215,250,64218,1,0,0:0:0:0:
42,84,64479,6,0,L|170:99,1,119.999996821086
183,118,64740,2,0,L|169:237,1,119.999996821086
184,247,65000,2,0,L|311:262,1,119.999996821086
330,232,65261,1,0,0:0:0:0:
363,107,65435,5,0,0:0:0:0:
344,122,65522,2,0,L|170:99,1,119.999996821086
138,96,65783,1,0,0:0:0:0:
113,303,66044,6,0,L|134:128,1,119.999996821086
138,96,66305,6,0,L|249:109,1,59.9999984105428
296,116,66479,1,0,0:0:0:0:
309,149,66566,6,0,L|294:268,1,119.999996821086
437,149,66826,2,0,L|319:135,1,119.999996821086
438,278,67087,2,0,L|453:158,1,119.999996821086
308,278,67348,2,0,L|428:293,1,119.999996821086
214,266,67609,5,0,0:0:0:0:
214,266,67870,2,0,L|54:247,1,119.999996821086
73,233,68131,1,0,0:0:0:0:
152,114,68392,6,0,L|311:133,1,119.999996821086
296,116,68653,1,0,0:0:0:0:
415,195,68913,6,0,L|396:353,1,119.999996821086
414,339,69174,1,0,0:0:0:0:
152,114,69435,6,0,L|311:133,1,119.999996821086
296,116,69696,2,0,L|279:258,1,119.999996821086
263,257,69957,2,0,L|120:239,1,119.999996821086
118,255,70218,2,0,L|136:112,1,119.999996821086
136,112,70479,2,0,L|215:122,1,59.9999984105428
251,111,70653,1,0,0:0:0:0:
268,126,70740,1,0,0:0:0:0:
158,236,71000,2,0,L|172:117,1,119.999996821086
168,16,71261,1,0,0:0:0:0:
102,365,71435,6,0,L|126:166,1,179.999995231629
66,101,71783,6,0,L|242:80,1,119.999996821086
243,96,72044,2,0,L|323:86,2,59.9999984105428
106,290,72305,6,0,L|85:115,1,119.999996821086
101,113,72566,2,0,L|91:34,2,59.9999984105428
241,209,72826,6,0,L|67:230,1,119.999996821086
68,246,73087,2,0,L|-9:256,2,59.9999984105428
251,160,73348,6,0,L|426:138,1,119.999996821086
427,153,73609,2,0,L|487:146,1,59.9999984105428
414,172,73782,1,0,0:0:0:0:
311,249,73870,6,0,L|136:270,1,119.999996821086
138,286,74131,2,0,L|78:294,1,59.9999984105428
155,300,74304,5,0,0:0:0:0:
334,309,74392,2,0,L|393:302,1,59.9999984105428
320,328,74565,5,0,0:0:0:0:
225,340,74653,2,0,B|211:229|211:229|259:222,1,119.999996821086
297,201,74913,2,0,B|305:201|305:201|318:312,1,119.999996821086
10,219,75174,2,0,L|130:204,1,119.999996821086
130,204,75435,6,0,L|76:133,1,90.0000010490418
201,39,75609,2,0,L|166:122,1,90.0000010490418
22,62,75783,2,0,L|112:52,1,90.0000010490418
166,122,75957,6,0,L|340:99,1,119.999996821086
307,88,76218,2,0,L|371:80,2,59.9999984105428
275,221,76479,6,0,L|100:242,1,119.999996821086
130,223,76740,2,0,L|67:230,2,44.9999988079071
223,324,77000,6,0,L|397:303,1,119.999996821086
368,322,77261,2,0,L|431:315,2,44.9999988079071
110,64,77522,6,0,L|131:238,1,119.999996821086
112,209,77783,2,0,L|119:272,2,44.9999988079071
266,142,78044,2,0,B|262:110|262:110|357:98,1,119.999996821086
369,194,78305,2,0,B|373:225|373:225|277:237,1,119.999996821086
256,240,78566,1,0,0:0:0:0:
91,51,78740,5,0,0:0:0:0:
108,66,78826,1,0,0:0:0:0:
53,167,79000,5,0,0:0:0:0:
38,184,79087,1,0,0:0:0:0:
200,260,79261,5,0,0:0:0:0:
165,267,79348,1,0,0:0:0:0:
285,245,79522,5,0,0:0:0:0:
259,285,79609,1,0,0:0:0:0:
350,151,79783,5,0,0:0:0:0:
363,213,79870,1,0,0:0:0:0:
322,1,80044,5,0,0:0:0:0:
394,47,80131,2,0,L|386:111,1,59.9999984105428
384,126,80393,1,0,0:0:0:0:
274,234,80653,6,0,L|282:171,1,59.9999984105428
284,155,80914,1,0,0:0:0:0:
204,24,81174,6,0,L|196:87,1,59.9999984105428
194,103,81435,1,0,0:0:0:0:
194,103,81609,5,0,0:0:0:0:
195,95,81696,1,0,0:0:0:0:
91,147,81870,5,0,0:0:0:0:
92,139,81957,1,0,0:0:0:0:
180,214,82131,5,0,0:0:0:0:
181,207,82218,2,0,L|245:214,1,59.9999984105428
261,216,82479,1,0,0:0:0:0:
391,136,82740,6,0,L|328:128,1,59.9999984105428
312,126,83001,1,0,0:0:0:0:
205,16,83261,6,0,L|268:24,1,59.9999984105428
284,26,83522,1,0,0:0:0:0:
283,34,83696,5,0,0:0:0:0:
284,26,83783,1,0,0:0:0:0:
372,101,83957,5,0,0:0:0:0:
373,93,84044,1,0,0:0:0:0:
269,145,84218,5,0,0:0:0:0:
270,137,84305,2,0,L|469:161,1,180.000002098084
340,292,84566,2,0,P|322:320|291:332,3,67.5000007867814
344,267,84826,2,0,L|366:89,1,180.000002098084
204,324,85087,2,0,P|224:296|254:284,3,67.5000007867814
201,338,85348,2,0,L|23:316,1,180.000002098084
0,224,85609,2,0,P|12:196|43:184,2,67.5000007867814
206,266,85870,6,0,L|127:256,1,45.0000005245209
67,152,86044,1,0,0:0:0:0:
69,136,86131,2,0,L|79:57,2,45.0000005245209
164,148,86392,6,0,L|283:163,1,90.0000010490418
285,147,86653,2,0,B|292:91|292:91|300:92|300:92|308:29,1,119.999996821086
309,21,86913,1,0,0:0:0:0:
475,41,87087,1,0,0:0:0:0:
460,39,87174,1,0,0:0:0:0:
285,147,87348,1,0,0:0:0:0:
301,149,87435,6,0,L|428:164,1,119.999996821086
491,180,87696,2,0,L|364:164,1,119.999996821086
371,173,87957,1,0,0:0:0:0:
268,209,88131,5,0,0:0:0:0:
267,217,88218,1,0,0:0:0:0:
358,277,88392,5,0,0:0:0:0:
357,285,88479,2,0,L|150:259,1,180.000002098084
101,268,88740,2,0,L|306:293,1,180.000002098084
403,306,89000,2,0,B|491:317|491:317|502:228,1,180.000002098084
512,101,89261,2,0,B|429:90|429:90|418:179,1,180.000002098084
416,195,89522,2,0,L|194:168,1,180.000002098084
226,172,89783,1,0,0:0:0:0:
66,56,89957,5,0,0:0:0:0:
68,40,90044,1,0,0:0:0:0:
84,171,90218,5,0,0:0:0:0:
86,155,90305,1,0,0:0:0:0:
102,286,90479,5,0,0:0:0:0:
104,270,90566,2,0,B|294:294,1,180.000002098084
390,305,90826,2,0,B|479:316|479:316|489:227,1,180.000002098084
489,226,91087,2,0,B|298:202,1,180.000002098084
203,191,91348,2,0,B|114:180|114:180|125:91,1,180.000002098084
125,89,91609,2,0,B|316:113,1,180.000002098084
411,125,91870,2,0,B|500:135|500:135|511:47,1,180.000002098084
512,46,92131,2,0,B|333:23,1,180.000002098084
275,33,92392,2,0,B|466:56,1,180.000002098084
389,149,92653,6,0,L|202:125,1,188.372084690856
244,177,92913,2,0,L|337:188,3,94.1860423454278
203,124,93174,2,0,L|180:310,1,188.372084690856
232,270,93435,2,0,L|244:176,3,94.1860423454278
180,311,93696,2,0,L|367:333,1,188.372084690856
325,281,93957,2,0,L|232:268,3,94.1860423454278
367,335,94218,2,0,L|390:147,1,188.372084690856
338,189,94479,2,0,L|326:281,3,94.1860423454278
80,240,94740,6,0,L|208:208,1,119.999996821086
192,192,95000,2,0,L|256:176,2,59.9999984105428
160,272,95261,2,0,L|288:304,1,119.999996821086
272,336,95522,5,0,0:0:0:0:
310,345,95609,1,0,0:0:0:0:
349,355,95696,1,0,0:0:0:0:
387,364,95783,1,0,0:0:0:0:
176,120,95957,1,0,0:0:0:0:
184,128,96044,2,0,P|240:112|336:152,1,90.0000010490418
360,176,96218,1,0,0:0:0:0:
32,104,96479,6,0,P|40:48|40:104,1,119.999996821086
88,176,96740,1,0,0:0:0:0:
96,184,96827,2,0,P|80:240|176:224,1,180.000002098084
171,242,97087,2,0,P|216:208|272:216,1,90.0000010490418
328,256,97261,1,0,0:0:0:0:
480,280,97522,6,0,P|472:336|472:280,1,119.999996821086
424,208,97783,1,0,0:0:0:0:
416,200,97870,2,0,P|432:144|336:160,1,180.000002098084
248,206,98131,2,0,P|204:212|171:242,1,90.0000010490418
158,336,98305,1,0,0:0:0:0:
393,320,98566,6,0,P|400:272|378:303,1,119.999996821086
310,233,98826,1,0,0:0:0:0:
299,240,98913,2,0,P|231:200|209:275,1,180.000002098084
129,174,99174,2,0,P|89:157|64:119,1,90.0000010490418
40,36,99370,2,0,B|-4:47|-32:95|-19:140|-19:140|-7:186|39:212|84:202|84:202|130:189|158:142|144:96|144:96|144:96|144:96|144:96|144:96|133:49|159:4|206:-8|206:-8|251:-21|298:6|312:51|312:51|322:97|296:145|249:157|249:157|249:157|249:157,1,796.049964639436
