osu file format v14

[General]
AudioFilename: audio.mp3
AudioLeadIn: 0
PreviewTime: 82115
Countdown: 0
SampleSet: Soft
StackLeniency: 0.5
Mode: 0
LetterboxInBreaks: 0
WidescreenStoryboard: 1

[Editor]
Bookmarks: 10,21483,51799,52588,61904,72220,73273,83378,103588,113536
DistanceSpacing: 0.8
BeatDivisor: 4
GridSize: 32
TimelineZoom: 2.1

[Metadata]
Title:Far east squall
TitleUnicode:Far east squall
Artist:Nekomata Master+
ArtistUnicode:猫叉Master+
Creator:chaser01
Version:Gorou's Insane
Source:jubeat
Tags:resahc enryotoki aragon wanpachi gorou byakko+ nightbird knit saucer electronic instrumental
BeatmapID:4235827
BeatmapSetID:1971796

[Difficulty]
HPDrainRate:5
CircleSize:4
OverallDifficulty:8
ApproachRate:9
SliderMultiplier:1.65
SliderTickRate:1

[Events]
//Background and Video events
0,0,"c.jpg",0,0
//Break Periods
2,11578,15671
2,16631,18272
2,73473,77640
//Storyboard Layer 0 (Background)
//Storyboard Layer 1 (Fail)
//Storyboard Layer 2 (Pass)
//Storyboard Layer 3 (Foreground)
//Storyboard Layer 4 (Overlay)
//Storyboard Sound Samples

[TimingPoints]
10,315.789473684211,4,2,0,45,1,0
2062,-200,4,2,0,45,0,0
2536,-133.333333333333,4,2,0,45,0,0
4904,-100,4,2,0,45,0,0
5062,-100,4,2,0,50,0,0
7115,-200,4,2,0,50,0,0
7588,-133.333333333333,4,2,0,50,0,0
10115,-100,4,2,0,50,0,0
11378,-100,4,2,0,55,0,0
21483,-111.111111111111,4,2,0,70,0,0
73273,-111.111111111111,4,2,0,60,0,0
78325,-125,4,2,0,60,0,0
80852,-125,4,2,0,65,0,0
82746,-117.647058823529,4,2,0,65,0,0
83378,-100,4,2,0,70,0,1
103588,-400,4,2,0,70,0,0
103667,-400,4,2,0,60,0,0

[Colours]
Combo1 : 139,243,197
Combo2 : 255,248,151
Combo3 : 255,145,148
Combo4 : 113,191,255

[HitObjects]
21,57,10,5,4,3:2:0:0:
111,89,325,1,0,2:0:0:0:
192,58,641,1,2,2:0:0:0:
265,91,957,1,0,2:0:0:0:
350,56,1273,1,2,2:0:0:0:
423,92,1588,1,0,2:0:0:0:
492,57,1904,1,2,2:0:0:0:
434,107,2062,6,0,P|429:178|436:226,1,103.125,4|0,3:0|2:0,2:0:0:0:
314,279,2536,6,0,L|387:269,1,61.8750000000001,4|0,2:0|2:0,2:0:0:0:
260,344,2852,2,0,P|321:379|383:380,2,123.75,0|2|0,2:0|2:0|2:0,2:0:0:0:
184,304,3641,5,8,3:0:0:0:
102,322,3799,2,0,P|100:365|105:401,1,61.8750000000001,2|8,2:0|3:0,2:0:0:0:
190,269,4115,2,0,L|207:140,1,123.75,0|2,2:0|2:0,2:0:0:0:
267,35,4667,5,8,3:0:0:0:
264,21,4746,1,8,3:0:0:0:
113,66,4904,2,0,P|125:76|168:91,1,41.25,4|0,3:0|2:0,2:0:0:0:
288,160,5062,5,0,3:2:0:0:
426,135,5378,1,0,2:0:0:0:
489,197,5694,1,2,2:0:0:0:
380,271,6010,1,0,2:0:0:0:
338,347,6325,1,2,2:0:0:0:
214,214,6641,1,0,2:0:0:0:
259,56,6957,1,2,2:0:0:0:
329,14,7115,6,0,P|344:70|342:119,1,103.125,4|0,3:0|2:0,2:0:0:0:
214,128,7588,6,0,L|138:149,1,61.8750000000001,4|0,2:0|2:0,2:0:0:0:
88,248,7904,2,0,P|61:199|72:134,2,123.75,0|2|0,2:0|2:0|2:0,2:0:0:0:
193,301,8641,5,0,2:0:0:0:
214,301,8746,5,0,2:0:0:0:
230,287,8852,6,0,P|180:296|121:330,1,82.5000000000002,2|0,2:0|2:0,2:0:0:0:
217,375,9167,2,0,L|294:387,1,61.8750000000001,0|8,2:0|3:0,2:0:0:0:
275,213,9483,2,0,L|213:203,1,61.8750000000001,2|0,2:0|2:0,2:0:0:0:
440,274,9799,2,0,B|461:277|461:277|478:267,2,41.2500000000001,8|8|4,3:0|3:0|3:0,2:0:0:0:
369,340,10115,6,0,L|349:217,2,110,4|0|0,2:0|2:0|2:0,2:0:0:0:
156,119,10746,6,0,L|136:241,2,110,0|0|0,2:0|2:0|2:0,2:0:0:0:
251,192,11378,5,4,2:0:0:0:
239,191,16431,5,4,2:0:0:0:
256,192,18957,12,4,21167,3:0:0:0:
158,148,21483,6,0,P|195:143|230:132,1,74.2500000000001,4|0,3:2|2:0,2:0:0:0:
359,216,21799,2,0,B|281:210|293:245|213:223,1,148.5,10|2,2:0|2:0,2:0:0:0:
83,223,22273,6,0,P|101:225|119:230,1,37.125,0|0,3:0|3:0,2:0:0:0:
191,373,22431,2,0,P|172:338|168:282,1,74.2500000000001,10|0,2:0|2:0,2:0:0:0:
257,143,22746,2,0,P|322:92|308:13,2,148.5,0|10|2,3:0|2:0|3:2,2:0:0:0:
130,61,23536,1,2,3:2:0:0:
201,1,23694,1,8,2:0:0:0:
167,150,23852,2,0,P|134:169|82:188,1,74.2500000000001,2|0,2:0|3:0,2:0:0:0:
244,350,24167,5,0,2:0:0:0:
168,244,24325,2,0,P|158:280|154:317,1,74.2500000000001,10|0,2:0|2:0,2:0:0:0:
357,339,24641,2,0,P|366:303|370:266,1,74.2500000000001,0|0,2:0|3:0,2:0:0:0:
253,190,24957,2,0,L|275:285,1,74.2500000000001,10|0,2:0|2:0,2:0:0:0:
460,114,25273,2,0,P|409:114|339:185,1,148.5,0|10,3:0|2:0,2:0:0:0:
253,190,25746,1,2,2:0:0:0:
372,344,25904,5,2,2:0:0:0:
304,261,26062,1,2,3:2:0:0:
307,271,26141,1,0,3:0:0:0:
309,281,26220,1,8,2:0:0:0:
413,242,26378,1,2,2:0:0:0:
285,366,26536,6,0,P|241:373|187:361,1,74.2500000000001,4|0,3:2|2:0,2:0:0:0:
13,240,26852,2,0,P|57:233|111:245,1,74.2500000000001,10|0,2:0|2:0,2:0:0:0:
178,287,27167,2,0,L|142:130,1,148.5,2|10,2:0|2:0,2:0:0:0:
226,8,27641,1,0,2:0:0:0:
352,93,27799,6,0,P|315:86|283:68,1,74.2500000000001,0|0,3:0|2:0,2:0:0:0:
82,73,28115,2,0,L|160:55,1,74.2500000000001,10|0,2:0|2:0,2:0:0:0:
275,209,28431,5,2,3:2:0:0:
139,141,28588,1,2,3:2:0:0:
148,292,28746,1,8,2:0:0:0:
187,215,28904,1,2,2:0:0:0:
67,277,29062,6,0,P|70:316|89:365,1,74.2500000000001,2|0,3:2|2:0,2:0:0:0:
288,281,29378,2,0,P|285:242|266:193,1,74.2500000000001,10|0,2:0|2:0,2:0:0:0:
169,377,29694,5,2,2:0:0:0:
353,333,29852,2,0,P|337:343|325:357,1,37.125,0|0,3:0|3:0,2:0:0:0:
187,215,30010,2,0,P|239:126|294:124,1,148.5,10|0,2:0|3:0,2:0:0:0:
359,170,30483,5,2,2:0:0:0:
428,58,30641,2,0,P|432:94|440:131,1,74.2500000000001,8|2,2:0|2:0,2:0:0:0:
293,318,30957,2,0,P|286:262|274:208,1,111.375,0|8,2:0|3:0,2:0:0:0:
187,215,31273,6,0,L|128:205,1,37.125,8|0,2:0|2:0,2:0:0:0:
275,120,31431,2,0,L|216:130,1,37.125,8|0,2:0|2:0,2:0:0:0:
368,256,31588,6,0,B|451:252|435:297|525:259,1,148.5,6|8,3:2|2:0,2:0:0:0:
483,119,32062,1,2,2:0:0:0:
483,119,32141,1,0,2:0:0:0:
483,118,32220,2,0,P|472:153|467:199,1,74.2500000000001,2|0,2:0|3:0,2:0:0:0:
277,271,32536,2,0,P|287:235|292:189,1,74.2500000000001,8|2,2:0|2:0,2:0:0:0:
220,37,32852,6,0,P|280:76|364:57,1,148.5,2|8,3:2|2:0,2:0:0:0:
195,151,33325,1,2,2:0:0:0:
131,32,33483,2,0,P|120:67|115:113,1,74.2500000000001,2|0,3:2|3:0,2:0:0:0:
188,246,33799,1,8,2:0:0:0:
74,314,33957,5,2,2:0:0:0:
74,314,34036,1,0,2:0:0:0:
74,314,34115,2,0,B|158:313|127:355|232:330,1,148.5,4|8,3:0|2:0,2:0:0:0:
303,186,34588,5,2,2:0:0:0:
415,247,34746,2,0,B|331:246|362:288|257:263,1,148.5,2|8,2:0|2:0,2:0:0:0:
171,148,35220,1,0,2:0:0:0:
328,109,35378,6,0,P|344:72|348:22,1,74.2500000000001,0|0,3:0|2:0,2:0:0:0:
343,19,35615,1,0,2:0:0:0:
327,8,35694,2,0,L|269:-5,2,37.125,8|0|0,2:0|2:0|2:0,2:0:0:0:
442,159,36010,2,0,P|392:167|323:244,1,148.5,2|8,3:2|2:0,2:0:0:0:
208,353,36483,6,0,P|230:366|260:369,1,37.125,0|0,3:0|3:0,2:0:0:0:
409,263,36641,2,0,L|237:293,1,148.5,6|8,3:2|2:0,2:0:0:0:
137,123,37115,1,2,2:0:0:0:
58,149,37273,2,0,L|230:179,1,148.5,2|8,2:0|2:0,2:0:0:0:
354,77,37746,1,0,2:0:0:0:
292,18,37904,6,0,P|245:31|222:106,1,111.375,0|0,3:0|2:0,2:0:0:0:
218,84,38220,1,8,2:0:0:0:
298,200,38378,1,0,2:0:0:0:
240,337,38536,2,0,P|230:294|232:254,1,74.2500000000001,2|0,3:2|3:0,2:0:0:0:
376,161,38852,1,8,2:0:0:0:
470,239,39010,6,0,P|452:234|436:224,1,37.125,0|0,2:0|2:0,2:0:0:0:
298,200,39167,2,0,P|295:125|381:77,1,148.5,4|8,3:0|2:0,2:0:0:0:
336,0,39588,6,0,P|314:12|290:19,1,49.5000000000001,0|0,2:0|2:0,2:0:0:0:
208,120,39799,2,0,P|154:71|159:0,2,148.5,2|8|0,2:0|2:0|3:0,2:0:0:0:
323,287,40588,5,0,2:0:0:0:
323,287,40667,1,0,2:0:0:0:
323,287,40746,2,0,P|279:279|219:280,1,74.2500000000001,8|0,2:0|2:0,2:0:0:0:
75,176,41062,1,0,3:0:0:0:
75,176,41141,1,0,2:0:0:0:
75,176,41220,2,0,P|119:184|179:183,1,74.2500000000001,0|8,3:0|2:0,2:0:0:0:
265,52,41536,2,0,P|261:70|260:88,1,37.125,0|0,2:0|2:0,2:0:0:0:
298,200,41694,6,0,P|352:151|347:80,1,148.5,6|8,3:2|2:0,2:0:0:0:
223,161,42167,1,2,2:0:0:0:
323,287,42325,2,0,B|413:287|386:334|479:309,1,148.5,2|8,2:0|2:0,2:0:0:0:
298,200,42799,1,2,2:0:0:0:
154,299,42957,6,0,L|-13:261,1,148.5,2|8,3:2|2:0,2:0:0:0:
223,248,43431,1,2,2:0:0:0:
112,131,43588,2,0,P|101:180|104:230,1,74.2500000000001,2|0,3:2|3:0,2:0:0:0:
154,299,43904,1,8,2:0:0:0:
298,200,44062,6,0,P|284:186|269:176,1,37.125,2|0,2:0|2:0,2:0:0:0:
168,64,44220,2,0,B|258:64|231:111|324:86,1,148.5,4|8,3:0|2:0,2:0:0:0:
461,226,44694,1,2,2:0:0:0:
512,131,44852,2,0,B|422:131|449:178|356:153,1,148.5,2|8,2:0|2:0,2:0:0:0:
223,248,45325,1,0,2:0:0:0:
351,355,45483,5,0,3:0:0:0:
298,200,45641,2,0,P|255:265|287:351,1,148.5,8|0,2:0|3:0,2:0:0:0:
456,309,46115,2,0,P|431:304|400:291,3,37.125,0|0|0|0,3:0|2:0|2:0|2:0,2:0:0:0:
376,228,46431,2,0,P|399:221|423:217,2,49.5000000000001,0|8|8,3:0|3:0|3:0,2:0:0:0:
268,330,46746,5,0,3:0:0:0:
221,159,46904,2,0,L|215:136,9,24.75,4|0|0|0|0|0|0|0|0|8,2:0|2:0|2:0|2:0|2:0|2:0|2:0|2:0|2:0|3:0,2:0:0:0:
209,117,47457,1,8,3:0:0:0:
204,101,47536,1,8,3:0:0:0:
365,73,47694,2,0,P|322:86|279:132,1,74.2500000000001,12|0,2:0|2:0,2:0:0:0:
162,228,48010,6,0,P|90:230|46:173,1,148.5,0|8,3:0|2:0,2:0:0:0:
204,101,48483,1,0,2:0:0:0:
112,16,48641,2,0,P|104:52|104:89,1,74.2500000000001,2|0,3:2|3:0,2:0:0:0:
255,274,48957,2,0,P|262:237|262:200,1,74.2500000000001,8|0,2:0|2:0,2:0:0:0:
310,53,49273,5,4,3:0:0:0:
412,191,49431,1,0,2:0:0:0:
508,70,49588,2,0,P|432:69|367:123,1,148.5,8|2,2:0|2:0,2:0:0:0:
350,255,50062,1,0,3:0:0:0:
350,255,50141,1,0,3:0:0:0:
350,255,50220,1,8,2:0:0:0:
447,353,50378,2,0,P|447:315|439:279,1,74.2500000000001,0|0,2:0|3:0,2:0:0:0:
302,168,50694,5,0,2:0:0:0:
285,172,50773,1,0,2:0:0:0:
268,176,50852,2,0,L|200:191,1,37.125,8|0,2:0|2:0,2:0:0:0:
50,276,51010,2,0,L|86:283,1,37.125,0|0,2:0|2:0,2:0:0:0:
173,323,51167,5,0,3:0:0:0:
169,304,51246,1,0,2:0:0:0:
168,286,51325,1,0,3:0:0:0:
169,267,51404,1,0,2:0:0:0:
173,249,51483,2,0,L|158:181,1,37.125,8|8,2:0|2:0,2:0:0:0:
80,98,51641,2,0,L|95:30,1,37.125,8|0,2:0|2:0,2:0:0:0:
150,12,51799,5,6,3:2:0:0:
81,182,51957,2,0,P|31:197|-12:199,1,74.2500000000001,0|2,2:0|2:0,2:0:0:0:
231,22,52273,2,0,P|291:25|335:112,1,148.5,6|8,3:2|3:0,2:0:0:0:
265,150,52746,1,8,3:0:0:0:
395,201,52904,5,0,3:0:0:0:
395,201,52983,1,0,3:0:0:0:
395,201,53062,2,0,P|349:206|311:222,1,74.2500000000001,0|2,3:0|2:0,2:0:0:0:
121,116,53378,2,0,P|167:111|205:95,1,74.2500000000001,8|0,2:0|2:0,2:0:0:0:
395,201,53694,2,0,P|349:206|311:222,1,74.2500000000001,0|8,3:0|2:0,2:0:0:0:
179,333,54010,2,0,P|184:315|186:296,1,37.125,2|0,2:0|2:0,2:0:0:0:
242,235,54167,5,8,3:0:0:0:
242,235,54246,1,8,3:0:0:0:
242,235,54325,1,6,3:2:0:0:
86,189,54483,2,0,P|49:191|14:203,1,74.2500000000001,0|2,2:0|2:0,2:0:0:0:
266,146,54799,2,0,B|289:71|246:84|255:-7,1,148.5,6|4,3:2|3:0,2:0:0:0:
158,110,55273,1,8,3:0:0:0:
242,235,55431,5,0,3:0:0:0:
242,235,55510,1,0,3:0:0:0:
242,235,55588,2,0,P|287:225|342:217,1,74.2500000000001,0|2,3:0|2:0,2:0:0:0:
470,69,55904,2,0,P|425:79|370:87,1,74.2500000000001,8|0,2:0|2:0,2:0:0:0:
266,146,56220,5,0,3:0:0:0:
409,244,56378,1,8,2:0:0:0:
453,157,56536,5,2,2:0:0:0:
314,220,56694,2,0,P|309:239|308:263,1,37.125,8|8,3:0|3:0,2:0:0:0:
363,324,56852,5,6,3:2:0:0:
208,373,57010,2,0,P|248:347|299:341,1,74.2500000000001,0|2,2:0|2:0,2:0:0:0:
97,194,57325,2,0,P|174:217|226:276,1,148.5,6|8,3:2|3:0,2:0:0:0:
59,273,57799,1,8,3:0:0:0:
26,156,57957,5,0,3:0:0:0:
26,156,58036,1,0,3:0:0:0:
26,156,58115,2,0,P|17:115|18:74,1,74.2500000000001,0|2,3:0|2:0,2:0:0:0:
156,231,58431,2,0,P|165:272|164:313,1,74.2500000000001,8|0,2:0|2:0,2:0:0:0:
26,156,58746,2,0,P|17:115|18:74,1,74.2500000000001,0|8,3:0|2:0,2:0:0:0:
241,49,59062,2,0,P|219:65|183:85,1,37.125,2|0,2:0|2:0,2:0:0:0:
124,116,59220,5,8,3:0:0:0:
124,116,59299,1,8,3:0:0:0:
124,116,59378,1,6,3:2:0:0:
283,134,59536,2,0,L|380:117,1,74.2500000000001,0|2,2:0|2:0,2:0:0:0:
199,228,59852,2,0,P|278:225|355:280,1,148.5,6|4,3:2|3:0,2:0:0:0:
499,323,60325,1,8,3:0:0:0:
398,384,60483,5,0,3:0:0:0:
398,384,60562,1,0,3:0:0:0:
398,384,60641,2,0,P|399:341|408:308,1,74.2500000000001,0|2,3:0|2:0,2:0:0:0:
283,134,60957,2,0,P|282:177|273:210,1,74.2500000000001,8|0,2:0|2:0,2:0:0:0:
470,242,61273,1,0,3:0:0:0:
374,182,61431,1,8,2:0:0:0:
471,128,61588,5,2,2:0:0:0:
371,288,61746,2,0,L|358:358,1,37.125,8|8,3:0|3:0,2:0:0:0:
289,286,61904,6,0,P|241:302|199:305,1,74.2500000000001,6|0,3:2|2:0,2:0:0:0:
197,295,62141,1,0,2:0:0:0:
180,284,62220,2,0,L|118:296,1,37.125,0|0,2:0|2:0,2:0:0:0:
73,308,62378,1,6,3:2:0:0:
404,192,63799,5,4,3:0:0:0:
296,246,63957,2,0,P|301:209|315:175,1,74.2500000000001,2|0,2:0|3:0,2:0:0:0:
382,277,64273,1,2,2:0:0:0:
289,98,64431,6,0,P|241:82|199:79,1,74.2500000000001,6|0,3:2|2:0,2:0:0:0:
197,89,64667,1,0,2:0:0:0:
180,100,64746,2,0,L|118:88,1,37.125,0|0,2:0|2:0,2:0:0:0:
73,76,64904,1,6,3:2:0:0:
404,192,66010,6,0,L|441:192,4,24.75,0|0|0|0|0,2:0|2:0|2:0|2:0|2:0,2:0:0:0:
328,175,66325,1,4,3:0:0:0:
310,181,66404,1,0,3:0:0:0:
292,186,66483,1,0,3:0:0:0:
274,190,66562,1,0,3:0:0:0:
256,192,66641,2,0,P|231:194|207:202,2,49.5000000000001,8|8|8,3:0|3:0|3:0,2:0:0:0:
246,275,66957,6,0,P|190:291|126:381,1,148.5,6|8,3:2|3:0,2:0:0:0:
6,175,67431,2,0,P|61:222|134:232,1,148.5,6|0,3:2|2:0,2:0:0:0:
273,107,67904,2,0,L|259:36,2,49.5000000000001,8|8|8,3:0|3:0|3:0,2:0:0:0:
201,170,68220,5,4,3:0:0:0:
362,67,68431,5,8,3:0:0:0:
370,257,68641,5,0,3:0:0:0:
310,173,68852,6,0,P|292:220|302:298,1,99.0000000000001,0|8,3:0|2:0,2:0:0:0:
375,350,69167,2,0,P|360:342|326:330,1,37.125,8|8,3:0|3:0,2:0:0:0:
218,291,69325,1,8,3:0:0:0:
218,291,69404,1,8,3:0:0:0:
218,291,69483,1,6,3:2:0:0:
139,376,69641,6,0,P|156:369|172:360,1,37.125,0|0,2:0|2:0,2:0:0:0:
213,202,69799,2,0,P|206:184|197:168,1,37.125,8|0,2:0|2:0,2:0:0:0:
145,240,69957,6,0,B|66:238|80:284|-31:245,1,148.5,6|0,3:2|3:0,2:0:0:0:
7,240,70352,1,0,2:0:0:0:
0,226,70431,1,8,3:0:0:0:
112,54,70588,2,0,P|104:79|98:117,1,37.125,8|8,3:0|3:0,2:0:0:0:
197,168,70746,2,0,L|177:69,1,74.2500000000001,0|0,3:0|2:0,2:0:0:0:
305,56,70983,2,0,B|285:66|285:66|270:90|268:114,1,74.2500000000001,0|0,2:0|2:0,2:0:0:0:
333,168,71220,2,0,B|368:176|368:176|404:168|404:168|440:176,2,111.375,0|0|0,2:0|2:0|3:0,2:0:0:0:
277,226,71773,5,0,3:0:0:0:
277,226,71852,1,0,3:0:0:0:
277,226,71931,1,0,3:0:0:0:
277,226,72010,2,0,P|281:286|276:342,2,99.0000000000001,6|0|0,3:2|3:0|3:0,2:0:0:0:
402,254,72641,5,2,3:2:0:0:
285,345,72852,1,0,3:0:0:0:
159,275,73062,1,0,2:0:0:0:
291,361,73273,5,6,3:2:0:0:
47,334,78325,6,0,P|115:334|185:276,1,132,6|8,3:2|2:0,2:0:0:0:
263,366,78799,2,0,P|284:301|250:216,1,132,8|0,3:0|3:0,2:0:0:0:
98,196,79273,2,0,P|119:260|195:309,2,132,10|0|8,2:0|3:0|2:0,2:0:0:0:
279,114,80062,1,0,3:0:0:0:
155,80,80220,5,2,3:2:0:0:
234,183,80378,2,0,L|250:229,1,33,0|0,2:0|2:0,2:0:0:0:
331,213,80536,5,10,2:0:0:0:
325,228,80615,1,8,2:0:0:0:
320,244,80694,1,8,2:0:0:0:
314,259,80773,1,8,2:0:0:0:
309,275,80852,6,0,B|377:273|367:308|450:288,1,132,6|8,3:2|3:0,2:0:0:0:
202,109,81325,2,0,B|270:107|260:142|343:122,1,132,6|8,3:2|3:0,2:0:0:0:
88,237,81799,2,0,B|156:239|146:204|229:224,2,132,6|8|8,3:2|3:0|3:0,2:0:0:0:
69,232,82510,1,0,2:0:0:0:
54,223,82588,1,0,2:0:0:0:
185,303,82746,6,0,P|195:349|194:390,1,70.1250000000003,8|0,3:0|2:0,2:0:0:0:
19,131,83062,1,8,3:0:0:0:
13,114,83141,1,8,2:0:0:0:
10,97,83220,1,8,2:0:0:0:
8,79,83299,1,8,2:0:0:0:
8,62,83378,6,0,L|198:92,1,165,6|10,3:2|2:0,2:0:0:0:
274,136,83852,1,4,3:2:0:0:
376,80,84010,2,0,P|391:22|390:-30,1,82.5,2|10,2:0|2:0,2:0:0:0:
257,160,84325,2,0,P|249:259|292:331,2,165,6|0|8,3:2|2:0|3:0,2:0:0:0:
353,227,85115,5,2,2:0:0:0:
462,204,85273,2,0,L|444:301,1,82.5,8|2,3:0|2:0,2:0:0:0:
386,120,85588,2,0,L|401:38,1,82.5,8|8,3:0|3:0,2:0:0:0:
257,160,85904,6,0,B|193:159|205:187|125:173,1,123.75,6|0,3:2|2:0,2:0:0:0:
116,162,86220,1,10,2:0:0:0:
245,241,86378,6,0,P|204:247|164:260,1,82.5,4|2,3:2|2:0,2:0:0:0:
99,149,86694,1,10,2:0:0:0:
240,75,86852,6,0,P|158:60|80:36,2,165,6|0|0,3:2|2:0|3:0,2:0:0:0:
382,175,87641,5,2,3:2:0:0:
463,130,87799,2,0,L|452:34,1,82.5,0|10,3:0|2:0,2:0:0:0:
300,147,88115,1,8,3:0:0:0:
300,147,88194,1,8,3:0:0:0:
300,147,88273,2,0,L|294:195,1,41.25,8|8,3:0|3:0,2:0:0:0:
351,254,88431,6,0,P|266:233|197:274,1,165,6|8,3:2|2:0,2:0:0:0:
383,349,88904,2,0,P|418:330|486:314,1,82.5,6|0,3:2|2:0,2:0:0:0:
435,237,89220,1,8,2:0:0:0:
285,331,89378,2,0,B|200:328|221:374|114:348,1,165,6|8,3:2|3:0,2:0:0:0:
193,262,89852,5,0,2:0:0:0:
59,213,90010,2,0,P|47:267|57:320,1,82.5,10|0,2:0|2:0,2:0:0:0:
185,171,90325,5,2,2:0:0:0:
144,47,90483,1,8,2:0:0:0:
32,116,90641,2,0,P|86:128|139:118,1,82.5,10|8,2:0|3:0,2:0:0:0:
309,26,90957,6,0,P|255:14|202:24,1,82.5,6|4,3:2|3:0,2:0:0:0:
358,152,91273,1,10,2:0:0:0:
358,152,91352,1,0,2:0:0:0:
358,152,91431,1,6,3:2:0:0:
450,93,91588,2,0,P|451:134|440:173,1,82.5,4|10,3:0|2:0,2:0:0:0:
331,236,91904,1,6,3:2:0:0:
259,106,92062,1,4,3:0:0:0:
413,249,92220,6,0,L|473:263,2,41.25,0|0|4,2:0|2:0|3:0,2:0:0:0:
183,317,92536,2,0,L|264:299,1,82.5,10|4,2:0|3:0,2:0:0:0:
118,182,92852,2,0,L|198:200,1,82.5,2|10,2:0|2:0,2:0:0:0:
342,61,93167,1,8,2:0:0:0:
349,80,93246,1,0,2:0:0:0:
353,100,93325,1,8,3:0:0:0:
354,121,93404,1,8,3:0:0:0:
352,141,93483,6,0,P|272:110|267:20,2,165,6|10|2,3:2|2:0|2:0,2:0:0:0:
434,272,94273,1,10,2:0:0:0:
512,227,94431,2,0,B|417:219|454:271|342:230,1,165,6|0,3:2|2:0,2:0:0:0:
177,304,94904,5,8,3:0:0:0:
177,304,94983,1,8,3:0:0:0:
177,304,95062,1,8,3:0:0:0:
352,330,95220,1,2,2:0:0:0:
264,280,95378,6,0,P|254:234|257:182,1,82.5,8|2,3:0|2:0,2:0:0:0:
391,73,95694,2,0,P|401:119|398:171,1,82.5,8|8,3:0|3:0,2:0:0:0:
199,137,96010,6,0,L|50:112,1,123.75,6|0,3:2|2:0,2:0:0:0:
60,113,96325,1,10,2:0:0:0:
236,26,96483,6,0,P|191:45|137:53,1,82.5,4|2,3:2|2:0,2:0:0:0:
39,111,96799,1,10,2:0:0:0:
306,205,96957,6,0,P|225:215|168:273,2,165,6|0|4,3:2|2:0|3:0,2:0:0:0:
452,252,97746,1,0,2:0:0:0:
384,351,97904,2,0,P|367:313|366:270,1,82.5,4|0,3:0|2:0,2:0:0:0:
512,151,98220,1,4,3:0:0:0:
512,151,98299,1,8,2:0:0:0:
512,151,98378,2,0,P|493:162|450:177,1,41.25,8|8,2:0|2:0,2:0:0:0:
392,190,98536,6,0,P|379:127|388:19,1,165,6|8,3:2|2:0,2:0:0:0:
214,80,99010,2,0,P|265:93|306:133,1,82.5,6|0,3:2|2:0,2:0:0:0:
306,203,99325,1,8,2:0:0:0:
65,220,99483,2,0,B|160:226|121:181|218:172,1,165,6|8,3:2|3:0,2:0:0:0:
358,278,99957,5,0,2:0:0:0:
255,364,100115,2,0,P|261:311|275:267,1,82.5,10|0,2:0|2:0,2:0:0:0:
140,86,100431,2,0,P|134:139|120:183,1,82.5,2|8,2:0|2:0,2:0:0:0:
306,203,100746,5,10,2:0:0:0:
427,81,100904,1,8,3:0:0:0:
260,36,101062,6,0,P|262:77|282:115,1,82.5,6|4,3:2|3:0,2:0:0:0:
435,204,101378,1,10,2:0:0:0:
435,204,101457,1,0,2:0:0:0:
435,204,101536,1,6,3:2:0:0:
346,345,101694,6,0,P|348:303|368:265,1,82.5,4|10,3:0|2:0,2:0:0:0:
218,183,102010,1,6,3:2:0:0:
369,137,102167,1,4,3:0:0:0:
223,293,102325,6,0,L|264:284,2,41.25,0|0|4,2:0|2:0|3:0,2:0:0:0:
430,199,102641,2,0,L|515:217,1,82.5,10|4,2:0|3:0,2:0:0:0:
312,75,102957,2,0,L|231:57,1,82.5,2|10,2:0|2:0,2:0:0:0:
32,192,103273,5,8,2:0:0:0:
128,224,103431,1,8,3:0:0:0:
224,192,103588,2,0,P|218:287|227:369,1,165,6|0,3:2|2:0,2:0:0:0:
