osu file format v14

[General]
AudioFilename: audio.mp3
AudioLeadIn: 0
PreviewTime: 82115
Countdown: 0
SampleSet: Soft
StackLeniency: 0.7
Mode: 0
LetterboxInBreaks: 0
WidescreenStoryboard: 0

[Editor]
Bookmarks: 10,21483,51799,61904,72220,73273,83378,103588,113536
DistanceSpacing: 0.6
BeatDivisor: 4
GridSize: 4
TimelineZoom: 1.2

[Metadata]
Title:Far east squall
TitleUnicode:Far east squall
Artist:Nekomata Master+
ArtistUnicode:猫叉Master+
Creator:chaser01
Version:Extra
Source:jubeat
Tags:resahc enryotoki aragon wanpachi gorou byakko+ nightbird knit saucer electronic instrumental
BeatmapID:4091400
BeatmapSetID:1971796

[Difficulty]
HPDrainRate:6
CircleSize:4
OverallDifficulty:9
ApproachRate:9
SliderMultiplier:2.08
SliderTickRate:1

[Events]
//Background and Video events
0,0,"c.jpg",0,0
//Break Periods
//Storyboard Layer 0 (Background)
//Storyboard Layer 1 (Fail)
//Storyboard Layer 2 (Pass)
//Storyboard Layer 3 (Foreground)
//Storyboard Layer 4 (Overlay)
//Storyboard Sound Samples

[TimingPoints]
10,315.789473684211,4,2,0,45,1,0
2062,-200,4,2,0,45,0,0
5062,-200,4,2,0,50,0,0
7115,-153.846153846154,4,2,0,50,0,0
11378,-153.846153846154,4,2,0,55,0,0
21167,-90.9090909090909,4,2,0,55,0,0
21483,-117.647058823529,4,2,0,70,0,0
31115,-90.9090909090909,4,2,0,70,0,0
32220,-117.647058823529,4,2,0,70,0,0
52273,-100,4,2,0,70,0,0
72115,-100,4,2,0,5,0,0
72220,-100,4,2,0,70,0,0
72325,-100,4,2,0,5,0,0
72431,-100,4,2,0,70,0,0
72536,-100,4,2,0,5,0,0
72641,-100,4,2,0,70,0,0
73273,-100,4,2,0,60,0,0
80852,-100,4,2,0,65,0,0
83378,-100,4,2,0,70,0,1
103588,-100,4,2,0,70,0,0

[Colours]
Combo1 : 139,243,197
Combo2 : 255,248,151
Combo3 : 255,145,148
Combo4 : 113,191,255

[HitObjects]
222,181,10,5,4,3:2:0:0:
289,202,167,1,0,2:0:0:0:
217,186,325,1,0,2:0:0:0:
294,197,483,1,8,3:0:0:0:
213,193,641,1,2,2:0:0:0:
298,190,799,1,8,3:0:0:0:
210,202,957,1,0,2:0:0:0:
301,181,1115,1,8,3:0:0:0:
208,211,1273,1,2,2:0:0:0:
303,172,1431,1,8,3:0:0:0:
208,222,1588,1,0,2:0:0:0:
303,161,1746,1,8,3:0:0:0:
212,232,1904,1,2,2:0:0:0:
300,152,2062,2,0,B|257:145|257:145|218:97|146:105,1,156,4|4,3:0|2:0,2:0:0:0:
19,264,2694,5,0,2:0:0:0:
94,270,2852,1,0,2:0:0:0:
167,278,3010,1,8,3:0:0:0:
138,209,3167,1,2,2:0:0:0:
94,270,3325,1,8,3:0:0:0:
124,337,3483,1,0,2:0:0:0:
167,278,3641,1,8,3:0:0:0:
53,328,3799,1,2,2:0:0:0:
196,342,3957,1,8,3:0:0:0:
211,218,4115,1,0,2:0:0:0:
243,284,4273,1,8,3:0:0:0:
266,351,4431,2,0,L|333:359,1,52,2|8,2:0|3:0,2:0:0:0:
357,344,4667,1,8,3:0:0:0:
394,326,4746,1,8,3:0:0:0:
441,208,4904,2,0,L|462:205,2,13,4|0|0,3:0|2:0|2:0,2:0:0:0:
295,179,5062,5,0,3:2:0:0:
216,204,5220,1,8,3:0:0:0:
300,186,5378,1,0,2:0:0:0:
211,197,5536,1,8,3:0:0:0:
305,194,5694,1,2,2:0:0:0:
206,189,5852,1,8,3:0:0:0:
309,203,6010,1,0,2:0:0:0:
202,180,6167,1,8,3:0:0:0:
311,215,6325,1,2,2:0:0:0:
200,168,6483,1,8,3:0:0:0:
312,227,6641,1,0,2:0:0:0:
199,156,6799,1,8,3:0:0:0:
307,238,6957,1,2,2:0:0:0:
204,145,7115,2,0,B|250:103|250:103|333:87|395:126,1,202.8,4|4,3:0|2:0,2:0:0:0:
482,269,7746,5,0,2:0:0:0:
395,278,7904,1,0,2:0:0:0:
305,290,8062,1,8,3:0:0:0:
222,333,8220,1,2,2:0:0:0:
298,376,8378,1,8,3:0:0:0:
228,241,8536,1,0,2:0:0:0:
147,281,8694,1,8,3:0:0:0:
314,211,8852,1,2,2:0:0:0:
156,185,9010,1,8,3:0:0:0:
249,154,9167,1,0,2:0:0:0:
182,99,9325,1,8,3:0:0:0:
228,241,9483,2,0,L|256:328,1,90.1333333333332,2|8,2:0|3:0,2:0:0:0:
353,343,9799,2,0,P|409:335|432:323,1,45.0666666666666,8|8,3:0|3:0,2:0:0:0:
484,290,10010,2,0,P|509:255|514:225,1,45.0666666666666,4|4,3:0|2:0,2:0:0:0:
509,253,11378,6,0,P|461:186|339:207,1,202.8,4|0,2:0|2:0,2:0:0:0:
418,260,12010,1,0,2:0:0:0:
439,137,12325,1,2,2:0:0:0:
333,76,12641,1,0,2:0:0:0:
250,165,12957,1,0,2:0:0:0:
289,271,13273,5,2,2:0:0:0:
351,184,13431,1,0,2:0:0:0:
250,165,13588,1,2,2:0:0:0:
289,271,13746,1,0,2:0:0:0:
183,313,13904,6,0,P|107:318|46:205,1,202.8,2|8,2:0|3:0,2:0:0:0:
139,231,14536,1,0,2:0:0:0:
206,328,14852,1,2,2:0:0:0:
324,352,15167,1,0,2:0:0:0:
435,302,15483,1,0,2:0:0:0:
475,187,15799,5,2,2:0:0:0:
435,302,15957,1,0,2:0:0:0:
328,218,16115,5,2,2:0:0:0:
368,103,16273,1,0,2:0:0:0:
240,39,16431,6,0,B|185:28|144:49|144:49|110:104|45:102,1,202.8,4|8,2:0|3:0,2:0:0:0:
67,20,17062,1,0,2:0:0:0:
162,90,17378,1,2,2:0:0:0:
63,161,17694,1,0,2:0:0:0:
176,205,18010,1,0,2:0:0:0:
92,297,18325,5,2,2:0:0:0:
222,269,18483,1,0,2:0:0:0:
138,358,18641,1,2,2:0:0:0:
269,331,18799,1,0,2:0:0:0:
337,218,18957,5,2,2:0:0:0:
249,134,19273,1,0,2:0:0:0:
213,249,19588,1,0,2:0:0:0:
337,218,19904,1,2,2:0:0:0:
249,134,20220,5,0,3:0:0:0:
213,249,20431,1,0,3:0:0:0:
337,218,20641,1,0,3:0:0:0:
249,134,20852,1,8,3:0:0:0:
249,134,21167,2,0,L|100:127,1,114.4,4|0,3:0|3:0,2:0:0:0:
62,155,21404,1,0,3:0:0:0:
47,230,21483,6,0,P|47:284|86:341,1,88.4000000000003,4|0,3:2|2:0,2:0:0:0:
420,246,21799,2,0,P|420:192|381:135,1,88.4000000000003,10|0,2:0|2:0,2:0:0:0:
124,267,22115,2,0,P|177:283|227:276,1,88.4000000000003,2|0,2:0|3:0,2:0:0:0:
291,237,22352,1,0,3:0:0:0:
291,237,22431,1,10,2:0:0:0:
214,193,22588,1,0,2:0:0:0:
209,280,22746,2,0,L|222:373,1,88.4000000000003,0|0,3:0|2:0,2:0:0:0:
390,283,23062,2,0,L|377:190,1,88.4000000000003,10|0,2:0|2:0,2:0:0:0:
431,19,23378,5,2,3:2:0:0:
187,73,23536,1,2,3:2:0:0:
375,96,23694,1,8,2:0:0:0:
127,152,23852,1,2,2:0:0:0:
273,196,24010,5,0,3:0:0:0:
283,288,24167,1,0,2:0:0:0:
210,336,24325,2,0,P|156:351|94:340,1,88.4000000000003,10|0,2:0|2:0,2:0:0:0:
356,239,24641,2,0,P|410:224|472:235,1,88.4000000000003,0|0,2:0|3:0,2:0:0:0:
503,282,24878,1,0,3:0:0:0:
503,282,24957,1,10,2:0:0:0:
408,325,25115,1,0,2:0:0:0:
356,239,25273,2,0,L|350:144,1,88.4000000000003,0|0,3:0|2:0,2:0:0:0:
151,212,25588,2,0,L|157:307,1,88.4000000000003,10|2,2:0|2:0,2:0:0:0:
350,150,25904,5,2,2:0:0:0:
175,63,26062,2,0,L|130:52,2,29.4666666666668,2|0|0,3:2|2:0|2:0,2:0:0:0:
272,35,26220,1,8,2:0:0:0:
54,108,26378,1,2,2:0:0:0:
354,59,26536,6,0,P|301:33|247:46,1,88.4000000000003,4|0,3:2|2:0,2:0:0:0:
54,108,26852,2,0,P|41:165|64:215,1,88.4000000000003,10|0,2:0|2:0,2:0:0:0:
125,311,27088,1,0,2:0:0:0:
149,285,27167,2,0,L|239:289,1,88.4000000000003,2|0,2:0|3:0,2:0:0:0:
313,365,27404,1,0,3:0:0:0:
344,343,27483,2,0,L|434:347,1,88.4000000000003,10|0,2:0|2:0,2:0:0:0:
504,199,27799,5,0,3:0:0:0:
425,141,27957,1,0,2:0:0:0:
329,137,28115,1,10,2:0:0:0:
251,192,28273,1,0,2:0:0:0:
425,141,28431,5,2,3:2:0:0:
226,102,28588,1,2,3:2:0:0:
337,229,28746,1,8,2:0:0:0:
298,40,28904,1,2,2:0:0:0:
70,170,29062,6,0,L|159:166,1,88.4000000000003,2|0,3:2|2:0,2:0:0:0:
425,224,29378,2,0,L|337:229,1,88.4000000000003,10|0,2:0|2:0,2:0:0:0:
79,331,29694,2,0,L|168:327,1,88.4000000000003,2|0,2:0|3:0,2:0:0:0:
185,342,29931,1,0,3:0:0:0:
199,355,30010,5,10,2:0:0:0:
256,264,30167,1,0,2:0:0:0:
278,156,30325,1,0,3:0:0:0:
275,47,30483,1,2,2:0:0:0:
139,201,30641,5,8,2:0:0:0:
359,231,30799,1,2,2:0:0:0:
275,47,30957,1,0,2:0:0:0:
113,94,31115,6,0,L|169:104,1,57.2,10|8,3:2|3:0,2:0:0:0:
471,154,31273,2,0,L|442:149,8,28.6,8|0|0|0|8|0|0|0|6,2:0|2:0|2:0|2:0|2:0|2:0|2:0|2:0|3:2,2:0:0:0:
471,154,31904,5,8,2:0:0:0:
379,318,32062,1,2,2:0:0:0:
152,343,32220,2,0,P|74:332|31:310,1,88.4000000000003,2|0,2:0|3:0,2:0:0:0:
36,297,32457,1,0,3:0:0:0:
22,281,32536,5,8,2:0:0:0:
157,243,32694,1,2,2:0:0:0:
261,196,32852,2,0,P|337:175|377:148,1,88.4000000000003,2|0,3:2|2:0,2:0:0:0:
371,134,33088,1,0,3:0:0:0:
383,115,33167,5,8,2:0:0:0:
292,101,33325,1,2,2:0:0:0:
206,74,33483,2,0,P|132:44|96:12,1,88.4000000000003,2|0,3:2|3:0,2:0:0:0:
371,134,33799,2,0,P|444:149|483:148,1,88.4000000000003,8|2,2:0|2:0,2:0:0:0:
512,227,34036,1,0,3:0:0:0:
512,227,34115,5,4,3:0:0:0:
310,183,34273,1,0,2:0:0:0:
375,259,34431,5,8,2:0:0:0:
151,202,34588,1,2,2:0:0:0:
95,297,34746,6,0,P|37:296|6:278,1,88.4000000000003,2|0,2:0|3:0,2:0:0:0:
174,237,34983,1,0,3:0:0:0:
197,272,35062,2,0,P|200:317|184:361,1,88.4000000000003,8|0,2:0|2:0,2:0:0:0:
71,201,35378,6,0,P|68:156|84:112,1,88.4000000000003,0|0,3:0|2:0,2:0:0:0:
146,56,35615,1,0,3:0:0:0:
177,40,35694,2,0,L|242:42,1,44.2000000000002,8|0,2:0|2:0,2:0:0:0:
295,72,35852,2,0,L|360:74,1,44.2000000000002,0|0,2:0|2:0,2:0:0:0:
407,114,36010,2,0,L|501:116,1,88.4000000000003,2|0,3:2|3:0,2:0:0:0:
266,213,36325,2,0,P|210:223|144:202,1,88.4000000000003,8|0,2:0|3:0,2:0:0:0:
124,163,36562,1,0,3:0:0:0:
131,120,36641,5,6,3:2:0:0:
266,213,36799,1,0,2:0:0:0:
100,283,36957,1,8,2:0:0:0:
136,79,37115,1,2,2:0:0:0:
307,212,37273,2,0,P|319:276|304:327,1,88.4000000000003,2|0,2:0|3:0,2:0:0:0:
114,376,37588,5,8,2:0:0:0:
233,297,37746,1,0,2:0:0:0:
123,291,37904,2,0,L|32:282,1,88.4000000000003,0|0,3:0|2:0,2:0:0:0:
12,112,38220,2,0,L|103:121,1,88.4000000000003,8|0,2:0|2:0,2:0:0:0:
226,192,38536,2,0,B|153:159|143:231|31:190,1,176.800000000001,2|8,3:2|2:0,2:0:0:0:
99,120,38957,6,0,P|155:104|183:100,1,58.9333333333336,0|0,2:0|2:0,2:0:0:0:
254,108,39167,2,0,P|300:148|284:259,1,176.800000000001,4|8,3:0|2:0,2:0:0:0:
195,241,39588,2,0,P|212:205|242:180,1,58.9333333333336,0|0,2:0|2:0,2:0:0:0:
329,156,39799,2,0,P|380:163|426:211,1,88.4000000000003,2|0,2:0|3:0,2:0:0:0:
350,239,40036,1,0,3:0:0:0:
350,239,40115,1,8,2:0:0:0:
471,128,40273,1,0,2:0:0:0:
266,214,40431,5,0,3:0:0:0:
354,325,40588,1,0,3:0:0:0:
354,325,40667,1,0,3:0:0:0:
354,325,40746,2,0,L|442:331,1,88.4000000000003,10|0,2:0|2:0,2:0:0:0:
158,325,41062,1,0,3:0:0:0:
158,325,41141,1,0,3:0:0:0:
158,325,41220,2,0,L|70:331,1,88.4000000000003,0|8,3:0|2:0,2:0:0:0:
0,61,41694,5,6,3:2:0:0:
178,103,41852,1,0,2:0:0:0:
353,136,42010,2,0,P|439:149|473:150,1,88.4000000000003,8|2,2:0|2:0,2:0:0:0:
505,63,42246,1,0,3:0:0:0:
512,25,42325,5,2,2:0:0:0:
388,53,42483,1,0,3:0:0:0:
267,89,42641,2,0,P|261:168|283:203,1,88.4000000000003,8|2,2:0|2:0,2:0:0:0:
353,216,42878,1,0,3:0:0:0:
362,190,42957,5,2,3:2:0:0:
263,174,43115,1,0,2:0:0:0:
176,167,43273,2,0,L|60:153,1,88.4000000000003,8|2,2:0|2:0,2:0:0:0:
6,192,43588,6,0,P|-1:139|25:88,1,88.4000000000003,2|0,3:2|3:0,2:0:0:0:
316,286,43904,2,0,P|324:341|310:372,1,88.4000000000003,8|2,2:0|2:0,2:0:0:0:
215,377,44141,1,2,2:0:0:0:
179,362,44220,5,4,3:0:0:0:
268,180,44378,1,0,2:0:0:0:
173,211,44536,5,8,2:0:0:0:
263,20,44694,1,2,2:0:0:0:
191,118,44852,5,2,2:0:0:0:
363,219,45010,1,0,3:0:0:0:
363,219,45088,1,0,3:0:0:0:
363,219,45167,2,0,L|466:226,1,88.4000000000003,8|0,2:0|2:0,2:0:0:0:
133,175,45483,5,0,3:0:0:0:
362,302,45641,2,0,P|429:274|433:162,1,176.800000000001,8|0,2:0|3:0,2:0:0:0:
133,175,46115,6,0,L|94:180,4,29.4666666666668,0|0|0|0|8,3:0|2:0|2:0|2:0|2:0,2:0:0:0:
379,175,46431,2,0,L|444:182,2,58.9333333333336,0|8|8,3:0|3:0|3:0,2:0:0:0:
62,270,46746,5,0,3:0:0:0:
467,271,46904,2,0,L|491:274,12,22.1000000000001,4|0|0|0|0|0|0|0|0|0|0|0|8,2:0|2:0|2:0|2:0|2:0|2:0|2:0|2:0|2:0|2:0|2:0|2:0|3:0,2:0:0:0:
458,288,47457,1,8,3:0:0:0:
450,305,47536,1,8,3:0:0:0:
174,202,47694,6,0,L|192:56,1,132.6,12|0,2:0|2:0,2:0:0:0:
267,38,48010,2,0,P|325:30|369:43,1,88.4000000000003,0|0,3:0|2:0,2:0:0:0:
174,202,48325,2,0,P|116:210|72:197,1,88.4000000000003,8|0,2:0|2:0,2:0:0:0:
20,164,48562,1,0,3:0:0:0:
20,164,48641,5,2,3:2:0:0:
125,129,48799,1,0,3:0:0:0:
174,202,48957,2,0,L|180:299,1,88.4000000000003,8|0,2:0|2:0,2:0:0:0:
20,164,49273,5,4,3:0:0:0:
179,289,49431,1,0,2:0:0:0:
367,137,49588,1,10,2:0:0:0:
235,54,49746,1,0,3:0:0:0:
235,54,49825,1,0,3:0:0:0:
235,54,49904,2,0,B|180:44|180:44|160:26|160:26|80:15,2,132.6,2|0|0,2:0|3:0|2:0,2:0:0:0:
340,14,50536,5,0,3:0:0:0:
235,54,50694,2,0,L|229:104,1,44.2000000000002,0|0,2:0|2:0,2:0:0:0:
213,187,50852,1,8,2:0:0:0:
201,232,50931,1,0,2:0:0:0:
231,263,51010,1,0,2:0:0:0:
236,306,51088,1,0,2:0:0:0:
204,337,51167,1,0,3:0:0:0:
166,324,51246,1,0,2:0:0:0:
146,289,51325,1,0,3:0:0:0:
106,285,51404,1,0,2:0:0:0:
79,319,51483,6,0,L|149:314,1,44.2000000000002,8|8,2:0|2:0,2:0:0:0:
236,306,51641,2,0,L|306:301,1,44.2000000000002,8|0,2:0|2:0,2:0:0:0:
388,294,51799,1,6,3:2:0:0:
221,139,51957,1,0,2:0:0:0:
467,112,52115,1,2,2:0:0:0:
230,54,52273,2,0,P|136:130|157:202,1,208,6|8,3:2|3:0,2:0:0:0:
166,211,52904,5,0,3:0:0:0:
166,211,52983,1,0,3:0:0:0:
166,211,53062,2,0,L|41:220,1,104,0|2,3:0|2:0,2:0:0:0:
279,323,53378,2,0,P|341:330|392:314,1,104,8|0,2:0|2:0,2:0:0:0:
392,185,53694,1,0,3:0:0:0:
260,131,53852,2,0,P|247:180|260:234,1,104,8|2,2:0|2:0,2:0:0:0:
279,323,54088,1,8,3:0:0:0:
306,315,54167,2,0,P|343:279|351:246,1,52,8|8,3:0|3:0,2:0:0:0:
392,185,54325,5,6,3:2:0:0:
259,232,54483,1,0,2:0:0:0:
207,25,54641,1,2,2:0:0:0:
2,196,54799,2,0,P|129:190|166:138,1,156,6|0,3:2|2:0,2:0:0:0:
173,101,55115,2,0,P|106:108|72:136,1,104,4|8,3:0|3:0,2:0:0:0:
68,252,55431,5,0,3:0:0:0:
68,252,55510,1,0,3:0:0:0:
68,252,55588,2,0,L|57:364,1,104,0|2,3:0|2:0,2:0:0:0:
244,250,55904,2,0,L|250:147,1,104,8|0,2:0|2:0,2:0:0:0:
424,270,56220,2,0,L|423:383,1,104,0|8,3:0|2:0,2:0:0:0:
240,301,56536,2,0,L|244:235,1,52,8|8,3:0|3:0,2:0:0:0:
249,157,56694,2,0,L|253:91,1,52,8|8,3:0|3:0,2:0:0:0:
259,15,56852,5,6,3:2:0:0:
115,138,57010,1,0,2:0:0:0:
371,132,57167,1,2,2:0:0:0:
74,221,57325,2,0,P|30:171|87:51,2,208,6|8|0,3:2|3:0|3:0,2:0:0:0:
82,248,58036,1,0,3:0:0:0:
86,273,58115,5,0,3:0:0:0:
105,369,58273,1,2,2:0:0:0:
251,302,58431,5,8,2:0:0:0:
232,206,58588,1,0,2:0:0:0:
364,161,58746,5,0,3:0:0:0:
383,257,58904,1,8,2:0:0:0:
251,302,59062,6,0,L|315:282,1,52,2|0,2:0|2:0,2:0:0:0:
364,161,59220,2,0,L|300:181,1,52,8|8,3:0|3:0,2:0:0:0:
271,53,59378,5,6,3:2:0:0:
383,257,59536,1,0,2:0:0:0:
144,238,59694,1,2,2:0:0:0:
271,53,59852,2,0,P|333:38|439:68,1,156,6|0,3:2|2:0,2:0:0:0:
473,121,60167,2,0,L|467:242,1,104,4|8,3:0|3:0,2:0:0:0:
278,352,60483,5,0,3:0:0:0:
278,352,60562,1,0,3:0:0:0:
278,352,60641,2,0,P|256:288|283:230,1,104,0|2,3:0|2:0,2:0:0:0:
467,224,60957,1,8,2:0:0:0:
440,302,61115,2,0,L|327:296,1,104,0|0,2:0|3:0,2:0:0:0:
180,329,61431,2,0,L|67:323,1,104,8|2,2:0|2:0,2:0:0:0:
14,282,61667,1,8,3:0:0:0:
0,209,61746,2,0,P|10:169|32:150,1,52,8|8,3:0|3:0,2:0:0:0:
105,103,61904,5,6,3:2:0:0:
258,292,62062,1,0,2:0:0:0:
345,63,62220,1,2,2:0:0:0:
386,52,62299,1,2,2:0:0:0:
427,44,62378,1,6,3:2:0:0:
427,44,63799,5,4,3:0:0:0:
396,139,63957,1,2,2:0:0:0:
492,118,64115,1,0,3:0:0:0:
333,62,64273,1,2,2:0:0:0:
464,207,64431,5,6,3:2:0:0:
333,62,64588,1,0,2:0:0:0:
161,149,64746,1,2,2:0:0:0:
118,141,64825,1,2,2:0:0:0:
75,132,64904,1,6,3:2:0:0:
75,132,65852,5,8,3:0:0:0:
60,244,66010,2,0,L|111:249,4,34.6666666666667,0|0|0|0|0,2:0|2:0|2:0|2:0|2:0,2:0:0:0:
164,288,66325,2,0,L|245:295,1,52,4|0,3:0|3:0,2:0:0:0:
286,329,66483,2,0,L|367:336,1,52,0|0,3:0|3:0,2:0:0:0:
409,368,66641,5,8,3:0:0:0:
468,318,66746,5,8,3:0:0:0:
436,245,66852,5,8,3:0:0:0:
358,260,66957,5,6,3:2:0:0:
491,65,67115,1,0,2:0:0:0:
245,92,67273,1,8,3:0:0:0:
227,56,67352,1,8,3:0:0:0:
211,19,67431,2,0,P|170:64|255:174,1,208,6|0,3:2|2:0,2:0:0:0:
358,260,67904,5,8,3:0:0:0:
316,328,68010,5,8,3:0:0:0:
236,330,68115,5,8,3:0:0:0:
179,277,68220,6,0,L|206:206,1,69.3333333333333,4|0,3:0|2:0,2:0:0:0:
247,136,68431,2,0,L|294:194,1,69.3333333333333,8|0,3:0|2:0,2:0:0:0:
358,260,68641,2,0,L|283:272,1,69.3333333333333,0|0,3:0|2:0,2:0:0:0:
179,277,68852,6,0,P|105:278|41:227,1,138.666666666667,0|8,3:0|2:0,2:0:0:0:
243,343,69167,1,8,3:0:0:0:
282,345,69246,1,8,3:0:0:0:
322,348,69325,1,8,3:0:0:0:
362,351,69404,1,8,3:0:0:0:
402,354,69483,6,0,P|453:298|450:233,1,104,6|0,3:2|2:0,2:0:0:0:
499,182,69720,1,0,3:0:0:0:
492,195,69799,5,8,2:0:0:0:
457,193,69878,1,0,2:0:0:0:
416,194,69957,2,0,B|362:213|317:185|317:185|285:127|200:129,1,208,6|0,3:2|3:0,2:0:0:0:
374,122,70431,5,8,3:0:0:0:
337,85,70510,1,8,3:0:0:0:
292,59,70588,1,8,3:0:0:0:
241,47,70667,1,8,3:0:0:0:
190,49,70746,5,0,3:0:0:0:
185,69,70825,1,8,3:0:0:0:
49,194,70983,1,0,2:0:0:0:
54,174,71062,1,8,3:0:0:0:
300,186,71220,1,0,2:0:0:0:
295,206,71299,1,8,3:0:0:0:
128,305,71457,1,0,2:0:0:0:
133,285,71536,1,8,3:0:0:0:
391,151,71694,6,0,L|376:216,1,52,0|0,3:0|3:0,2:0:0:0:
193,384,71852,2,0,L|208:319,1,52,0|0,3:0|3:0,2:0:0:0:
54,263,72010,6,0,P|49:197|68:155,1,69.3333333333333,6|0,3:2|2:0,2:0:0:0:
113,89,72220,2,0,P|173:61|219:65,1,69.3333333333333,0|0,3:0|2:0,2:0:0:0:
282,96,72431,2,0,P|328:143|340:187,1,69.3333333333333,0|0,3:0|2:0,2:0:0:0:
256,202,72641,2,0,P|156:208|116:145,1,138.666666666667,2|0,3:2|3:0,2:0:0:0:
203,143,73062,1,0,2:0:0:0:
493,114,73273,5,6,3:2:0:0:
512,195,73431,1,0,2:0:0:0:
480,271,73588,1,8,2:0:0:0:
397,285,73746,1,8,3:0:0:0:
355,290,73825,1,8,3:0:0:0:
317,271,73904,1,8,3:0:0:0:
244,229,74062,1,0,3:0:0:0:
161,242,74220,1,10,2:0:0:0:
147,324,74378,1,0,3:0:0:0:
228,307,74536,1,0,3:0:0:0:
244,229,74694,1,0,2:0:0:0:
254,188,74773,1,0,3:0:0:0:
244,147,74852,1,8,2:0:0:0:
197,77,75010,1,0,2:0:0:0:
264,29,75167,5,8,3:0:0:0:
307,34,75246,1,0,3:0:0:0:
162,147,75404,1,0,3:0:0:0:
119,152,75483,1,8,3:0:0:0:
326,232,75641,2,0,L|383:236,1,52,0|0,3:0|2:0,2:0:0:0:
196,318,75799,5,2,3:2:0:0:
113,306,75957,1,0,2:0:0:0:
76,231,76115,1,8,2:0:0:0:
119,152,76273,1,8,3:0:0:0:
139,116,76352,1,8,3:0:0:0:
132,74,76431,1,8,3:0:0:0:
49,64,76588,1,0,3:0:0:0:
35,146,76746,1,10,2:0:0:0:
119,152,76904,1,0,3:0:0:0:
195,195,77062,1,0,3:0:0:0:
195,195,77141,1,8,3:0:0:0:
258,140,77299,1,0,2:0:0:0:
258,140,77378,1,8,2:0:0:0:
324,190,77536,1,0,2:0:0:0:
380,129,77694,6,0,L|471:123,2,69.3333333333333,2|0|0,3:2|2:0|2:0,2:0:0:0:
262,248,78010,2,0,L|171:254,2,69.3333333333333,10|0|0,2:0|2:0|2:0,2:0:0:0:
404,349,78325,5,6,3:2:0:0:
439,273,78483,1,0,2:0:0:0:
388,206,78641,1,8,2:0:0:0:
444,145,78799,1,8,3:0:0:0:
382,88,78957,1,8,3:0:0:0:
463,69,79115,1,0,3:0:0:0:
466,110,79194,1,0,2:0:0:0:
444,145,79273,1,10,2:0:0:0:
388,206,79431,1,0,3:0:0:0:
325,152,79588,1,0,3:0:0:0:
242,164,79746,1,0,2:0:0:0:
178,104,79904,1,8,2:0:0:0:
262,84,80062,1,0,3:0:0:0:
157,187,80220,5,2,3:2:0:0:
348,71,80378,1,0,2:0:0:0:
202,22,80536,2,0,L|130:18,1,52,10|8,2:0|2:0,2:0:0:0:
325,152,80694,2,0,L|390:156,1,52,8|8,2:0|2:0,2:0:0:0:
213,320,80852,5,6,3:2:0:0:
35,177,81010,1,8,3:0:0:0:
16,138,81088,1,8,3:0:0:0:
0,98,81167,1,8,3:0:0:0:
245,157,81325,5,6,3:2:0:0:
40,279,81483,1,8,3:0:0:0:
59,318,81562,1,8,3:0:0:0:
75,358,81641,1,8,3:0:0:0:
245,157,81799,6,0,P|225:87|85:58,1,208,6|8,3:2|3:0,2:0:0:0:
258,381,82431,1,8,3:0:0:0:
512,179,82746,1,8,3:0:0:0:
164,82,83062,1,8,3:0:0:0:
167,133,83141,1,8,2:0:0:0:
137,178,83220,1,8,2:0:0:0:
87,199,83299,1,8,2:0:0:0:
33,213,83378,6,0,P|96:233|198:172,1,156,6|0,3:2|2:0,2:0:0:0:
247,136,83694,2,0,L|286:22,1,104,10|4,2:0|3:2,2:0:0:0:
82,108,84010,1,2,2:0:0:0:
256,257,84167,1,10,2:0:0:0:
349,142,84325,2,0,P|396:146|494:264,1,208,6|0,3:2|2:0,2:0:0:0:
374,263,84799,5,8,3:0:0:0:
374,263,84878,1,8,3:0:0:0:
374,263,84957,1,8,3:0:0:0:
228,200,85115,1,2,2:0:0:0:
403,110,85273,1,8,3:0:0:0:
361,289,85431,1,2,2:0:0:0:
215,168,85588,2,0,P|231:134|257:111,1,52,8|8,3:0|3:0,2:0:0:0:
334,70,85746,2,0,P|381:74|407:91,1,52,8|8,3:0|3:0,2:0:0:0:
483,126,85904,6,0,P|500:159|492:236,1,104,6|0,3:2|2:0,2:0:0:0:
145,119,86220,1,10,2:0:0:0:
424,183,86378,1,4,3:2:0:0:
147,281,86536,2,0,L|90:295,2,34.6666666666667,2|0|0,2:0|2:0|2:0,2:0:0:0:
259,346,86694,1,10,2:0:0:0:
99,192,86852,6,0,P|61:104|155:32,1,208,6|0,3:2|3:0,2:0:0:0:
147,281,87325,1,0,3:0:0:0:
147,281,87404,1,0,3:0:0:0:
147,281,87483,1,0,3:0:0:0:
269,229,87641,1,2,3:2:0:0:
408,242,87799,1,0,3:0:0:0:
512,313,87957,1,10,2:0:0:0:
282,380,88115,5,8,3:0:0:0:
236,376,88194,1,8,3:0:0:0:
196,353,88273,1,8,3:0:0:0:
170,314,88352,1,8,3:0:0:0:
163,269,88431,2,0,P|170:190|201:147,1,104,6|8,3:2|2:0,2:0:0:0:
294,24,88746,1,8,2:0:0:0:
482,281,88904,2,0,L|317:251,1,156,6|0,3:2|2:0,2:0:0:0:
254,288,89220,1,8,2:0:0:0:
64,112,89378,2,0,P|125:103|179:82,1,104,6|8,3:2|3:0,2:0:0:0:
251,32,89615,1,8,3:0:0:0:
251,32,89694,5,8,3:0:0:0:
165,89,89852,1,0,2:0:0:0:
294,24,90010,1,10,2:0:0:0:
213,170,90167,1,0,2:0:0:0:
136,64,90325,1,2,2:0:0:0:
339,18,90483,1,8,2:0:0:0:
188,203,90641,1,10,2:0:0:0:
188,203,90720,1,8,2:0:0:0:
188,203,90799,2,0,L|113:216,1,52,8|8,2:0|3:0,2:0:0:0:
304,377,90957,5,6,3:2:0:0:
436,235,91115,1,4,3:0:0:0:
251,115,91273,1,10,2:0:0:0:
224,69,91352,1,4,3:0:0:0:
194,24,91431,1,6,3:2:0:0:
414,195,91588,5,4,3:0:0:0:
266,352,91746,1,10,2:0:0:0:
275,149,91904,1,6,3:2:0:0:
459,275,92062,2,0,L|531:284,1,52,4|4,3:0|3:0,2:0:0:0:
266,352,92220,2,0,P|188:346|131:328,1,104,0|4,2:0|3:0,2:0:0:0:
75,142,92536,5,10,2:0:0:0:
16,286,92694,1,4,3:0:0:0:
223,98,92852,5,2,2:0:0:0:
140,232,93010,1,10,2:0:0:0:
295,31,93167,6,0,L|368:61,1,52,8|8,2:0|2:0,2:0:0:0:
390,147,93325,2,0,L|440:134,1,52,8|8,3:0|3:0,2:0:0:0:
494,63,93483,6,0,P|524:149|479:220,1,156,6|0,3:2|2:0,2:0:0:0:
414,253,93799,2,0,L|283:231,1,104,10|4,2:0|3:2,2:0:0:0:
155,118,94115,1,2,2:0:0:0:
241,365,94273,1,8,2:0:0:0:
414,253,94431,2,0,P|306:210|206:237,1,208,6|0,3:2|2:0,2:0:0:0:
116,199,94904,5,8,3:0:0:0:
116,199,94983,1,8,3:0:0:0:
116,199,95062,1,8,3:0:0:0:
176,328,95220,1,2,2:0:0:0:
286,230,95378,1,8,3:0:0:0:
218,114,95536,1,2,2:0:0:0:
94,226,95694,2,0,L|175:238,1,52,8|8,3:0|3:0,2:0:0:0:
254,250,95852,2,0,L|314:257,1,52,8|8,3:0|3:0,2:0:0:0:
405,324,96010,6,0,P|424:270|417:220,1,104,6|0,3:2|2:0,2:0:0:0:
256,74,96325,1,10,2:0:0:0:
501,261,96483,2,0,P|495:189|461:141,1,104,4|2,3:2|2:0,2:0:0:0:
297,36,96799,1,10,2:0:0:0:
76,126,96957,2,0,P|98:190|339:234,1,312,6|0,3:2|3:0,2:0:0:0:
383,330,97588,5,4,3:0:0:0:
463,198,97746,1,0,2:0:0:0:
246,355,97904,5,4,3:0:0:0:
305,175,98062,1,0,2:0:0:0:
110,373,98220,6,0,L|136:319,1,52,4|8,3:0|2:0,2:0:0:0:
119,180,98378,2,0,L|96:227,1,52,8|8,2:0|2:0,2:0:0:0:
36,312,98536,6,0,P|75:364|145:367,1,104,6|8,3:2|2:0,2:0:0:0:
288,360,98852,1,8,2:0:0:0:
178,113,99010,2,0,P|132:157|109:294,1,208,6|8,3:2|2:0,2:0:0:0:
413,264,99483,2,0,L|282:247,1,104,6|8,3:2|3:0,2:0:0:0:
235,201,99720,1,8,3:0:0:0:
235,201,99799,5,8,3:0:0:0:
348,155,99957,1,0,2:0:0:0:
461,191,100115,1,10,2:0:0:0:
309,249,100273,1,0,2:0:0:0:
371,54,100431,1,2,2:0:0:0:
191,212,100588,1,8,2:0:0:0:
461,191,100746,1,10,2:0:0:0:
461,191,100825,1,8,2:0:0:0:
461,191,100904,2,0,L|520:195,1,52,8|8,3:0|3:0,2:0:0:0:
329,349,101062,5,6,3:2:0:0:
512,194,101220,1,4,3:0:0:0:
252,90,101378,1,10,2:0:0:0:
204,60,101457,1,4,3:0:0:0:
154,33,101536,1,6,3:2:0:0:
242,221,101694,5,4,3:0:0:0:
440,149,101852,1,10,2:0:0:0:
288,20,102010,1,6,3:2:0:0:
206,188,102167,2,0,L|181:246,1,52,4|4,3:0|3:0,2:0:0:0:
60,271,102325,6,0,L|16:283,2,34.6666666666667,0|0|0,2:0|2:0|2:0,2:0:0:0:
140,349,102483,1,4,3:0:0:0:
179,150,102641,5,10,2:0:0:0:
318,366,102799,1,4,3:0:0:0:
342,74,102957,5,2,2:0:0:0:
467,307,103115,1,4,3:0:0:0:
483,344,103194,1,4,3:0:0:0:
500,379,103273,1,8,2:0:0:0:
506,49,103431,5,4,3:0:0:0:
472,28,103510,1,4,3:0:0:0:
437,7,103588,1,6,3:2:0:0:
