osu file format v14

[General]
AudioFilename: audio.mp3
AudioLeadIn: 0
PreviewTime: 82115
Countdown: 0
SampleSet: Soft
StackLeniency: 0.5
Mode: 0
LetterboxInBreaks: 0
WidescreenStoryboard: 1

[Editor]
Bookmarks: 10,21483,51799,52588,61904,72220,73273,83378,103588,113536
DistanceSpacing: 0.1
BeatDivisor: 4
GridSize: 4
TimelineZoom: 1

[Metadata]
Title:Far east squall
TitleUnicode:Far east squall
Artist:Nekomata Master+
ArtistUnicode:猫叉Master+
Creator:chaser01
Version:Another
Source:jubeat
Tags:resahc enryotoki aragon wanpachi gorou byakko+ nightbird knit saucer electronic instrumental
BeatmapID:4095514
BeatmapSetID:1971796

[Difficulty]
HPDrainRate:5
CircleSize:4
OverallDifficulty:8.6
ApproachRate:9
SliderMultiplier:1.8
SliderTickRate:1

[Events]
//Background and Video events
0,0,"c.jpg",0,0
//Break Periods
2,11578,15831
2,16631,19620
//Storyboard Layer 0 (Background)
//Storyboard Layer 1 (Fail)
//Storyboard Layer 2 (Pass)
//Storyboard Layer 3 (Foreground)
//Storyboard Layer 4 (Overlay)
//Storyboard Sound Samples

[TimingPoints]
10,315.789473684211,4,2,0,45,1,0
2062,-133.333333333333,4,2,0,45,0,0
5062,-133.333333333333,4,2,0,50,0,0
11378,-133.333333333333,4,2,0,55,0,0
21167,-100,4,2,0,55,0,0
21483,-111.111111111111,4,2,0,70,0,0
73273,-125,4,2,0,60,0,0
80852,-125,4,2,0,65,0,0
82115,-117.647058823529,4,2,0,65,0,0
83378,-100,4,2,0,70,0,1
103667,-100,4,2,0,70,0,0

[Colours]
Combo1 : 139,243,197
Combo2 : 255,248,151
Combo3 : 255,145,148
Combo4 : 113,191,255

[HitObjects]
56,282,10,5,4,3:2:0:0:
189,118,325,1,0,2:0:0:0:
154,313,641,1,2,2:0:0:0:
94,108,957,1,0,2:0:0:0:
239,270,1273,1,2,2:0:0:0:
34,185,1588,1,0,2:0:0:0:
261,180,1904,1,2,2:0:0:0:
261,180,2062,2,0,B|345:173|345:173|380:187|380:187|475:177,1,202.500000000001,4|4,3:0|2:0,2:0:0:0:
284,265,2694,6,0,L|198:273,1,67.5000000000002,0|0,2:0|2:0,2:0:0:0:
135,205,3010,1,8,3:0:0:0:
54,268,3167,2,0,P|54:301|60:334,1,67.5000000000002,2|8,2:0|3:0,2:0:0:0:
135,205,3483,2,0,P|145:148|142:120,1,67.5000000000002,0|8,2:0|3:0,2:0:0:0:
139,307,3799,2,0,P|139:340|145:373,1,67.5000000000002,2|8,2:0|3:0,2:0:0:0:
211,240,4115,2,0,P|221:183|218:155,1,67.5000000000002,0|8,2:0|3:0,2:0:0:0:
241,328,4431,1,2,2:0:0:0:
340,356,4588,1,8,3:0:0:0:
340,356,4667,1,8,3:0:0:0:
340,356,4746,1,8,3:0:0:0:
408,287,4904,2,0,L|405:235,1,33.7500000000001,4|0,3:0|2:0,2:0:0:0:
403,165,5062,5,0,3:2:0:0:
164,81,5378,1,0,2:0:0:0:
399,69,5694,1,2,2:0:0:0:
184,181,6010,1,0,2:0:0:0:
304,15,6325,1,2,2:0:0:0:
289,233,6641,1,0,2:0:0:0:
184,45,6957,1,2,2:0:0:0:
471,139,7115,2,0,P|397:167|288:86,1,202.500000000001,4|4,3:0|2:0,2:0:0:0:
297,108,7746,5,0,2:0:0:0:
361,203,7904,2,0,L|370:270,1,67.5000000000002,0|8,2:0|3:0,2:0:0:0:
290,355,8220,2,0,L|281:288,1,67.5000000000002,2|8,2:0|3:0,2:0:0:0:
181,242,8536,2,0,L|190:309,1,67.5000000000002,0|8,2:0|3:0,2:0:0:0:
111,198,8852,2,0,P|180:204|250:145,1,135,2|0,2:0|2:0,2:0:0:0:
155,117,9325,1,8,3:0:0:0:
47,136,9483,2,0,P|24:185|37:243,1,90.0000000000002,2|8,2:0|3:0,2:0:0:0:
76,282,9799,6,0,L|150:273,2,45.0000000000001,8|8|4,3:0|3:0|3:0,2:0:0:0:
60,357,10115,2,0,L|190:343,2,90.0000000000002,4|0|0,2:0|2:0|2:0,2:0:0:0:
452,357,10746,2,0,L|322:343,2,90.0000000000002,0|0|0,2:0|2:0|2:0,2:0:0:0:
254,311,11378,5,4,2:0:0:0:
254,311,16431,5,4,2:0:0:0:
254,311,20220,5,0,3:0:0:0:
176,142,20431,1,0,3:0:0:0:
358,159,20641,1,0,3:0:0:0:
254,311,20852,1,8,3:0:0:0:
237,319,21167,2,0,P|170:317|114:299,1,90,4|0,3:0|3:0,2:0:0:0:
75,278,21404,1,0,3:0:0:0:
75,278,21483,6,0,B|57:233|57:233|62:165,1,81.0000000000001,4|0,3:2|2:0,2:0:0:0:
291,56,21799,2,0,B|306:102|306:102|301:167,1,81.0000000000001,10|0,2:0|2:0,2:0:0:0:
177,221,22115,1,2,2:0:0:0:
93,128,22273,1,0,3:0:0:0:
93,128,22352,1,0,3:0:0:0:
93,128,22431,1,10,2:0:0:0:
225,115,22588,1,0,2:0:0:0:
345,203,22746,6,0,P|369:261|371:381,1,162,0|10,3:0|2:0,2:0:0:0:
249,292,23220,1,0,2:0:0:0:
376,125,23378,2,0,L|491:112,1,81.0000000000001,2|2,3:2|3:2,2:0:0:0:
330,283,23694,2,0,L|215:296,1,81.0000000000001,8|2,2:0|2:0,2:0:0:0:
93,221,24010,5,0,3:0:0:0:
140,364,24167,1,0,2:0:0:0:
307,360,24325,2,0,P|331:281|296:185,1,162,10|0,2:0|2:0,2:0:0:0:
257,124,24799,1,0,3:0:0:0:
82,264,24957,2,0,P|132:290|247:278,1,162,10|0,2:0|3:0,2:0:0:0:
338,116,25431,1,0,2:0:0:0:
171,124,25588,2,0,L|168:220,1,81.0000000000001,10|2,2:0|2:0,2:0:0:0:
53,187,25904,5,2,2:0:0:0:
267,258,26062,1,2,3:2:0:0:
57,315,26220,1,8,2:0:0:0:
248,148,26378,1,2,2:0:0:0:
85,33,26536,6,0,B|69:75|69:75|69:136,1,81.0000000000001,4|0,3:2|2:0,2:0:0:0:
312,229,26852,2,0,B|328:187|328:187|330:126,1,81.0000000000001,10|0,2:0|2:0,2:0:0:0:
168,153,27167,2,0,B|171:190|171:190|187:232,1,81.0000000000001,2|0,2:0|3:0,2:0:0:0:
443,111,27483,2,0,B|443:75|443:75|427:33,1,81.0000000000001,10|0,2:0|2:0,2:0:0:0:
290,145,27799,5,0,3:0:0:0:
329,221,27957,1,0,2:0:0:0:
487,211,28115,2,0,L|378:202,1,81.0000000000001,10|0,2:0|2:0,2:0:0:0:
226,208,28431,5,2,3:2:0:0:
255,366,28588,1,2,3:2:0:0:
387,282,28746,2,0,P|405:223|399:167,1,81.0000000000001,8|2,2:0|2:0,2:0:0:0:
111,19,29062,6,0,P|92:78|99:134,1,81.0000000000001,2|0,3:2|2:0,2:0:0:0:
300,170,29378,2,0,P|250:144|192:138,1,81.0000000000001,10|0,2:0|2:0,2:0:0:0:
38,294,29694,2,0,P|85:317|133:317,1,81.0000000000001,2|0,2:0|3:0,2:0:0:0:
134,303,29931,1,0,3:0:0:0:
134,303,30010,2,0,B|210:299|210:299|276:314|276:314|402:300,1,243,10|2,2:0|2:0,2:0:0:0:
163,220,30641,2,0,L|72:225,1,81.0000000000001,8|2,2:0|2:0,2:0:0:0:
339,135,30957,2,0,L|438:128,1,81.0000000000001,0|10,2:0|3:2,2:0:0:0:
214,52,31273,2,0,L|178:55,6,20.25,8|0|0|0|8|0|0,2:0|2:0|2:0|2:0|2:0|2:0|2:0,2:0:0:0:
214,52,31588,5,6,3:2:0:0:
310,252,31746,1,0,2:0:0:0:
82,224,31904,1,8,2:0:0:0:
301,139,32062,1,2,2:0:0:0:
301,139,32141,1,0,2:0:0:0:
301,139,32220,2,0,P|367:118|399:121,1,81.0000000000001,2|0,2:0|3:0,2:0:0:0:
504,293,32536,2,0,P|462:291|422:264,1,81.0000000000001,8|2,2:0|2:0,2:0:0:0:
474,69,32852,6,0,B|507:113|507:113|512:160|485:222,1,162,2|8,3:2|2:0,2:0:0:0:
367,314,33325,1,2,2:0:0:0:
337,176,33483,2,0,P|390:161|448:156,1,81.0000000000001,2|0,3:2|3:0,2:0:0:0:
267,285,33799,1,8,2:0:0:0:
216,79,33957,1,2,2:0:0:0:
216,79,34036,1,0,2:0:0:0:
216,79,34115,6,0,P|154:70|114:69,1,81.0000000000001,4|0,3:0|2:0,2:0:0:0:
337,176,34431,2,0,P|402:192|448:197,1,81.0000000000001,8|2,2:0|2:0,2:0:0:0:
180,245,34746,2,0,P|98:252|30:187,1,162,2|8,2:0|2:0,2:0:0:0:
127,170,35220,1,0,2:0:0:0:
278,313,35378,2,0,B|340:336|404:319|404:319|357:301,1,162,0|8,3:0|2:0,2:0:0:0:
248,214,35852,1,0,2:0:0:0:
165,278,36010,2,0,P|140:336|133:376,1,81.0000000000001,2|0,3:2|3:0,2:0:0:0:
332,236,36325,2,0,P|356:186|363:133,1,81.0000000000001,8|0,2:0|3:0,2:0:0:0:
336,77,36562,1,0,3:0:0:0:
336,77,36641,6,0,L|240:88,1,81.0000000000001,6|0,3:2|2:0,2:0:0:0:
13,210,36957,2,0,L|109:199,1,81.0000000000001,8|2,2:0|2:0,2:0:0:0:
405,255,37273,2,0,B|341:264|341:264|316:277|316:277|220:289,1,162,2|8,2:0|2:0,2:0:0:0:
311,184,37746,1,0,2:0:0:0:
424,345,37904,2,0,P|473:312|466:187,1,162,0|8,3:0|2:0,2:0:0:0:
311,184,38378,2,0,L|213:192,1,81.0000000000001,0|2,2:0|3:2,2:0:0:0:
321,285,38694,1,0,3:0:0:0:
402,149,38852,6,0,P|406:113|402:84,1,54.0000000000001,8|0,2:0|2:0,2:0:0:0:
349,47,39062,1,0,2:0:0:0:
274,49,39167,2,0,L|103:65,1,162,4|8,3:0|2:0,2:0:0:0:
32,211,39588,6,0,L|95:203,1,54.0000000000001,0|0,2:0|2:0,2:0:0:0:
164,198,39799,2,0,P|209:231|210:360,1,162,2|8,2:0|2:0,2:0:0:0:
128,293,40273,1,0,2:0:0:0:
312,197,40431,1,0,3:0:0:0:
338,183,40746,6,0,P|387:186|428:193,1,81.0000000000001,8|0,2:0|2:0,2:0:0:0:
232,71,41062,2,0,P|183:68|142:61,1,81.0000000000001,0|0,3:0|3:0,2:0:0:0:
353,102,41378,6,0,L|408:105,1,40.5,8|0,2:0|2:0,2:0:0:0:
187,150,41536,2,0,L|140:145,1,40.5,0|0,2:0|2:0,2:0:0:0:
261,233,41694,6,0,P|260:272|248:315,1,81.0000000000001,6|0,3:2|2:0,2:0:0:0:
61,133,42010,2,0,P|62:94|74:51,1,81.0000000000001,8|2,2:0|2:0,2:0:0:0:
180,266,42325,1,2,2:0:0:0:
28,299,42483,1,0,3:0:0:0:
156,183,42641,2,0,L|269:171,1,81.0000000000001,8|2,2:0|2:0,2:0:0:0:
449,211,42957,2,0,P|383:258|280:237,1,162,2|8,3:2|2:0,2:0:0:0:
305,252,43431,1,2,2:0:0:0:
144,165,43588,5,2,3:2:0:0:
335,125,43746,1,0,3:0:0:0:
169,274,43904,1,8,2:0:0:0:
294,47,44062,1,2,2:0:0:0:
294,47,44141,1,0,2:0:0:0:
294,47,44220,6,0,P|359:42|431:128,1,162,4|8,3:0|2:0,2:0:0:0:
335,125,44694,1,2,2:0:0:0:
154,78,44852,2,0,B|105:60|105:60|35:69|-17:112,1,162,2|8,2:0|2:0,2:0:0:0:
217,37,45325,1,0,2:0:0:0:
96,144,45483,5,0,3:0:0:0:
241,242,45641,2,0,P|310:250|383:216,1,121.5,8|0,2:0|2:0,2:0:0:0:
358,233,45957,1,0,3:0:0:0:
197,323,46115,2,0,L|174:363,4,27,0|0|0|0|8,3:0|2:0|2:0|2:0|2:0,2:0:0:0:
241,242,46431,2,0,L|217:184,2,54.0000000000001,0|8|8,3:0|3:0|3:0,2:0:0:0:
354,321,46746,5,0,3:0:0:0:
97,254,46904,2,0,L|61:258,12,20.25,4|0|0|0|0|0|0|0|0|0|0|0|8,2:0|2:0|2:0|2:0|2:0|2:0|2:0|2:0|2:0|2:0|2:0|2:0|3:0,2:0:0:0:
97,254,47457,1,8,3:0:0:0:
97,254,47536,1,8,3:0:0:0:
215,121,47694,6,0,P|213:67|199:25,1,81.0000000000001,12|0,2:0|2:0,2:0:0:0:
103,261,48010,2,0,P|105:315|119:357,1,81.0000000000001,0|0,3:0|2:0,2:0:0:0:
323,177,48325,2,0,P|321:123|307:81,1,81.0000000000001,8|0,2:0|2:0,2:0:0:0:
197,291,48641,2,0,P|199:345|213:387,1,81.0000000000001,2|0,3:2|3:0,2:0:0:0:
342,252,48957,1,8,2:0:0:0:
251,213,49115,1,0,2:0:0:0:
197,291,49273,5,4,3:0:0:0:
385,384,49431,1,0,2:0:0:0:
436,193,49588,2,0,L|424:83,1,81.0000000000001,8|0,2:0|2:0,2:0:0:0:
346,39,49825,1,0,2:0:0:0:
346,39,49904,2,0,B|350:88|350:88|347:115|347:115|354:193,2,121.5,2|0|0,2:0|3:0|2:0,2:0:0:0:
346,39,50536,5,0,3:0:0:0:
431,195,50694,1,0,2:0:0:0:
415,213,50773,1,0,2:0:0:0:
395,227,50852,1,8,2:0:0:0:
373,236,50931,1,0,2:0:0:0:
349,239,51010,1,0,2:0:0:0:
325,236,51088,1,0,2:0:0:0:
299,226,51167,2,0,P|246:218|186:216,1,81.0000000000001,0|0,3:0|3:0,2:0:0:0:
28,129,51483,5,8,2:0:0:0:
56,125,51562,1,8,2:0:0:0:
84,123,51641,1,8,2:0:0:0:
112,122,51720,1,0,2:0:0:0:
141,123,51799,5,6,3:2:0:0:
48,270,51957,1,0,2:0:0:0:
213,289,52115,1,2,2:0:0:0:
141,123,52273,2,0,P|123:181|123:236,1,81.0000000000001,6|0,3:2|2:0,2:0:0:0:
294,357,52588,2,0,P|312:299|312:244,1,81.0000000000001,8|8,3:0|3:0,2:0:0:0:
55,280,52904,1,0,3:0:0:0:
55,280,52983,1,0,3:0:0:0:
55,280,53062,6,0,B|132:267|131:325|241:280,2,162,0|8|0,3:0|2:0|3:0,2:0:0:0:
170,215,53852,2,0,L|154:134,1,81.0000000000001,8|2,2:0|2:0,2:0:0:0:
354,234,54167,1,8,3:0:0:0:
354,234,54246,1,8,3:0:0:0:
354,234,54325,6,0,L|371:322,1,81.0000000000001,6|0,3:2|2:0,2:0:0:0:
213,289,54641,1,2,2:0:0:0:
310,140,54799,2,0,P|379:139|452:201,1,162,6|4,3:2|3:0,2:0:0:0:
443,81,55273,1,8,3:0:0:0:
354,234,55431,1,0,3:0:0:0:
354,234,55510,1,0,3:0:0:0:
354,234,55588,6,0,P|290:235|250:225,1,81.0000000000001,0|2,3:0|2:0,2:0:0:0:
108,119,55904,2,0,P|172:118|212:128,1,81.0000000000001,8|0,2:0|2:0,2:0:0:0:
276,87,56220,1,0,3:0:0:0:
134,199,56378,1,8,2:0:0:0:
163,36,56536,1,2,2:0:0:0:
274,190,56694,1,8,3:0:0:0:
150,314,56852,6,0,L|44:325,1,81.0000000000001,6|0,3:2|2:0,2:0:0:0:
272,359,57167,1,2,2:0:0:0:
354,256,57325,2,0,L|360:67,2,162,6|8|0,3:2|3:0|3:0,2:0:0:0:
354,256,58036,1,0,3:0:0:0:
354,256,58115,1,0,3:0:0:0:
431,192,58273,1,2,2:0:0:0:
329,156,58431,2,0,L|236:141,1,81.0000000000001,8|0,2:0|2:0,2:0:0:0:
115,123,58746,5,0,3:0:0:0:
238,34,58904,1,8,2:0:0:0:
329,156,59062,2,0,P|326:201|318:249,1,81.0000000000001,2|8,2:0|3:0,2:0:0:0:
234,269,59299,1,8,3:0:0:0:
234,269,59378,6,0,L|125:257,2,81.0000000000001,6|0|2,3:2|2:0|2:0,2:0:0:0:
329,156,59852,2,0,P|394:130|493:149,1,162,6|4,3:2|3:0,2:0:0:0:
238,254,60325,1,8,3:0:0:0:
198,138,60483,1,0,3:0:0:0:
198,138,60562,1,0,3:0:0:0:
198,138,60641,2,0,P|137:107|27:112,1,162,0|8,3:0|2:0,2:0:0:0:
44,106,61115,5,0,2:0:0:0:
251,76,61273,2,0,L|349:60,1,80.9999975280763,0|8,3:0|2:0,2:0:0:0:
120,51,61588,5,2,2:0:0:0:
170,218,61746,2,0,L|207:269,1,40.5,8|8,3:0|3:0,2:0:0:0:
352,223,61904,2,0,L|389:121,1,80.9999975280763,6|0,3:2|2:0,2:0:0:0:
497,314,62220,1,0,2:0:0:0:
497,314,62299,1,0,2:0:0:0:
497,314,62378,1,6,3:2:0:0:
497,314,63799,5,4,3:0:0:0:
388,234,63957,2,0,P|392:182|401:137,1,81.0000000000001,2|0,2:0|3:0,2:0:0:0:
274,290,64273,2,0,P|276:340|287:387,1,81.0000000000001,2|6,2:0|3:2,2:0:0:0:
473,206,64588,1,0,2:0:0:0:
288,131,64746,1,0,2:0:0:0:
288,131,64825,1,0,2:0:0:0:
288,131,64904,1,6,3:2:0:0:
288,131,66010,6,0,L|292:81,4,27,0|0|0|0|0,2:0|2:0|2:0|2:0|2:0,2:0:0:0:
212,184,66325,1,4,3:0:0:0:
186,153,66404,1,0,3:0:0:0:
150,133,66483,1,0,3:0:0:0:
111,127,66562,1,0,3:0:0:0:
68,127,66641,2,0,L|75:194,2,54.0000000000001,8|8|8,3:0|3:0|3:0,2:0:0:0:
10,218,66957,6,0,B|76:225|76:225|103:240|103:240|215:249,1,162,6|8,3:2|3:0,2:0:0:0:
325,372,67431,2,0,P|377:304|328:203,1,202.5,6|0,3:2|2:0,2:0:0:0:
263,253,67904,2,0,L|245:335,2,54.0000000000001,8|8|8,3:0|3:0|3:0,2:0:0:0:
333,206,68220,6,0,L|346:147,1,54.0000000000001,4|0,3:0|2:0,2:0:0:0:
274,92,68431,2,0,L|262:144,1,54.0000000000001,8|0,3:0|2:0,2:0:0:0:
171,170,68641,2,0,L|187:90,1,54.0000000000001,0|0,3:0|2:0,2:0:0:0:
117,29,68852,2,0,L|87:169,1,108,0|8,3:0|2:0,2:0:0:0:
8,172,69167,5,8,3:0:0:0:
31,201,69246,1,8,3:0:0:0:
64,219,69325,1,8,3:0:0:0:
101,226,69404,1,8,3:0:0:0:
138,218,69483,5,6,3:2:0:0:
94,134,69641,1,0,2:0:0:0:
200,283,69799,2,0,L|236:342,1,40.5,8|0,2:0|2:0,2:0:0:0:
299,321,69957,2,0,B|344:344|344:344|461:294,1,162,6|0,3:2|3:0,2:0:0:0:
498,172,70431,2,0,L|438:181,1,40.5,8|8,3:0|3:0,2:0:0:0:
354,118,70588,2,0,L|394:111,1,40.5,8|8,3:0|3:0,2:0:0:0:
507,184,70746,6,0,L|393:201,1,81.0000000000001,0|0,3:0|2:0,2:0:0:0:
351,198,70983,2,0,P|336:231|334:282,1,81.0000000000001,0|0,2:0|2:0,2:0:0:0:
254,306,71220,2,0,L|167:287,1,81.0000000000001,0|0,2:0|2:0,2:0:0:0:
192,213,71457,2,0,P|138:192|46:201,1,121.5,0|0,2:0|3:0,2:0:0:0:
75,192,71773,1,0,3:0:0:0:
75,192,71852,1,0,3:0:0:0:
75,192,71931,1,0,3:0:0:0:
75,192,72010,5,6,3:2:0:0:
337,325,72220,1,0,3:0:0:0:
321,38,72431,1,0,3:0:0:0:
185,219,72641,5,2,3:2:0:0:
311,246,72852,1,0,3:0:0:0:
271,113,73062,1,0,2:0:0:0:
256,188,73273,6,0,P|316:210|411:195,1,144,6|8,3:2|2:0,2:0:0:0:
215,59,73746,1,8,3:0:0:0:
176,152,73904,2,0,L|169:235,1,72,8|0,3:0|3:0,2:0:0:0:
310,375,74220,2,0,L|327:209,1,144,10|0,2:0|3:0,2:0:0:0:
238,303,74694,1,0,2:0:0:0:
238,303,74773,1,0,2:0:0:0:
238,303,74852,1,8,2:0:0:0:
398,274,75010,1,0,2:0:0:0:
238,303,75167,2,0,P|179:298|139:280,1,72,8|0,3:0|2:0,2:0:0:0:
35,105,75483,2,0,P|94:110|130:137,1,72,8|0,3:0|3:0,2:0:0:0:
80,316,75799,6,0,P|50:256|65:174,1,144,2|8,3:2|2:0,2:0:0:0:
207,235,76273,2,0,L|121:248,1,72,8|8,3:0|3:0,2:0:0:0:
60,182,76588,1,0,3:0:0:0:
292,169,76746,2,0,P|303:111|273:23,1,144,10|0,2:0|3:0,2:0:0:0:
270,35,77141,2,0,L|184:39,1,72,8|0,3:0|2:0,2:0:0:0:
191,49,77378,2,0,L|39:58,1,144,8|2,2:0|3:2,2:0:0:0:
270,117,77852,5,0,2:0:0:0:
59,179,78010,1,10,2:0:0:0:
238,244,78167,1,0,2:0:0:0:
165,150,78325,2,0,P|134:208|130:296,1,144,6|8,3:2|2:0,2:0:0:0:
330,168,78799,2,0,P|344:222|322:323,1,144,8|0,3:0|3:0,2:0:0:0:
253,325,79194,1,0,2:0:0:0:
253,325,79273,2,0,P|212:316|153:313,1,72,10|0,2:0|3:0,2:0:0:0:
375,251,79588,2,0,P|430:238|468:235,1,72,0|0,3:0|2:0,2:0:0:0:
257,153,79904,2,0,P|213:141|177:126,1,72,8|0,2:0|3:0,2:0:0:0:
164,32,80220,5,2,3:2:0:0:
257,153,80378,1,0,2:0:0:0:
86,150,80536,1,10,2:0:0:0:
271,62,80694,1,8,2:0:0:0:
271,62,80773,1,8,2:0:0:0:
271,62,80852,5,6,3:2:0:0:
375,251,81010,2,0,L|308:236,1,36,8|8,3:0|3:0,2:0:0:0:
147,201,81167,1,8,3:0:0:0:
380,143,81325,5,6,3:2:0:0:
299,316,81483,2,0,L|232:324,1,36,8|8,3:0|3:0,2:0:0:0:
107,336,81641,2,0,L|87:300,1,36,8|0,3:0|3:0,2:0:0:0:
9,169,81799,1,6,3:2:0:0:
14,194,82115,6,0,P|74:211|158:210,1,114.75,8|0,3:0|2:0,2:0:0:0:
126,213,82431,2,0,L|134:296,2,51.0000000000002,8|0|0,3:0|2:0|2:0,2:0:0:0:
271,176,82746,2,0,L|279:106,2,51.0000000000002,8|0|0,3:0|2:0|2:0,2:0:0:0:
387,250,83062,1,8,3:0:0:0:
409,252,83141,1,8,2:0:0:0:
431,255,83220,1,8,2:0:0:0:
454,258,83299,1,8,2:0:0:0:
475,263,83378,6,0,B|438:294|438:294|380:304|293:261,1,180,6|10,3:2|2:0,2:0:0:0:
149,209,83852,1,4,3:2:0:0:
305,24,84010,2,0,L|281:137,1,90,2|10,2:0|2:0,2:0:0:0:
83,275,84325,2,0,P|60:197|130:114,1,180,6|0,3:2|2:0,2:0:0:0:
288,260,84799,1,8,3:0:0:0:
288,260,84878,1,8,3:0:0:0:
288,260,84957,2,0,P|301:307|297:379,1,90,8|2,3:0|2:0,2:0:0:0:
160,234,85273,1,8,3:0:0:0:
243,115,85431,1,2,2:0:0:0:
69,182,85588,2,0,P|57:225|56:270,1,90,8|8,3:0|3:0,2:0:0:0:
221,39,85904,5,6,3:2:0:0:
149,209,86062,1,0,2:0:0:0:
339,187,86220,1,10,2:0:0:0:
198,49,86378,5,4,3:2:0:0:
168,222,86536,1,2,2:0:0:0:
339,161,86694,1,10,2:0:0:0:
138,129,86852,2,0,B|74:110|-5:122|-5:122|54:151,1,180,6|0,3:2|2:0,2:0:0:0:
165,227,87325,1,0,3:0:0:0:
247,112,87483,2,0,P|265:59|273:13,1,90,0|2,3:0|3:2,2:0:0:0:
380,262,87799,2,0,P|404:333|426:369,1,90,0|10,3:0|2:0,2:0:0:0:
497,136,88115,1,8,3:0:0:0:
497,136,88194,1,8,3:0:0:0:
497,136,88273,1,8,3:0:0:0:
497,136,88352,1,8,3:0:0:0:
497,136,88431,6,0,B|426:145|426:145|397:157|397:157|303:165,1,180,6|8,3:2|2:0,2:0:0:0:
77,299,88904,2,0,P|138:294|192:266,1,90,6|0,3:2|2:0,2:0:0:0:
283,231,89220,1,8,2:0:0:0:
105,46,89378,2,0,B|76:92|76:92|111:239,1,180,6|8,3:2|3:0,2:0:0:0:
234,316,89852,5,0,2:0:0:0:
374,250,90010,2,0,L|348:143,1,90,10|0,2:0|2:0,2:0:0:0:
204,228,90325,1,2,2:0:0:0:
405,267,90483,1,8,2:0:0:0:
203,349,90641,1,10,2:0:0:0:
352,162,90799,1,8,3:0:0:0:
138,25,90957,6,0,L|126:148,1,90,6|4,3:2|3:0,2:0:0:0:
241,255,91273,1,10,2:0:0:0:
241,255,91352,1,0,2:0:0:0:
241,255,91431,1,6,3:2:0:0:
103,139,91588,1,4,3:0:0:0:
47,320,91746,1,10,2:0:0:0:
227,148,91904,2,0,P|248:87|252:36,1,90,6|4,3:2|3:0,2:0:0:0:
272,267,92220,5,0,2:0:0:0:
103,139,92378,2,0,P|44:111|-5:101,1,90,4|10,3:0|2:0,2:0:0:0:
304,279,92694,1,4,3:0:0:0:
371,95,92852,2,0,P|383:42|376:-11,1,90,2|10,2:0|2:0,2:0:0:0:
285,132,93167,1,8,2:0:0:0:
312,164,93246,1,0,2:0:0:0:
350,182,93325,1,8,3:0:0:0:
392,183,93404,1,8,3:0:0:0:
431,166,93483,6,0,B|467:204|467:204|479:273|429:338,1,180,6|10,3:2|2:0,2:0:0:0:
220,351,93957,1,4,3:2:0:0:
292,250,94115,2,0,P|308:207|311:150,1,90,2|10,2:0|2:0,2:0:0:0:
86,24,94431,2,0,B|62:160|62:160|110:307,1,270,6|8,3:2|3:0,2:0:0:0:
102,285,94983,1,8,3:0:0:0:
102,285,95062,1,8,3:0:0:0:
328,360,95220,1,2,2:0:0:0:
265,235,95378,2,0,P|198:220|148:220,1,90,8|2,3:0|2:0,2:0:0:0:
356,127,95694,2,0,P|403:121|446:108,1,90,8|8,3:0|3:0,2:0:0:0:
460,103,95931,1,8,3:0:0:0:
460,103,96010,5,6,3:2:0:0:
472,277,96167,1,0,2:0:0:0:
308,226,96325,1,10,2:0:0:0:
477,112,96483,5,4,3:2:0:0:
297,204,96641,1,2,2:0:0:0:
460,292,96799,1,10,2:0:0:0:
357,99,96957,2,0,P|279:75|181:99,1,180,6|0,3:2|2:0,2:0:0:0:
76,110,97431,1,0,3:0:0:0:
29,207,97588,2,0,B|74:239|74:239|146:242|210:207,2,180,4|4|4,3:0|3:0|3:0,2:0:0:0:
31,189,98299,1,8,2:0:0:0:
27,170,98378,1,8,2:0:0:0:
23,153,98457,1,8,2:0:0:0:
17,135,98536,6,0,P|1:189|6:238,1,90,6|8,3:2|2:0,2:0:0:0:
58,357,98852,1,8,2:0:0:0:
277,222,99010,2,0,P|217:174|93:195,1,180,6|8,3:2|2:0,2:0:0:0:
377,303,99483,2,0,P|417:233|371:116,1,180,6|8,3:2|3:0,2:0:0:0:
310,79,99957,1,0,2:0:0:0:
182,263,100115,6,0,P|193:318|219:369,1,90,10|0,2:0|2:0,2:0:0:0:
419,207,100431,2,0,P|436:152|430:84,1,90,2|8,2:0|2:0,2:0:0:0:
210,23,100746,1,10,2:0:0:0:
203,33,100825,1,0,2:0:0:0:
199,44,100904,1,8,3:0:0:0:
197,56,100983,1,8,3:0:0:0:
198,68,101062,6,0,L|309:52,1,90,6|4,3:2|3:0,2:0:0:0:
512,227,101378,2,0,L|405:243,1,90,10|6,2:0|3:2,2:0:0:0:
238,181,101694,1,4,3:0:0:0:
384,110,101852,1,10,2:0:0:0:
169,53,102010,1,6,3:2:0:0:
423,241,102167,1,4,3:0:0:0:
158,326,102325,5,0,2:0:0:0:
158,326,102404,1,0,2:0:0:0:
158,326,102483,2,0,P|136:269|136:220,1,90,4|10,3:0|2:0,2:0:0:0:
318,157,102799,1,4,3:0:0:0:
250,284,102957,1,2,2:0:0:0:
117,154,103115,1,10,2:0:0:0:
435,66,103273,1,8,2:0:0:0:
375,379,103431,1,8,3:0:0:0:
375,379,103510,1,8,3:0:0:0:
375,379,103588,1,6,3:2:0:0:
