osu file format v14

[General]
AudioFilename: neko.mp3
AudioLeadIn: 0
PreviewTime: 41525
Countdown: 0
SampleSet: Normal
StackLeniency: 0.7
Mode: 1
LetterboxInBreaks: 0
WidescreenStoryboard: 1

[Editor]
DistanceSpacing: 0.8
BeatDivisor: 4
GridSize: 32
TimelineZoom: 2.3

[Metadata]
Title:BUZRA
TitleUnicode:刃図羅
Artist:Nekomata Master vs. HuMeR
ArtistUnicode:猫叉Master vs. HuΣeR
Creator:ZTH
Version:Oni
Source:beatmania IIDX 24 SINOBUZ
Tags:Last Arts 25 CANNON BALLERS konami naoyuki sato Electronic Instrumental 佐藤直之 Aritomo Hamada 濵田有共
BeatmapID:2817314
BeatmapSetID:1349645

[Difficulty]
HPDrainRate:6
CircleSize:5
OverallDifficulty:5.4
ApproachRate:5
SliderMultiplier:1.4
SliderTickRate:1

[Events]
//Background and Video events
0,0,"jpg.jpg",0,-20
//Break Periods
//Storyboard Layer 0 (Background)
//Storyboard Layer 1 (Fail)
//Storyboard Layer 2 (Pass)
//Storyboard Layer 3 (Foreground)
//Storyboard Layer 4 (Overlay)
//Storyboard Sound Samples

[TimingPoints]
798,363.636363636364,4,1,0,80,1,0
798,-114.285714285714,4,1,0,80,0,0
13146,-114.285714285714,4,1,0,80,0,0
13327,-111.888111888112,4,1,0,80,0,0
13418,-110.726643598616,4,1,0,80,0,0
13509,-109.58904109589,4,1,0,80,0,0
13600,-108.474576271186,4,1,0,80,0,0
13691,-107.38255033557,4,1,0,80,0,0
13873,-105.263157894737,4,1,0,85,0,0
26964,-114.285714285714,4,1,0,85,0,0
27691,-114.285714285714,4,1,0,85,0,0
27873,-112.945726190194,4,1,0,85,0,0
28055,-111.636921009064,4,1,0,85,0,0
28146,-110.993704437084,4,1,0,85,0,0
28237,-110.357979212971,4,1,0,85,0,0
28327,-109.729494849298,4,1,0,85,0,0
28418,-109.108128337345,4,1,0,85,0,0
28600,-107.886154214627,4,1,0,85,0,0
28691,-107.285431818499,4,1,0,85,0,0
28782,-106.691248330282,4,1,0,85,0,0
28964,-105.522632494217,4,1,0,85,0,0
29146,-104.379230620691,4,1,0,85,0,0
29237,-103.816825592924,4,1,0,85,0,0
29327,-103.260342039557,4,1,0,85,0,0
29509,-102.165291181296,4,1,0,85,0,0
29600,-101.626326096523,4,1,0,85,0,0
29691,-101.093119905539,4,1,0,85,0,0
29782,-100.56547969231,4,1,0,85,0,0
29873,-100.043318757022,4,1,0,90,0,0
40055,-100,4,1,0,90,0,0
40237,-99.3788819875776,4,1,0,90,0,0
40327,-99.0712074303406,4,1,0,90,0,0
40509,-98.4615384615385,4,1,0,90,0,0
40600,-98.159509202454,4,1,0,90,0,0
40782,-97.5609756097561,4,1,0,90,0,0
40873,-97.2644376899696,4,1,0,90,0,0
41055,-96.6767371601208,4,1,0,90,0,0
41146,-96.3855421686747,4,1,0,90,0,0
41237,-96.0960960960961,4,1,0,90,0,0
41327,-95.8083832335329,4,1,0,90,0,0
41509,-95.2380952380952,4,1,0,90,0,0
46782,-80,4,1,0,90,0,0
47327,-95.2380952380952,4,1,0,90,0,0
52782,-80,4,1,0,90,0,0
53146,-95.2380952380952,4,1,0,90,0,0
58418,-80,4,1,0,90,0,0
58964,-95.2380952380952,4,1,0,90,0,0
63418,-94.6774245468265,4,1,0,90,0,0
63509,-94.1234051965532,4,1,0,90,0,0
63691,-93.0345064984603,4,1,0,90,0,0
63873,-91.9704296674533,4,1,0,90,0,0
63964,-91.4475507145254,4,1,0,90,0,0
64055,-90.9305009088503,4,1,0,90,0,0
64237,-89.9138265885975,4,1,0,90,0,0
64418,-88.9196353227916,4,1,0,90,0,0
64509,-88.4306999555193,4,1,0,90,0,0
64600,-87.9471121246527,4,1,0,90,0,0
64782,-86.9957076317855,4,1,0,90,0,0
64798,-86.9957076317855,4,1,0,90,0,1
73525,-86.9565217391304,4,1,0,90,0,0
74237,-102.564102564103,4,1,0,85,0,0
78237,-102.564102564103,4,1,0,85,0,0
78418,-100.418443654709,4,1,0,85,0,0
78600,-98.3606234883202,4,1,0,85,0,0
78782,-96.3855421686747,4,1,0,85,0,0
78873,-95.4274050330322,4,1,0,85,0,0
78964,-94.4882187364469,4,1,0,85,0,0
79055,-93.5672514619883,4,1,0,85,0,0
79146,-92.6640640419879,4,1,0,85,0,0
79327,-90.9090909090909,4,1,0,90,0,0
82237,-90.9090909090909,4,1,0,95,0,0
82252,-90.9090909090909,4,1,0,95,0,1
82600,-90.2680238163154,4,1,0,95,0,1
82691,-90.1090860595837,4,1,0,95,0,1
82873,-89.7930449899073,4,1,0,95,0,1
82964,-89.6358543417367,4,1,0,95,0,1
83146,-89.3231183415198,4,1,0,95,0,1
83237,-89.167567259096,4,1,0,95,0,1
83327,-89.0124777691337,4,1,0,95,0,1
83418,-88.8580057953191,4,1,0,95,0,1
83509,-88.7040690330547,4,1,0,95,0,1
83691,-88.3977900552486,4,1,0,95,0,1
83873,-88.0936188506249,4,1,0,95,0,1
84055,-87.7915337356527,4,1,0,95,0,1
84146,-87.6411899570208,4,1,0,95,0,1
84327,-87.342194490105,4,1,0,95,0,1
84418,-87.1934604904632,4,1,0,95,0,1
84600,-86.8975069974217,4,1,0,95,0,1
84691,-86.7502823721691,4,1,0,95,0,1
84782,-86.603480767099,4,1,0,95,0,1
84873,-86.4572499159203,4,1,0,95,0,1
84964,-86.3115120568551,4,1,0,95,0,1
85146,-86.0215053763441,4,1,0,95,0,1
85237,-85.8772316272104,4,1,0,95,0,1
85327,-85.7334410145352,4,1,0,95,0,1
85509,-85.4472995235459,4,1,0,95,0,1
85600,-85.3048710787483,4,1,0,95,0,1
85782,-85.0215784766174,4,1,0,95,0,1
85873,-84.8806366047745,4,1,0,95,0,1
86055,-84.6001500806662,4,1,0,95,0,1
86146,-84.46060081893,4,1,0,95,0,1
86237,-84.3214400752822,4,1,0,95,0,1
86327,-84.1828080185808,4,1,0,95,0,1
86418,-84.0446310608786,4,1,0,95,0,1
86600,-83.7696335078534,4,1,0,95,0,1
86691,-83.6328084817049,4,1,0,95,0,1
86782,-83.4964296926663,4,1,0,95,0,1
86873,-83.3604949612749,4,1,0,95,0,1
86964,-83.2250021222376,4,1,0,95,0,1
87146,-82.9552647143975,4,1,0,95,0,1
87327,-82.687338501292,4,1,0,95,0,1
87418,-82.5540233528821,4,1,0,95,0,1
87509,-82.4211373952118,4,1,0,95,0,1
87600,-82.2886785590265,4,1,0,95,0,1
87691,-82.1565772912648,4,1,0,95,0,1
87873,-81.8937772194442,4,1,0,95,0,1
88055,-81.6326530612245,4,1,0,95,0,1
88070,-81.6326530612245,4,1,0,95,0,0
88418,-102.564102564103,4,1,0,80,0,0
93327,-85.1063829787234,4,1,0,85,0,0
93873,-102.564102564103,4,1,0,85,0,0
97868,-102.564102564103,4,1,0,85,0,0
98050,-101.271155544393,4,1,0,85,0,0
98141,-100.63682985935,4,1,0,85,0,0
98232,-100.010401081713,4,1,0,85,0,0
98323,-99.3917226573371,4,1,0,85,0,0
98414,-98.7806516362027,4,1,0,85,0,0
98596,-97.5806821475166,4,1,0,85,0,0
98778,-96.4096097242589,4,1,0,85,0,0
98868,-95.8345512307552,4,1,0,85,0,0
98959,-95.2663122124743,4,1,0,85,0,0
99141,-94.1498130655462,4,1,0,85,0,0
99323,-93.0591809861481,4,1,0,85,0,0
99687,-90.9090909090909,4,1,0,90,0,0
111870,-102.564102564103,4,1,0,85,0,0
112782,-102.564102564103,4,1,0,90,0,0
113055,-100.168684063964,4,1,0,90,0,0
113327,-97.8826035206415,4,1,0,90,0,0
113600,-95.6985419370151,4,1,0,90,0,0
113873,-93.6098192956048,4,1,0,90,0,0
114237,-90.9090909090909,4,1,0,95,0,0
114252,-90.9090909090909,4,1,0,95,0,1
114509,-90.6675854315324,4,1,0,95,0,1
114600,-90.587423204512,4,1,0,95,0,1
114782,-90.4274414730992,4,1,0,95,0,1
114964,-90.2680238163154,4,1,0,95,0,1
115055,-90.1884849146231,4,1,0,95,0,1
115146,-90.1090860595837,4,1,0,95,0,1
115327,-89.9507879239268,4,1,0,95,0,1
115418,-89.8718876241917,4,1,0,95,0,1
115509,-89.7930449899073,4,1,0,95,0,1
115600,-89.714421054898,4,1,0,95,0,1
115691,-89.6358543417367,4,1,0,95,0,1
115873,-89.4792130840085,4,1,0,95,0,1
115964,-89.4010576145116,4,1,0,95,0,1
116055,-89.3231183415198,4,1,0,95,0,1
116237,-89.167567259096,4,1,0,95,0,1
116418,-89.0124777691337,4,1,0,95,0,1
116509,-88.9352142538247,4,1,0,95,0,1
116600,-88.8580057953191,4,1,0,95,0,1
116691,-88.7810100970643,4,1,0,95,0,1
116782,-88.7040690330547,4,1,0,95,0,1
116964,-88.5506647055646,4,1,0,95,0,1
117146,-88.3977900552486,4,1,0,95,0,1
117418,-88.169426369712,4,1,0,95,0,1
117509,-88.0936188506249,4,1,0,95,0,1
117600,-88.0178641056989,4,1,0,95,0,1
117691,-87.942316875515,4,1,0,95,0,1
117873,-87.7915337356527,4,1,0,95,0,1
118055,-87.6411899570208,4,1,0,95,0,1
118237,-87.4914367756256,4,1,0,95,0,1
118327,-87.4167901428827,4,1,0,95,0,1
118418,-87.342194490105,4,1,0,95,0,1
118509,-87.2678021953088,4,1,0,95,0,1
118600,-87.1934604904632,4,1,0,95,0,1
118782,-87.0452321844523,4,1,0,95,0,1
118964,-86.8975069974217,4,1,0,95,0,1
119055,-86.8237945818479,4,1,0,95,0,1
119146,-86.7502823721691,4,1,0,95,0,1
119327,-86.603480767099,4,1,0,95,0,1
119600,-86.3843568295904,4,1,0,95,0,1
119691,-86.3115120568551,4,1,0,95,0,1
119873,-86.1662647010418,4,1,0,95,0,1
120055,-86.0215053763441,4,1,0,95,0,1
120327,-85.8052392679097,4,1,0,95,0,1
120418,-85.7334410145352,4,1,0,95,0,1
120600,-85.5901311155219,4,1,0,95,0,1
120782,-85.4472995235459,4,1,0,95,0,1
120873,-85.3760258996712,4,1,0,95,0,1
120964,-85.3048710787483,4,1,0,95,0,1
121146,-85.1629891868553,4,1,0,95,0,1
121237,-85.0922612842975,4,1,0,95,0,1
121327,-85.0215784766174,4,1,0,95,0,1
121418,-84.9510851651619,4,1,0,95,0,1
121509,-84.8806366047745,4,1,0,95,0,1
121691,-84.7401612435788,4,1,0,95,0,1
121782,-84.6700619361503,4,1,0,95,0,1
121873,-84.6001500806662,4,1,0,95,0,1
121964,-84.5302821282696,4,1,0,95,0,1
122055,-84.46060081893,4,1,0,95,0,1
122237,-84.3214400752822,4,1,0,95,0,1
122418,-84.1828080185808,4,1,0,95,0,1
122600,-84.0446310608786,4,1,0,95,0,1
122691,-83.9757478040342,4,1,0,95,0,1
122782,-83.9069069648606,4,1,0,95,0,1
122873,-83.8382491890745,4,1,0,95,0,1
122964,-83.7696335078534,4,1,0,95,0,1
123237,-83.56452852893,4,1,0,95,0,1
123327,-83.4964296926663,4,1,0,95,0,1
123418,-83.4283721539454,4,1,0,95,0,1
123509,-83.3604949612749,4,1,0,95,0,1
123691,-83.2250021222376,4,1,0,95,0,1
123873,-83.0898799849773,4,1,0,95,0,1
124055,-82.9552647143975,4,1,0,95,0,1
124146,-82.8881548682286,4,1,0,95,0,1
124237,-82.8210849230841,4,1,0,95,0,1
124327,-82.7541919135914,4,1,0,95,0,1
124418,-82.687338501292,4,1,0,95,0,1
124600,-82.5540233528821,4,1,0,95,0,1
124691,-82.4874928338991,4,1,0,95,0,1
124782,-82.4211373952118,4,1,0,95,0,1
124964,-82.2886785590265,4,1,0,95,0,1
125146,-82.1565772912648,4,1,0,95,0,1
125237,-82.0907529692225,4,1,0,95,0,1
125327,-82.0249667593822,4,1,0,95,0,1
125509,-81.8937772194442,4,1,0,95,0,1
125600,-81.828373170113,4,1,0,95,0,1
125691,-81.7630066546911,4,1,0,95,0,1
125782,-81.6978112339392,4,1,0,95,0,1
125873,-81.6326530612245,4,1,0,95,0,1
125888,-81.6326530612245,4,1,0,95,0,0
126237,-81.6326530612245,4,1,0,85,0,0

[HitObjects]
250,219,2252,5,4,0:0:0:0:
250,219,2979,1,0,0:0:0:0:
250,219,3707,1,8,0:0:0:0:
245,189,5161,1,0,0:0:0:0:
234,213,5888,1,8,0:0:0:0:
249,213,6616,1,0,0:0:0:0:
260,211,8070,1,4,0:0:0:0:
249,213,8798,1,0,0:0:0:0:
249,213,9525,1,8,0:0:0:0:
249,213,10252,1,8,0:0:0:0:
249,213,10979,1,0,0:0:0:0:
249,213,11707,1,8,0:0:0:0:
249,213,12434,1,0,0:0:0:0:
259,184,13161,5,8,0:0:0:0:
265,191,13343,1,0,0:0:0:0:
265,190,13434,1,8,0:0:0:0:
265,190,13525,1,0,0:0:0:0:
276,194,13616,1,0,0:0:0:0:
278,160,13707,1,8,0:0:0:0:
265,190,13888,1,4,0:0:0:0:
284,205,14070,1,8,0:0:0:0:
295,182,14161,1,8,0:0:0:0:
279,193,14252,1,0,0:0:0:0:
280,193,14434,1,8,0:0:0:0:
280,191,14616,1,0,0:0:0:0:
292,208,14798,1,8,0:0:0:0:
275,189,14888,1,8,0:0:0:0:
292,208,14979,1,0,0:0:0:0:
289,212,15343,1,0,0:0:0:0:
289,212,15525,1,8,0:0:0:0:
289,212,15616,1,8,0:0:0:0:
289,212,15707,1,0,0:0:0:0:
289,212,15888,1,8,0:0:0:0:
289,212,16070,1,8,0:0:0:0:
289,212,16252,1,0,0:0:0:0:
289,212,16343,1,8,0:0:0:0:
289,212,16434,1,0,0:0:0:0:
289,212,16616,1,8,0:0:0:0:
265,190,16798,1,0,0:0:0:0:
284,205,16979,1,8,0:0:0:0:
286,216,17070,1,8,0:0:0:0:
279,193,17161,1,0,0:0:0:0:
280,193,17343,1,8,0:0:0:0:
280,191,17525,1,0,0:0:0:0:
292,208,17707,1,8,0:0:0:0:
265,209,17798,1,0,0:0:0:0:
292,208,17888,1,0,0:0:0:0:
289,212,18252,1,0,0:0:0:0:
289,212,18434,1,8,0:0:0:0:
289,212,18525,1,0,0:0:0:0:
289,212,18616,1,0,0:0:0:0:
289,212,18798,1,8,0:0:0:0:
289,212,18979,1,8,0:0:0:0:
289,212,19161,1,0,0:0:0:0:
289,212,19252,1,8,0:0:0:0:
289,212,19343,1,0,0:0:0:0:
289,212,19525,1,8,0:0:0:0:
265,190,19707,1,4,0:0:0:0:
284,205,19888,1,8,0:0:0:0:
273,218,19979,1,8,0:0:0:0:
279,193,20070,1,0,0:0:0:0:
280,193,20252,1,8,0:0:0:0:
280,191,20434,1,0,0:0:0:0:
292,208,20616,1,8,0:0:0:0:
292,208,20707,1,8,0:0:0:0:
292,208,20798,1,0,0:0:0:0:
289,212,21161,1,0,0:0:0:0:
289,212,21343,1,8,0:0:0:0:
289,212,21434,1,8,0:0:0:0:
289,212,21525,1,0,0:0:0:0:
289,212,21707,1,8,0:0:0:0:
289,212,21888,1,8,0:0:0:0:
289,212,22070,1,0,0:0:0:0:
289,212,22161,1,8,0:0:0:0:
289,212,22252,1,0,0:0:0:0:
289,212,22434,1,8,0:0:0:0:
265,190,22616,1,0,0:0:0:0:
284,205,22798,1,8,0:0:0:0:
272,232,22888,1,8,0:0:0:0:
279,193,22979,1,0,0:0:0:0:
280,193,23161,1,8,0:0:0:0:
280,191,23343,1,0,0:0:0:0:
292,208,23525,1,8,0:0:0:0:
292,208,23616,1,0,0:0:0:0:
292,208,23707,1,0,0:0:0:0:
289,212,24070,1,0,0:0:0:0:
289,212,24252,1,8,0:0:0:0:
289,212,24343,1,0,0:0:0:0:
289,212,24434,1,0,0:0:0:0:
289,212,24616,1,8,0:0:0:0:
289,212,24798,1,8,0:0:0:0:
289,212,24979,1,0,0:0:0:0:
289,212,25070,1,8,0:0:0:0:
289,212,25161,1,0,0:0:0:0:
289,212,25343,1,8,0:0:0:0:
287,207,25525,1,4,0:0:0:0:
285,207,26979,1,8,0:0:0:0:
285,207,27707,1,0,0:0:0:0:
285,207,27888,1,0,0:0:0:0:
278,203,28070,1,0,0:0:0:0:
278,203,28161,1,0,0:0:0:0:
278,203,28252,1,0,0:0:0:0:
278,203,28343,1,0,0:0:0:0:
278,203,28434,1,8,0:0:0:0:
293,226,28616,1,0,0:0:0:0:
293,226,28707,1,8,0:0:0:0:
293,226,28798,1,0,0:0:0:0:
293,226,28979,1,8,0:0:0:0:
292,213,29161,1,0,0:0:0:0:
291,228,29252,1,0,0:0:0:0:
290,214,29343,1,8,0:0:0:0:
283,233,29525,1,8,0:0:0:0:
283,233,29616,1,8,0:0:0:0:
283,233,29707,1,8,0:0:0:0:
283,233,29798,1,8,0:0:0:0:
283,233,29888,1,0,0:0:0:0:
272,204,30070,1,0,0:0:0:0:
231,192,30161,1,0,0:0:0:0:
273,214,30252,1,8,0:0:0:0:
273,214,30434,1,0,0:0:0:0:
268,179,30525,1,8,0:0:0:0:
273,214,30616,1,0,0:0:0:0:
273,214,30798,1,8,0:0:0:0:
274,214,30979,1,0,0:0:0:0:
273,214,31343,1,0,0:0:0:0:
270,218,31525,1,0,0:0:0:0:
273,214,31616,1,0,0:0:0:0:
273,214,31707,1,8,0:0:0:0:
287,211,31888,1,8,0:0:0:0:
287,211,32070,1,0,0:0:0:0:
287,211,32161,1,0,0:0:0:0:
287,211,32252,1,8,0:0:0:0:
287,211,32434,1,8,0:0:0:0:
283,233,32798,1,0,0:0:0:0:
293,227,32979,1,0,0:0:0:0:
273,214,33070,1,0,0:0:0:0:
273,214,33161,1,8,0:0:0:0:
273,214,33343,1,0,0:0:0:0:
273,214,33434,1,8,0:0:0:0:
273,214,33525,1,0,0:0:0:0:
273,214,33707,1,8,0:0:0:0:
274,214,33888,1,0,0:0:0:0:
273,214,34252,1,0,0:0:0:0:
270,218,34434,1,0,0:0:0:0:
273,214,34525,1,8,0:0:0:0:
298,229,34707,1,8,0:0:0:0:
287,211,34798,1,8,0:0:0:0:
287,211,34979,1,0,0:0:0:0:
287,211,35070,1,0,0:0:0:0:
287,211,35161,1,8,0:0:0:0:
274,202,35343,1,8,0:0:0:0:
274,202,35434,1,8,0:0:0:0:
274,202,35525,1,0,0:0:0:0:
273,202,35616,1,8,0:0:0:0:
273,202,35707,1,0,0:0:0:0:
270,218,35888,1,0,0:0:0:0:
273,214,35979,1,0,0:0:0:0:
273,214,36070,1,8,0:0:0:0:
287,211,36252,1,8,0:0:0:0:
287,211,36434,1,0,0:0:0:0:
289,232,36525,1,0,0:0:0:0:
287,211,36616,1,8,0:0:0:0:
287,211,36798,1,0,0:0:0:0:
285,222,37161,1,0,0:0:0:0:
326,238,37252,1,8,0:0:0:0:
306,227,37343,1,0,0:0:0:0:
300,233,37434,1,0,0:0:0:0:
306,227,37525,1,8,0:0:0:0:
288,224,37707,1,0,0:0:0:0:
320,224,37888,1,8,0:0:0:0:
320,224,37979,1,8,0:0:0:0:
320,224,38070,1,0,0:0:0:0:
320,224,38161,1,8,0:0:0:0:
320,224,38252,1,0,0:0:0:0:
302,240,38434,1,8,0:0:0:0:
320,224,38616,1,8,0:0:0:0:
320,224,38707,1,0,0:0:0:0:
320,224,38888,1,8,0:0:0:0:
320,224,38979,1,8,0:0:0:0:
320,224,39161,1,8,0:0:0:0:
320,224,39252,1,0,0:0:0:0:
320,224,39434,1,8,0:0:0:0:
320,224,39525,1,8,0:0:0:0:
320,224,39707,1,8,0:0:0:0:
320,224,39798,1,0,0:0:0:0:
320,224,39888,1,8,0:0:0:0:
320,224,39979,1,0,0:0:0:0:
320,224,40070,1,8,0:0:0:0:
320,224,40252,1,0,0:0:0:0:
320,224,40343,1,8,0:0:0:0:
320,224,40525,1,0,0:0:0:0:
320,224,40616,1,8,0:0:0:0:
320,224,40798,1,0,0:0:0:0:
320,224,40888,1,8,0:0:0:0:
320,224,41070,1,0,0:0:0:0:
320,224,41161,1,8,0:0:0:0:
320,224,41252,1,8,0:0:0:0:
320,224,41343,1,8,0:0:0:0:
320,224,41525,1,4,0:0:0:0:
320,192,41888,1,0,0:0:0:0:
320,224,42070,1,8,0:0:0:0:
320,224,42161,1,8,0:0:0:0:
320,224,42252,1,0,0:0:0:0:
288,192,42434,1,8,0:0:0:0:
288,192,42616,1,0,0:0:0:0:
288,192,42707,1,0,0:0:0:0:
288,192,42798,1,8,0:0:0:0:
288,192,42979,1,0,0:0:0:0:
288,192,43161,1,8,0:0:0:0:
288,192,43252,1,8,0:0:0:0:
288,192,43343,1,0,0:0:0:0:
288,224,43525,1,8,0:0:0:0:
271,209,43616,1,0,0:0:0:0:
288,224,43707,1,0,0:0:0:0:
288,192,43888,5,8,0:0:0:0:
290,232,43979,1,8,0:0:0:0:
288,224,44070,1,0,0:0:0:0:
288,224,44252,1,8,0:0:0:0:
288,224,44434,1,0,0:0:0:0:
288,224,44798,1,0,0:0:0:0:
288,224,44979,1,8,0:0:0:0:
288,224,45070,1,8,0:0:0:0:
288,224,45161,1,0,0:0:0:0:
288,224,45343,1,8,0:0:0:0:
288,224,45525,1,0,0:0:0:0:
320,224,45616,1,0,0:0:0:0:
320,224,45707,1,8,0:0:0:0:
320,224,45888,1,0,0:0:0:0:
288,224,46070,1,8,0:0:0:0:
288,224,46161,1,0,0:0:0:0:
288,224,46252,1,8,0:0:0:0:
260,228,46343,1,8,0:0:0:0:
288,224,46434,1,0,0:0:0:0:
288,224,46616,1,8,0:0:0:0:
256,224,46798,1,4,0:0:0:0:
256,224,46979,1,4,0:0:0:0:
256,224,47343,1,4,0:0:0:0:
256,224,47707,1,0,0:0:0:0:
256,224,47888,1,8,0:0:0:0:
256,224,47979,1,8,0:0:0:0:
256,224,48070,1,0,0:0:0:0:
256,224,48252,1,8,0:0:0:0:
256,224,48434,1,0,0:0:0:0:
256,224,48525,1,0,0:0:0:0:
256,224,48616,1,8,0:0:0:0:
256,224,48798,1,0,0:0:0:0:
256,192,48979,1,8,0:0:0:0:
256,224,49070,1,8,0:0:0:0:
256,224,49161,1,0,0:0:0:0:
224,192,49343,1,0,0:0:0:0:
262,225,49434,1,8,0:0:0:0:
224,192,49525,1,0,0:0:0:0:
224,224,49707,1,8,0:0:0:0:
224,224,49798,1,0,0:0:0:0:
224,192,49888,1,0,0:0:0:0:
224,224,50070,1,8,0:0:0:0:
224,224,50252,1,0,0:0:0:0:
224,224,50616,1,0,0:0:0:0:
224,224,50798,1,0,0:0:0:0:
224,224,50888,1,8,0:0:0:0:
224,224,50979,1,0,0:0:0:0:
224,224,51161,5,0,0:0:0:0:
224,224,51252,1,0,0:0:0:0:
224,224,51343,1,8,0:0:0:0:
224,224,51525,1,0,0:0:0:0:
224,224,51707,1,8,0:0:0:0:
224,224,51798,1,8,0:0:0:0:
224,224,51888,1,0,0:0:0:0:
224,224,51979,1,8,0:0:0:0:
224,224,52070,1,0,0:0:0:0:
224,224,52252,1,8,0:0:0:0:
224,224,52434,1,0,0:0:0:0:
224,224,52616,1,0,0:0:0:0:
224,224,52798,1,12,0:0:0:0:
320,224,53161,1,4,0:0:0:0:
320,224,53343,1,0,0:0:0:0:
320,224,53434,1,8,0:0:0:0:
320,192,53525,1,0,0:0:0:0:
320,224,53707,1,8,0:0:0:0:
320,224,53798,1,8,0:0:0:0:
320,224,53888,1,0,0:0:0:0:
288,192,54070,1,8,0:0:0:0:
288,192,54252,1,0,0:0:0:0:
320,224,54343,1,0,0:0:0:0:
288,192,54434,1,8,0:0:0:0:
288,192,54616,1,0,0:0:0:0:
288,192,54798,1,8,0:0:0:0:
288,192,54888,1,8,0:0:0:0:
288,192,54979,1,0,0:0:0:0:
288,224,55161,1,8,0:0:0:0:
288,224,55252,1,0,0:0:0:0:
288,224,55343,1,0,0:0:0:0:
288,192,55525,5,8,0:0:0:0:
288,224,55616,1,8,0:0:0:0:
288,224,55707,1,0,0:0:0:0:
288,224,55888,1,8,0:0:0:0:
288,224,56070,1,0,0:0:0:0:
288,224,56252,1,0,0:0:0:0:
288,224,56343,1,8,0:0:0:0:
288,224,56434,1,0,0:0:0:0:
288,224,56616,1,8,0:0:0:0:
288,224,56707,1,8,0:0:0:0:
288,224,56798,1,0,0:0:0:0:
320,224,56979,1,8,0:0:0:0:
288,224,57161,1,0,0:0:0:0:
320,224,57252,1,0,0:0:0:0:
320,224,57343,1,8,0:0:0:0:
320,224,57525,1,0,0:0:0:0:
288,224,57707,1,8,0:0:0:0:
288,224,57798,1,0,0:0:0:0:
288,224,57888,1,0,0:0:0:0:
288,224,57979,1,8,0:0:0:0:
288,224,58070,1,0,0:0:0:0:
288,224,58252,1,8,0:0:0:0:
256,224,58434,1,4,0:0:0:0:
256,224,58616,1,4,0:0:0:0:
256,224,58979,1,4,0:0:0:0:
256,224,59161,1,0,0:0:0:0:
256,224,59252,1,8,0:0:0:0:
256,224,59343,1,0,0:0:0:0:
256,224,59525,1,8,0:0:0:0:
256,192,59616,1,8,0:0:0:0:
256,224,59707,1,0,0:0:0:0:
256,224,59888,1,8,0:0:0:0:
256,224,60070,1,0,0:0:0:0:
256,224,60161,1,0,0:0:0:0:
256,224,60252,1,8,0:0:0:0:
256,224,60434,1,0,0:0:0:0:
256,224,60616,1,8,0:0:0:0:
256,224,60707,1,8,0:0:0:0:
256,224,60798,1,0,0:0:0:0:
224,192,60979,1,0,0:0:0:0:
224,192,61070,1,8,0:0:0:0:
224,192,61161,1,0,0:0:0:0:
224,224,61343,1,8,0:0:0:0:
224,224,61434,1,0,0:0:0:0:
224,192,61525,1,0,0:0:0:0:
224,224,61707,1,8,0:0:0:0:
224,224,61888,1,0,0:0:0:0:
259,222,62070,1,8,0:0:0:0:
259,222,62161,1,8,0:0:0:0:
224,224,62252,1,0,0:0:0:0:
224,224,62434,1,8,0:0:0:0:
256,224,62616,1,0,0:0:0:0:
256,224,62798,1,0,0:0:0:0:
260,183,62888,1,0,0:0:0:0:
256,192,62979,1,8,0:0:0:0:
237,167,63343,5,8,0:0:0:0:
257,175,63434,1,8,0:0:0:0:
237,167,63525,1,0,0:0:0:0:
277,186,63707,1,8,0:0:0:0:
274,200,63888,1,8,0:0:0:0:
274,200,63979,1,8,0:0:0:0:
274,200,64070,1,0,0:0:0:0:
283,170,64252,1,8,0:0:0:0:
305,200,64434,5,8,0:0:0:0:
284,185,64525,1,8,0:0:0:0:
284,185,64616,1,8,0:0:0:0:
286,172,64798,5,4,0:0:0:0:
261,180,65161,1,8,0:0:0:0:
279,171,65282,1,0,0:0:0:0:
279,171,65404,1,0,0:0:0:0:
281,176,65525,1,8,0:0:0:0:
280,172,65767,1,0,0:0:0:0:
279,171,65888,1,8,0:0:0:0:
284,171,66131,1,8,0:0:0:0:
284,171,66252,1,0,0:0:0:0:
284,171,66494,1,0,0:0:0:0:
284,171,66616,1,8,0:0:0:0:
284,171,66737,1,0,0:0:0:0:
284,171,66858,1,0,0:0:0:0:
284,171,66979,1,8,0:0:0:0:
284,171,67222,1,0,0:0:0:0:
284,171,67343,1,8,0:0:0:0:
284,171,67585,1,8,0:0:0:0:
256,176,67646,1,8,0:0:0:0:
286,172,67707,5,0,0:0:0:0:
261,180,68070,1,8,0:0:0:0:
279,171,68191,1,0,0:0:0:0:
279,171,68313,1,0,0:0:0:0:
281,176,68434,1,8,0:0:0:0:
280,172,68676,1,0,0:0:0:0:
279,171,68798,1,8,0:0:0:0:
284,171,69040,1,8,0:0:0:0:
284,171,69161,1,0,0:0:0:0:
284,171,69404,1,0,0:0:0:0:
284,171,69525,1,8,0:0:0:0:
284,171,69646,1,0,0:0:0:0:
284,171,69767,1,0,0:0:0:0:
284,171,69888,1,8,0:0:0:0:
284,171,70131,1,0,0:0:0:0:
284,171,70252,1,8,0:0:0:0:
284,171,70494,1,8,0:0:0:0:
288,185,70555,1,8,0:0:0:0:
273,180,70616,1,0,0:0:0:0:
284,186,70979,1,8,0:0:0:0:
284,186,71101,1,0,0:0:0:0:
283,197,71161,1,0,0:0:0:0:
284,186,71222,1,0,0:0:0:0:
284,186,71343,1,8,0:0:0:0:
284,186,71707,1,0,0:0:0:0:
283,197,71767,1,0,0:0:0:0:
284,186,71828,1,0,0:0:0:0:
284,186,71949,1,8,0:0:0:0:
284,186,72070,1,0,0:0:0:0:
284,186,72434,1,8,0:0:0:0:
285,201,72494,1,8,0:0:0:0:
284,186,72555,1,8,0:0:0:0:
284,186,72676,1,0,0:0:0:0:
284,186,72798,1,8,0:0:0:0:
284,186,73161,1,0,0:0:0:0:
284,186,73282,1,8,0:0:0:0:
289,191,73343,1,8,0:0:0:0:
284,186,73404,1,8,0:0:0:0:
284,186,73525,1,0,0:0:0:0:
277,193,74252,1,8,0:0:0:0:
277,193,74979,1,0,0:0:0:0:
277,193,75707,1,8,0:0:0:0:
277,193,76434,1,0,0:0:0:0:
301,196,77161,1,8,0:0:0:0:
301,196,77888,1,0,0:0:0:0:
295,222,78252,1,0,0:0:0:0:
306,173,78434,1,0,0:0:0:0:
294,211,78616,1,8,0:0:0:0:
306,208,78798,1,8,0:0:0:0:
306,208,78888,1,8,0:0:0:0:
306,208,78979,1,0,0:0:0:0:
294,209,79070,1,0,0:0:0:0:
306,208,79161,1,8,0:0:0:0:
306,208,79343,1,4,0:0:0:0:
271,209,79525,1,0,0:0:0:0:
271,209,79616,1,8,0:0:0:0:
271,209,79707,1,0,0:0:0:0:
319,213,79888,1,8,0:0:0:0:
319,213,80070,1,0,0:0:0:0:
246,218,80161,1,0,0:0:0:0:
319,213,80252,1,8,0:0:0:0:
319,213,80343,1,8,0:0:0:0:
337,228,80434,1,0,0:0:0:0:
329,217,80616,1,8,0:0:0:0:
307,214,80798,1,0,0:0:0:0:
303,211,80979,1,8,0:0:0:0:
320,218,81070,1,8,0:0:0:0:
320,218,81161,1,0,0:0:0:0:
329,219,81343,1,8,0:0:0:0:
329,219,81525,1,0,0:0:0:0:
329,217,81616,1,0,0:0:0:0:
329,219,81707,1,8,0:0:0:0:
329,219,81798,1,8,0:0:0:0:
329,219,81888,1,0,0:0:0:0:
307,213,82070,1,8,0:0:0:0:
226,206,82252,1,4,0:0:0:0:
230,211,82616,1,0,0:0:0:0:
230,211,82707,1,8,0:0:0:0:
230,211,82888,1,0,0:0:0:0:
230,211,82979,1,8,0:0:0:0:
230,211,83161,1,0,0:0:0:0:
230,211,83252,1,8,0:0:0:0:
230,211,83343,1,0,0:0:0:0:
228,218,83434,1,0,0:0:0:0:
230,211,83525,1,8,0:0:0:0:
230,211,83707,1,0,0:0:0:0:
230,211,83888,1,8,0:0:0:0:
230,211,84070,1,0,0:0:0:0:
230,211,84161,1,8,0:0:0:0:
230,211,84343,1,0,0:0:0:0:
229,211,84434,1,8,0:0:0:0:
230,211,84616,1,8,0:0:0:0:
230,211,84707,1,8,0:0:0:0:
230,211,84798,1,0,0:0:0:0:
230,211,84888,1,0,0:0:0:0:
230,211,84979,1,8,0:0:0:0:
230,211,85161,1,0,0:0:0:0:
230,211,85252,1,0,0:0:0:0:
230,211,85343,1,8,0:0:0:0:
230,211,85525,1,0,0:0:0:0:
230,211,85616,1,8,0:0:0:0:
230,211,85798,1,0,0:0:0:0:
230,211,85888,1,8,0:0:0:0:
230,211,86070,1,0,0:0:0:0:
230,211,86161,5,8,0:0:0:0:
230,211,86252,1,0,0:0:0:0:
230,211,86343,1,0,0:0:0:0:
229,211,86434,1,8,0:0:0:0:
230,211,86616,1,0,0:0:0:0:
237,201,86707,1,0,0:0:0:0:
230,211,86798,1,8,0:0:0:0:
230,211,86888,1,8,0:0:0:0:
230,211,86979,1,0,0:0:0:0:
230,211,87161,1,8,0:0:0:0:
253,182,87343,5,8,0:0:0:0:
253,182,87434,1,8,0:0:0:0:
253,182,87525,1,0,0:0:0:0:
253,182,87616,1,8,0:0:0:0:
253,182,87707,1,0,0:0:0:0:
253,182,87888,1,8,0:0:0:0:
253,182,88070,1,4,0:0:0:0:
234,197,88434,1,8,0:0:0:0:
235,195,88979,1,8,0:0:0:0:
234,197,89161,1,8,0:0:0:0:
243,208,89252,1,8,0:0:0:0:
243,208,89343,1,0,0:0:0:0:
262,226,89525,1,8,0:0:0:0:
254,211,90070,1,0,0:0:0:0:
254,211,90252,1,8,0:0:0:0:
296,233,90434,1,0,0:0:0:0:
296,233,90525,1,8,0:0:0:0:
258,210,90616,1,0,0:0:0:0:
273,207,90798,1,8,0:0:0:0:
273,207,90979,1,0,0:0:0:0:
258,210,91525,1,0,0:0:0:0:
261,211,91707,1,8,0:0:0:0:
272,227,91888,1,8,0:0:0:0:
272,225,91979,1,8,0:0:0:0:
272,225,92070,1,0,0:0:0:0:
268,224,92252,1,8,0:0:0:0:
268,224,92434,1,0,0:0:0:0:
277,204,92979,1,0,0:0:0:0:
277,204,93161,1,8,0:0:0:0:
277,204,93343,1,4,0:0:0:0:
325,215,93525,1,4,0:0:0:0:
296,198,93888,5,0,0:0:0:0:
234,197,94252,1,8,0:0:0:0:
249,230,94616,1,0,0:0:0:0:
235,195,94798,1,8,0:0:0:0:
234,197,94979,1,8,0:0:0:0:
243,208,95070,1,8,0:0:0:0:
243,208,95161,1,0,0:0:0:0:
262,226,95343,1,8,0:0:0:0:
270,214,95707,1,0,0:0:0:0:
254,211,95888,1,8,0:0:0:0:
254,211,96070,1,8,0:0:0:0:
258,210,96252,1,0,0:0:0:0:
258,210,96343,1,8,0:0:0:0:
258,210,96434,1,0,0:0:0:0:
273,207,96616,1,8,0:0:0:0:
273,207,96798,1,0,0:0:0:0:
273,225,97161,1,8,0:0:0:0:
258,210,97343,1,0,0:0:0:0:
288,230,97434,1,0,0:0:0:0:
261,211,97525,1,8,0:0:0:0:
296,211,97888,1,8,0:0:0:0:
296,211,98070,1,0,0:0:0:0:
297,211,98161,1,8,0:0:0:0:
298,214,98252,1,0,0:0:0:0:
246,220,98343,1,0,0:0:0:0:
291,222,98434,1,8,0:0:0:0:
291,222,98616,1,0,0:0:0:0:
291,222,98798,1,8,0:0:0:0:
291,222,98888,1,8,0:0:0:0:
291,222,98979,1,0,0:0:0:0:
291,222,99161,1,0,0:0:0:0:
283,216,99343,1,8,0:0:0:0:
291,222,99707,1,4,0:0:0:0:
274,220,99888,1,0,0:0:0:0:
274,220,99979,1,0,0:0:0:0:
274,220,100070,1,8,0:0:0:0:
274,220,100252,1,0,0:0:0:0:
268,227,100343,1,8,0:0:0:0:
268,227,100434,1,0,0:0:0:0:
274,220,100616,1,8,0:0:0:0:
267,224,100798,1,8,0:0:0:0:
267,224,100888,1,8,0:0:0:0:
267,224,100979,1,0,0:0:0:0:
285,217,101070,1,0,0:0:0:0:
280,229,101161,1,8,0:0:0:0:
274,230,101343,1,0,0:0:0:0:
274,230,101434,1,8,0:0:0:0:
279,230,101525,1,0,0:0:0:0:
280,229,101707,1,8,0:0:0:0:
280,226,101888,1,0,0:0:0:0:
291,230,102070,1,0,0:0:0:0:
302,240,102161,1,0,0:0:0:0:
293,230,102252,1,8,0:0:0:0:
300,234,102434,1,8,0:0:0:0:
309,244,102616,1,0,0:0:0:0:
315,246,102979,1,8,0:0:0:0:
315,243,103161,1,0,0:0:0:0:
326,256,103343,1,8,0:0:0:0:
322,253,103434,1,0,0:0:0:0:
332,250,103525,1,8,0:0:0:0:
326,262,103616,1,8,0:0:0:0:
321,256,103707,1,0,0:0:0:0:
326,225,103888,1,8,0:0:0:0:
354,258,104070,1,0,0:0:0:0:
338,261,104252,1,0,0:0:0:0:
338,261,104343,1,0,0:0:0:0:
338,261,104434,1,8,0:0:0:0:
311,242,104616,1,8,0:0:0:0:
315,252,104798,1,0,0:0:0:0:
311,242,104979,1,8,0:0:0:0:
311,242,105070,1,0,0:0:0:0:
311,242,105161,1,8,0:0:0:0:
255,231,105343,1,8,0:0:0:0:
296,217,105525,1,4,0:0:0:0:
274,220,105707,1,0,0:0:0:0:
274,220,105798,1,0,0:0:0:0:
274,220,105888,1,8,0:0:0:0:
274,220,106070,1,0,0:0:0:0:
268,227,106161,1,8,0:0:0:0:
268,227,106252,1,0,0:0:0:0:
274,220,106434,1,8,0:0:0:0:
267,224,106616,1,8,0:0:0:0:
267,224,106707,1,8,0:0:0:0:
267,224,106798,1,0,0:0:0:0:
326,225,106888,1,0,0:0:0:0:
280,229,106979,1,8,0:0:0:0:
274,230,107161,1,0,0:0:0:0:
274,230,107252,1,8,0:0:0:0:
274,230,107343,1,0,0:0:0:0:
280,229,107525,1,8,0:0:0:0:
280,226,107707,1,0,0:0:0:0:
291,230,107888,1,0,0:0:0:0:
302,240,107979,1,0,0:0:0:0:
293,230,108070,1,8,0:0:0:0:
300,234,108252,1,8,0:0:0:0:
309,244,108434,1,0,0:0:0:0:
315,246,108798,1,8,0:0:0:0:
315,243,108979,1,0,0:0:0:0:
291,271,109070,1,8,0:0:0:0:
326,256,109161,1,0,0:0:0:0:
288,229,109343,1,8,0:0:0:0:
292,230,109525,1,8,0:0:0:0:
315,246,109616,1,0,0:0:0:0:
315,246,109707,1,0,0:0:0:0:
315,246,109798,1,8,0:0:0:0:
300,231,109888,1,0,0:0:0:0:
300,231,110070,1,8,0:0:0:0:
283,220,110161,1,0,0:0:0:0:
283,220,110252,1,8,0:0:0:0:
292,230,110434,1,0,0:0:0:0:
292,230,110525,1,8,0:0:0:0:
290,233,110707,1,0,0:0:0:0:
312,239,110888,1,0,0:0:0:0:
306,226,110979,1,8,0:0:0:0:
302,225,111161,1,8,0:0:0:0:
302,225,111343,1,4,0:0:0:0:
288,224,111888,1,0,0:0:0:0:
288,224,112070,1,8,0:0:0:0:
288,224,112616,1,8,0:0:0:0:
256,192,112798,1,4,0:0:0:0:
256,192,113070,1,12,0:0:0:0:
256,192,113343,1,4,0:0:0:0:
256,192,113616,1,12,0:0:0:0:
256,192,113888,1,12,0:0:0:0:
226,206,114252,1,0,0:0:0:0:
257,214,114525,1,8,0:0:0:0:
230,211,114616,1,0,0:0:0:0:
230,211,114798,1,8,0:0:0:0:
230,211,114979,1,0,0:0:0:0:
249,207,115070,1,0,0:0:0:0:
230,211,115161,1,8,0:0:0:0:
230,211,115343,1,0,0:0:0:0:
224,230,115434,1,8,0:0:0:0:
230,211,115525,1,0,0:0:0:0:
247,219,115616,1,8,0:0:0:0:
230,211,115707,1,0,0:0:0:0:
230,211,115888,1,8,0:0:0:0:
265,210,115979,1,8,0:0:0:0:
230,211,116070,1,0,0:0:0:0:
230,211,116252,1,8,0:0:0:0:
229,211,116434,1,8,0:0:0:0:
230,211,116525,1,8,0:0:0:0:
230,211,116616,1,0,0:0:0:0:
230,211,116707,1,8,0:0:0:0:
230,211,116798,1,0,0:0:0:0:
230,211,116979,1,8,0:0:0:0:
226,206,117161,1,0,0:0:0:0:
245,218,117434,1,8,0:0:0:0:
230,211,117525,1,0,0:0:0:0:
188,207,117616,1,0,0:0:0:0:
230,211,117707,1,8,0:0:0:0:
253,223,117888,1,0,0:0:0:0:
230,211,118070,1,8,0:0:0:0:
230,211,118252,1,0,0:0:0:0:
230,211,118343,1,8,0:0:0:0:
230,211,118434,1,0,0:0:0:0:
216,219,118525,1,8,0:0:0:0:
230,211,118616,1,0,0:0:0:0:
230,211,118798,1,8,0:0:0:0:
230,211,118979,1,0,0:0:0:0:
230,211,119070,1,0,0:0:0:0:
230,211,119161,1,8,0:0:0:0:
229,211,119343,1,8,0:0:0:0:
218,202,119616,1,0,0:0:0:0:
236,217,119707,1,0,0:0:0:0:
230,211,119888,1,8,0:0:0:0:
226,206,120070,1,0,0:0:0:0:
230,211,120343,1,8,0:0:0:0:
226,206,120434,1,0,0:0:0:0:
230,211,120616,1,8,0:0:0:0:
230,211,120798,1,0,0:0:0:0:
263,218,120888,1,0,0:0:0:0:
230,211,120979,1,8,0:0:0:0:
230,211,121161,1,0,0:0:0:0:
274,202,121252,1,8,0:0:0:0:
230,211,121343,1,0,0:0:0:0:
230,211,121434,1,8,0:0:0:0:
230,211,121525,1,0,0:0:0:0:
230,211,121707,1,8,0:0:0:0:
182,217,121798,1,8,0:0:0:0:
230,211,121888,1,0,0:0:0:0:
258,217,121979,1,8,0:0:0:0:
230,211,122070,1,0,0:0:0:0:
229,211,122252,1,8,0:0:0:0:
230,211,122434,1,0,0:0:0:0:
230,211,122616,1,8,0:0:0:0:
241,222,122707,1,8,0:0:0:0:
230,211,122798,1,8,0:0:0:0:
221,213,122888,1,8,0:0:0:0:
226,206,122979,1,0,0:0:0:0:
230,211,123252,1,8,0:0:0:0:
230,211,123343,1,0,0:0:0:0:
216,207,123434,1,0,0:0:0:0:
230,211,123525,1,8,0:0:0:0:
230,211,123707,1,0,0:0:0:0:
230,211,123888,1,8,0:0:0:0:
230,211,124070,1,0,0:0:0:0:
246,218,124161,1,8,0:0:0:0:
256,224,124252,1,0,0:0:0:0:
256,224,124343,1,8,0:0:0:0:
230,211,124434,1,0,0:0:0:0:
230,211,124616,1,8,0:0:0:0:
230,211,124707,1,8,0:0:0:0:
230,211,124798,1,0,0:0:0:0:
230,211,124979,1,8,0:0:0:0:
256,224,125161,1,8,0:0:0:0:
256,224,125252,1,8,0:0:0:0:
256,224,125343,1,0,0:0:0:0:
256,224,125525,1,8,0:0:0:0:
256,224,125616,1,8,0:0:0:0:
256,224,125707,1,0,0:0:0:0:
256,224,125798,1,8,0:0:0:0:
256,224,125888,1,0,0:0:0:0:
256,256,126252,1,12,0:0:0:0:
