osu file format v14

[General]
AudioFilename: neko.mp3
AudioLeadIn: 0
PreviewTime: 41525
Countdown: 0
SampleSet: Normal
StackLeniency: 0.7
Mode: 1
LetterboxInBreaks: 0
WidescreenStoryboard: 1

[Editor]
DistanceSpacing: 0.8
BeatDivisor: 4
GridSize: 32
TimelineZoom: 2.3

[Metadata]
Title:BUZRA
TitleUnicode:刃図羅
Artist:Nekomata Master vs. HuMeR
ArtistUnicode:猫叉Master vs. HuΣeR
Creator:ZTH
Version:Muzukashii
Source:beatmania IIDX 24 SINOBUZ
Tags:Last Arts 25 CANNON BALLERS konami naoyuki sato Electronic Instrumental 佐藤直之 Aritomo Hamada 濵田有共
BeatmapID:2825416
BeatmapSetID:1349645

[Difficulty]
HPDrainRate:6.5
CircleSize:5
OverallDifficulty:4.6
ApproachRate:5
SliderMultiplier:1.4
SliderTickRate:1

[Events]
//Background and Video events
0,0,"jpg.jpg",0,-20
//Break Periods
//Storyboard Layer 0 (Background)
//Storyboard Layer 1 (Fail)
//Storyboard Layer 2 (Pass)
//Storyboard Layer 3 (Foreground)
//Storyboard Layer 4 (Overlay)
//Storyboard Sound Samples

[TimingPoints]
798,363.636363636364,4,1,0,80,1,0
798,-111.111111111111,4,1,0,80,0,0
13146,-111.111111111111,4,1,0,80,0,0
13327,-109.289617486339,4,1,0,80,0,0
13418,-108.40108401084,4,1,0,80,0,0
13509,-107.52688172043,4,1,0,80,0,0
13691,-105.820105820106,4,1,0,80,0,0
13873,-104.166666666667,4,1,0,85,0,0
26964,-111.111111111111,4,1,0,85,0,0
27691,-111.111111111111,4,1,0,85,0,0
27873,-110.095298490373,4,1,0,85,0,0
28055,-109.097772332587,4,1,0,85,0,0
28146,-108.605816275885,4,1,0,85,0,0
28237,-108.118277070384,4,1,0,85,0,0
28418,-107.156098575038,4,1,0,85,0,0
28600,-106.211007283951,4,1,0,85,0,0
28691,-105.744573981548,4,1,0,85,0,0
28964,-104.369861741244,4,1,0,85,0,0
29146,-103.472966652732,4,1,0,85,0,0
29327,-102.591460286846,4,1,0,85,0,0
29509,-101.724743017868,4,1,0,85,0,0
29600,-101.296904265309,4,1,0,85,0,0
29691,-100.872649288999,4,1,0,85,0,0
29873,-100.034611975744,4,1,0,90,0,0
40055,-100,4,1,0,90,0,0
40327,-99.2555831265509,4,1,0,90,0,0
40600,-98.5221674876847,4,1,0,90,0,0
40873,-97.799511002445,4,1,0,90,0,0
41146,-97.0873786407767,4,1,0,90,0,0
41237,-96.8523002421308,4,1,0,90,0,0
41327,-96.6183574879227,4,1,0,90,0,0
41509,-96.1538461538461,4,1,0,90,0,0
46964,-83.3333333333333,4,1,0,90,0,0
47327,-96.1538461538461,4,1,0,90,0,0
52782,-83.3333333333333,4,1,0,90,0,0
53146,-96.1538461538461,4,1,0,90,0,0
58600,-83.3333333333333,4,1,0,90,0,0
58964,-96.1538461538461,4,1,0,90,0,0
63418,-95.6961608614186,4,1,0,90,0,0
63509,-95.2428120249765,4,1,0,90,0,0
63691,-94.3488795127069,4,1,0,90,0,0
63873,-93.4714841869617,4,1,0,90,0,0
63964,-93.0389209718101,4,1,0,90,0,0
64055,-92.6103429083167,4,1,0,90,0,0
64237,-91.7649239589958,4,1,0,90,0,0
64418,-90.9348006572768,4,1,0,90,0,0
64782,-89.3188100948119,4,1,0,90,0,0
64798,-89.3188100948119,4,1,0,90,0,1
73525,-89.3188100948119,4,1,0,90,0,0
74237,-102.040816326531,4,1,0,85,0,0
78237,-102.040816326531,4,1,0,85,0,0
78418,-100.334414603875,4,1,0,85,0,0
78600,-98.6842429882378,4,1,0,85,0,0
78782,-97.0873786407767,4,1,0,85,0,0
78873,-96.3082171133923,4,1,0,85,0,0
78964,-95.5413708466972,4,1,0,85,0,0
79327,-92.5925925925926,4,1,0,90,0,0
82237,-92.5925925925926,4,1,0,95,0,0
82252,-92.5925925925926,4,1,0,95,0,1
82600,-92.0598388952819,4,1,0,95,0,1
82964,-91.533180778032,4,1,0,95,0,1
83146,-91.2721049629207,4,1,0,95,0,1
83237,-91.1420832163677,4,1,0,95,0,1
83418,-90.8833130966489,4,1,0,95,0,1
83509,-90.7543959160522,4,1,0,95,0,1
83691,-90.4977375565611,4,1,0,95,0,1
83873,-90.2425267907501,4,1,0,95,0,1
84055,-89.9887514060742,4,1,0,95,0,1
84418,-89.4854586129754,4,1,0,95,0,1
84600,-89.2359174567763,4,1,0,95,0,1
84691,-89.1116283546072,4,1,0,95,0,1
84873,-88.8642438719217,4,1,0,95,0,1
84964,-88.7409872434831,4,1,0,95,0,1
85146,-88.495575221239,4,1,0,95,0,1
85327,-88.2515168229454,4,1,0,95,0,1
85509,-88.008800880088,4,1,0,95,0,1
85600,-87.8879814943066,4,1,0,95,0,1
85873,-87.527352297593,4,1,0,95,0,1
86055,-87.2885979268958,4,1,0,95,0,1
86146,-87.1696705335132,4,1,0,95,0,1
86327,-86.9329364555008,4,1,0,95,0,1
86418,-86.8149755832881,4,1,0,95,0,1
86600,-86.5800865800866,4,1,0,95,0,1
86782,-86.3464651915812,4,1,0,95,0,1
86964,-86.1141011840689,4,1,0,95,0,1
87146,-85.8829844337091,4,1,0,95,0,1
87327,-85.6531049250535,4,1,0,95,0,1
87418,-85.5386626201177,4,1,0,95,0,1
87509,-85.4244527495996,4,1,0,95,0,1
87691,-85.1970181043663,4,1,0,95,0,1
87782,-85.083790516901,4,1,0,95,0,1
87873,-84.9707912904939,4,1,0,95,0,1
88055,-84.7457627118644,4,1,0,95,0,1
88070,-84.7457627118644,4,1,0,95,0,0
88418,-102.040816326531,4,1,0,80,0,0
93509,-87.719298245614,4,1,0,85,0,0
93873,-102.040816326531,4,1,0,85,0,0
98055,-102.040816326531,4,1,0,85,0,0
98237,-100.896872297856,4,1,0,85,0,0
98327,-100.334414603875,4,1,0,85,0,0
98418,-99.7782926337678,4,1,0,85,0,0
98600,-98.6842429882378,4,1,0,85,0,0
98782,-97.6139252121151,4,1,0,85,0,0
98964,-96.5664821603081,4,1,0,85,0,0
99055,-96.0512375721705,4,1,0,85,0,0
99146,-95.5413708466972,4,1,0,85,0,0
99327,-94.5377952651691,4,1,0,85,0,0
99691,-92.5925925925926,4,1,0,90,0,0
111870,-102.040816326531,4,1,0,85,0,0
112782,-102.040816326531,4,1,0,90,0,0
113055,-100.134881685631,4,1,0,90,0,0
113327,-98.2988402702825,4,1,0,90,0,0
113600,-96.5289166849267,4,1,0,90,0,0
113873,-94.8216925482477,4,1,0,90,0,0
114237,-92.5925925925926,4,1,0,95,0,0
114252,-92.6370240541297,4,1,0,95,0,1
114509,-92.378752886836,4,1,0,95,0,1
114600,-92.3077207100679,4,1,0,95,0,1
114782,-92.1658986175115,4,1,0,95,0,1
115146,-91.8836422308246,4,1,0,95,0,1
115327,-91.743119266055,4,1,0,95,0,1
115691,-91.4634425193422,4,1,0,95,0,1
115873,-91.324200913242,4,1,0,95,0,1
115964,-91.2547806098192,4,1,0,95,0,1
116055,-91.1853826184247,4,1,0,95,0,1
116237,-91.0470686030557,4,1,0,95,0,1
116418,-90.9090909090909,4,1,0,95,0,1
116509,-90.8403000273429,4,1,0,95,0,1
116600,-90.7715307801722,4,1,0,95,0,1
116782,-90.6344684696279,4,1,0,95,0,1
117146,-90.3614185658378,4,1,0,95,0,1
117418,-90.1577490134488,4,1,0,95,0,1
117509,-90.0900900900901,4,1,0,95,0,1
117691,-89.9549955157435,4,1,0,95,0,1
118055,-89.6860986547085,4,1,0,95,0,1
118237,-89.5522120739665,4,1,0,95,0,1
118600,-89.2857142857143,4,1,0,95,0,1
118782,-89.1530195681963,4,1,0,95,0,1
118964,-89.0207979290202,4,1,0,95,0,1
119055,-88.9547549429933,4,1,0,95,0,1
119146,-88.8888888888889,4,1,0,95,0,1
119327,-88.7573701901272,4,1,0,95,0,1
119873,-88.365216976372,4,1,0,95,0,1
120055,-88.2353200692118,4,1,0,95,0,1
120327,-88.0411116775089,4,1,0,95,0,1
120418,-87.9765137898787,4,1,0,95,0,1
120600,-87.8477563243796,4,1,0,95,0,1
120964,-87.591215301835,4,1,0,95,0,1
121146,-87.4635823508986,4,1,0,95,0,1
121509,-87.2092769740474,4,1,0,95,0,1
121691,-87.0827538701753,4,1,0,95,0,1
121782,-87.0195541640162,4,1,0,95,0,1
121873,-86.9565217391304,4,1,0,95,0,1
122055,-86.8306550417786,4,1,0,95,0,1
122237,-86.705227371453,4,1,0,95,0,1
122418,-86.5800865800866,4,1,0,95,0,1
122600,-86.4553064970298,4,1,0,95,0,1
122691,-86.3930885529158,4,1,0,95,0,1
122782,-86.3309600952403,4,1,0,95,0,1
122964,-86.2068965517241,4,1,0,95,0,1
123237,-86.0215053763441,4,1,0,95,0,1
123327,-85.9599100171662,4,1,0,95,0,1
123509,-85.8369098712446,4,1,0,95,0,1
123873,-85.5920358322499,4,1,0,95,0,1
124055,-85.4700854700855,4,1,0,95,0,1
124418,-85.227296939573,4,1,0,95,0,1
124600,-85.1063829787234,4,1,0,95,0,1
124691,-85.0460907288705,4,1,0,95,0,1
124782,-84.9858116187503,4,1,0,95,0,1
124964,-84.8656534273418,4,1,0,95,0,1
125146,-84.7457627118644,4,1,0,95,0,1
125888,-84.7457627118644,4,1,0,95,0,0
126237,-84.7457627118644,4,1,0,85,0,0

[HitObjects]
250,219,2252,5,4,0:0:0:0:
250,219,2979,1,0,0:0:0:0:
250,219,3707,1,8,0:0:0:0:
245,189,5161,1,0,0:0:0:0:
234,213,5888,1,8,0:0:0:0:
249,213,6616,1,0,0:0:0:0:
260,211,8070,1,4,0:0:0:0:
249,213,8798,1,0,0:0:0:0:
249,213,9525,1,8,0:0:0:0:
249,213,10979,1,0,0:0:0:0:
249,213,11707,1,8,0:0:0:0:
249,213,12434,1,0,0:0:0:0:
259,184,13161,5,8,0:0:0:0:
265,191,13343,1,0,0:0:0:0:
265,190,13434,1,0,0:0:0:0:
265,190,13525,1,0,0:0:0:0:
278,160,13707,1,8,0:0:0:0:
265,190,13888,1,4,0:0:0:0:
295,206,14252,1,0,0:0:0:0:
280,191,14434,1,8,0:0:0:0:
256,216,14616,1,0,0:0:0:0:
295,206,14979,1,8,0:0:0:0:
289,212,15343,1,0,0:0:0:0:
300,213,15888,1,0,0:0:0:0:
289,212,16070,1,8,0:0:0:0:
289,212,16252,1,0,0:0:0:0:
289,212,16343,1,0,0:0:0:0:
289,212,16434,1,0,0:0:0:0:
289,212,16616,1,8,0:0:0:0:
265,190,16798,1,0,0:0:0:0:
288,192,17161,1,0,0:0:0:0:
280,193,17343,1,8,0:0:0:0:
280,191,17525,1,0,0:0:0:0:
276,220,17888,1,8,0:0:0:0:
289,212,18252,1,0,0:0:0:0:
284,227,18798,1,0,0:0:0:0:
289,212,18979,1,8,0:0:0:0:
289,212,19161,1,0,0:0:0:0:
289,212,19525,1,8,0:0:0:0:
265,190,19707,1,4,0:0:0:0:
278,208,20070,1,0,0:0:0:0:
270,216,20252,1,8,0:0:0:0:
280,191,20434,1,0,0:0:0:0:
294,200,20798,1,8,0:0:0:0:
289,212,21161,1,0,0:0:0:0:
280,218,21707,1,0,0:0:0:0:
289,212,21888,1,8,0:0:0:0:
289,212,22070,1,0,0:0:0:0:
289,212,22161,1,0,0:0:0:0:
289,212,22252,1,0,0:0:0:0:
289,212,22434,1,8,0:0:0:0:
265,190,22616,1,0,0:0:0:0:
258,219,22979,1,0,0:0:0:0:
280,193,23161,1,8,0:0:0:0:
280,191,23343,1,0,0:0:0:0:
275,217,23707,1,8,0:0:0:0:
289,212,24070,1,0,0:0:0:0:
289,212,24616,1,0,0:0:0:0:
289,212,24798,1,8,0:0:0:0:
289,212,25161,1,0,0:0:0:0:
289,212,25343,1,8,0:0:0:0:
287,207,25525,1,4,0:0:0:0:
283,236,26979,1,8,0:0:0:0:
285,207,27707,1,0,0:0:0:0:
285,207,27888,1,0,0:0:0:0:
278,203,28070,1,0,0:0:0:0:
278,203,28161,1,0,0:0:0:0:
278,203,28252,1,0,0:0:0:0:
278,203,28434,1,8,0:0:0:0:
293,226,28616,1,0,0:0:0:0:
293,226,28707,1,8,0:0:0:0:
293,226,28979,1,8,0:0:0:0:
292,213,29161,1,0,0:0:0:0:
290,214,29343,1,8,0:0:0:0:
283,233,29525,1,8,0:0:0:0:
283,233,29616,1,8,0:0:0:0:
283,233,29707,1,8,0:0:0:0:
283,233,29888,1,0,0:0:0:0:
273,214,30252,1,8,0:0:0:0:
273,214,30434,1,0,0:0:0:0:
268,179,30525,1,0,0:0:0:0:
273,214,30616,1,0,0:0:0:0:
273,214,30798,1,8,0:0:0:0:
274,214,30979,1,0,0:0:0:0:
273,214,31525,1,0,0:0:0:0:
273,214,31707,1,8,0:0:0:0:
287,211,31888,1,8,0:0:0:0:
287,211,32070,1,0,0:0:0:0:
287,211,32161,1,0,0:0:0:0:
287,211,32252,1,0,0:0:0:0:
287,211,32434,1,8,0:0:0:0:
283,233,32979,1,0,0:0:0:0:
273,214,33161,1,8,0:0:0:0:
273,214,33343,1,0,0:0:0:0:
273,214,33434,1,0,0:0:0:0:
273,214,33525,1,0,0:0:0:0:
273,214,33707,1,8,0:0:0:0:
274,214,33888,1,0,0:0:0:0:
273,214,34252,1,0,0:0:0:0:
270,218,34434,1,0,0:0:0:0:
273,214,34525,1,8,0:0:0:0:
287,211,34798,1,8,0:0:0:0:
287,211,34979,1,0,0:0:0:0:
287,211,35070,1,0,0:0:0:0:
287,211,35161,1,0,0:0:0:0:
274,202,35343,1,8,0:0:0:0:
274,202,35434,1,8,0:0:0:0:
274,202,35525,1,8,0:0:0:0:
273,202,35707,1,0,0:0:0:0:
273,214,36070,1,8,0:0:0:0:
287,211,36252,1,8,0:0:0:0:
289,232,36434,1,0,0:0:0:0:
287,211,36525,1,0,0:0:0:0:
287,211,36616,1,0,0:0:0:0:
287,211,36798,1,0,0:0:0:0:
285,222,37161,1,0,0:0:0:0:
326,238,37252,1,0,0:0:0:0:
306,227,37343,1,0,0:0:0:0:
306,227,37525,1,8,0:0:0:0:
288,224,37707,1,0,0:0:0:0:
320,224,37888,1,8,0:0:0:0:
320,224,37979,1,8,0:0:0:0:
320,224,38070,1,8,0:0:0:0:
320,224,38252,1,8,0:0:0:0:
320,224,38616,1,8,0:0:0:0:
320,224,38888,1,0,0:0:0:0:
320,224,39161,1,8,0:0:0:0:
320,224,39434,1,0,0:0:0:0:
320,224,39707,1,8,0:0:0:0:
320,224,39888,1,0,0:0:0:0:
320,224,40070,1,8,0:0:0:0:
320,224,40343,1,8,0:0:0:0:
320,224,40616,1,8,0:0:0:0:
320,224,40888,1,8,0:0:0:0:
320,224,41161,1,8,0:0:0:0:
320,224,41252,1,8,0:0:0:0:
320,224,41343,1,8,0:0:0:0:
320,224,41525,1,4,0:0:0:0:
320,192,41888,1,8,0:0:0:0:
320,224,42252,1,8,0:0:0:0:
288,192,42616,1,0,0:0:0:0:
288,192,42798,1,8,0:0:0:0:
292,223,42979,1,0,0:0:0:0:
299,229,43161,1,0,0:0:0:0:
328,229,43252,1,0,0:0:0:0:
360,221,43343,1,0,0:0:0:0:
300,229,43525,1,8,0:0:0:0:
299,218,43707,1,0,0:0:0:0:
288,224,44070,1,0,0:0:0:0:
285,214,44252,1,8,0:0:0:0:
288,224,44434,1,0,0:0:0:0:
288,224,44798,1,8,0:0:0:0:
288,224,45161,1,8,0:0:0:0:
279,233,45525,1,0,0:0:0:0:
320,224,45707,1,8,0:0:0:0:
320,224,45888,1,0,0:0:0:0:
288,224,46070,1,8,0:0:0:0:
260,228,46252,1,0,0:0:0:0:
288,224,46343,1,0,0:0:0:0:
288,224,46434,1,0,0:0:0:0:
288,224,46616,1,8,0:0:0:0:
256,224,46979,1,4,0:0:0:0:
256,224,47343,1,4,0:0:0:0:
256,224,47707,1,8,0:0:0:0:
256,224,48070,1,8,0:0:0:0:
256,224,48434,1,0,0:0:0:0:
256,224,48616,1,8,0:0:0:0:
256,224,48798,1,0,0:0:0:0:
256,192,48979,1,8,0:0:0:0:
262,225,49070,1,8,0:0:0:0:
256,224,49161,1,8,0:0:0:0:
224,192,49343,1,8,0:0:0:0:
224,192,49525,1,0,0:0:0:0:
224,192,49888,1,0,0:0:0:0:
233,215,50070,1,8,0:0:0:0:
224,224,50252,1,0,0:0:0:0:
224,224,50616,1,8,0:0:0:0:
224,224,50979,1,0,0:0:0:0:
224,224,51161,5,0,0:0:0:0:
224,224,51252,1,0,0:0:0:0:
224,224,51343,1,8,0:0:0:0:
224,224,51707,1,8,0:0:0:0:
224,224,51798,1,8,0:0:0:0:
224,224,51888,1,8,0:0:0:0:
224,224,52070,1,0,0:0:0:0:
224,224,52252,1,8,0:0:0:0:
224,224,52434,1,0,0:0:0:0:
320,224,52616,1,0,0:0:0:0:
224,224,52798,1,12,0:0:0:0:
320,224,53161,1,4,0:0:0:0:
320,192,53525,1,8,0:0:0:0:
320,224,53888,1,8,0:0:0:0:
279,212,54070,1,0,0:0:0:0:
279,212,54161,1,0,0:0:0:0:
288,192,54252,1,0,0:0:0:0:
288,192,54434,1,8,0:0:0:0:
292,223,54616,1,0,0:0:0:0:
299,229,54798,1,0,0:0:0:0:
328,229,54888,1,0,0:0:0:0:
360,221,54979,1,0,0:0:0:0:
299,218,55161,1,8,0:0:0:0:
300,229,55343,1,0,0:0:0:0:
288,224,55707,1,0,0:0:0:0:
285,214,55888,1,8,0:0:0:0:
288,224,56070,1,0,0:0:0:0:
288,224,56434,1,8,0:0:0:0:
288,224,56798,1,8,0:0:0:0:
264,227,56979,1,0,0:0:0:0:
288,224,57161,1,8,0:0:0:0:
279,233,57252,1,8,0:0:0:0:
320,224,57343,1,8,0:0:0:0:
320,224,57525,1,0,0:0:0:0:
288,224,57707,1,8,0:0:0:0:
260,228,57888,1,0,0:0:0:0:
288,224,57979,1,0,0:0:0:0:
288,224,58070,1,0,0:0:0:0:
288,224,58252,1,8,0:0:0:0:
256,224,58616,1,4,0:0:0:0:
256,224,58979,1,4,0:0:0:0:
256,224,59343,1,8,0:0:0:0:
256,224,59707,1,8,0:0:0:0:
256,224,59888,1,0,0:0:0:0:
256,224,59979,1,0,0:0:0:0:
256,224,60070,1,0,0:0:0:0:
256,224,60252,1,8,0:0:0:0:
256,224,60434,1,0,0:0:0:0:
256,192,60616,1,8,0:0:0:0:
262,225,60707,1,8,0:0:0:0:
256,224,60798,1,8,0:0:0:0:
224,192,60979,1,8,0:0:0:0:
224,192,61161,1,0,0:0:0:0:
224,192,61525,1,0,0:0:0:0:
233,215,61707,1,8,0:0:0:0:
224,224,61888,1,0,0:0:0:0:
224,224,62252,5,8,0:0:0:0:
203,192,62616,1,0,0:0:0:0:
217,197,62798,1,0,0:0:0:0:
216,197,62888,1,0,0:0:0:0:
217,197,62979,1,8,0:0:0:0:
237,167,63343,5,8,0:0:0:0:
256,192,63434,1,8,0:0:0:0:
256,192,63525,1,8,0:0:0:0:
277,186,63707,1,0,0:0:0:0:
274,200,63888,1,8,0:0:0:0:
273,191,63979,1,8,0:0:0:0:
273,191,64070,1,8,0:0:0:0:
283,170,64252,1,0,0:0:0:0:
305,200,64434,5,8,0:0:0:0:
286,172,64798,5,4,0:0:0:0:
279,171,65161,1,0,0:0:0:0:
281,176,65525,1,8,0:0:0:0:
279,171,65888,1,8,0:0:0:0:
284,171,66131,1,8,0:0:0:0:
284,171,66252,1,0,0:0:0:0:
284,171,66616,1,0,0:0:0:0:
284,171,66858,1,0,0:0:0:0:
284,171,66979,1,8,0:0:0:0:
284,171,67222,1,0,0:0:0:0:
284,171,67343,1,8,0:0:0:0:
284,171,67585,1,8,0:0:0:0:
286,172,67707,5,0,0:0:0:0:
279,171,68070,1,0,0:0:0:0:
281,176,68434,1,8,0:0:0:0:
279,171,68798,1,8,0:0:0:0:
284,171,69040,1,8,0:0:0:0:
284,171,69161,1,0,0:0:0:0:
284,171,69525,1,8,0:0:0:0:
284,171,69767,1,0,0:0:0:0:
284,171,69888,1,8,0:0:0:0:
284,171,70131,1,0,0:0:0:0:
284,171,70252,1,8,0:0:0:0:
284,171,70494,1,8,0:0:0:0:
273,180,70616,1,0,0:0:0:0:
284,186,70979,1,8,0:0:0:0:
284,186,71222,1,0,0:0:0:0:
284,186,71343,1,8,0:0:0:0:
284,186,71707,1,0,0:0:0:0:
284,186,71949,1,8,0:0:0:0:
284,186,72070,1,0,0:0:0:0:
284,186,72434,1,8,0:0:0:0:
284,186,72555,1,0,0:0:0:0:
284,186,72676,1,0,0:0:0:0:
284,186,72798,1,8,0:0:0:0:
284,186,73161,1,0,0:0:0:0:
284,186,73282,1,8,0:0:0:0:
284,186,73404,1,8,0:0:0:0:
284,186,73525,1,0,0:0:0:0:
277,193,74252,1,8,0:0:0:0:
277,193,74979,1,0,0:0:0:0:
277,193,75707,1,8,0:0:0:0:
277,193,76434,1,0,0:0:0:0:
301,196,77161,1,8,0:0:0:0:
301,196,77888,1,0,0:0:0:0:
288,224,78252,1,0,0:0:0:0:
288,224,78434,1,0,0:0:0:0:
294,211,78616,1,8,0:0:0:0:
306,208,78798,1,8,0:0:0:0:
306,208,78888,1,8,0:0:0:0:
306,208,78979,1,0,0:0:0:0:
306,208,79343,1,4,0:0:0:0:
271,209,79525,1,8,0:0:0:0:
271,209,79707,1,0,0:0:0:0:
319,213,79888,1,8,0:0:0:0:
319,213,80070,1,0,0:0:0:0:
246,218,80161,1,0,0:0:0:0:
319,213,80252,1,0,0:0:0:0:
337,228,80434,1,0,0:0:0:0:
307,214,80798,1,0,0:0:0:0:
303,211,80979,1,8,0:0:0:0:
320,218,81161,1,0,0:0:0:0:
329,219,81343,1,8,0:0:0:0:
329,219,81525,1,8,0:0:0:0:
329,217,81616,1,8,0:0:0:0:
329,219,81707,1,8,0:0:0:0:
329,219,81888,1,0,0:0:0:0:
226,206,82252,1,4,0:0:0:0:
230,211,82616,1,0,0:0:0:0:
230,211,82979,1,8,0:0:0:0:
230,211,83161,1,0,0:0:0:0:
230,211,83252,1,0,0:0:0:0:
228,218,83434,1,8,0:0:0:0:
230,211,83525,1,8,0:0:0:0:
230,211,83707,1,0,0:0:0:0:
230,211,83888,1,8,0:0:0:0:
230,211,84070,1,0,0:0:0:0:
229,211,84434,1,8,0:0:0:0:
230,211,84616,1,0,0:0:0:0:
230,211,84707,1,0,0:0:0:0:
230,211,84888,1,8,0:0:0:0:
230,211,84979,1,8,0:0:0:0:
230,211,85161,1,0,0:0:0:0:
230,211,85343,1,8,0:0:0:0:
230,211,85525,1,0,0:0:0:0:
230,211,85616,1,8,0:0:0:0:
230,211,85888,1,8,0:0:0:0:
230,211,86070,1,0,0:0:0:0:
230,211,86161,5,0,0:0:0:0:
230,211,86343,1,8,0:0:0:0:
229,211,86434,1,8,0:0:0:0:
230,211,86616,1,0,0:0:0:0:
230,211,86798,1,8,0:0:0:0:
230,211,86979,1,0,0:0:0:0:
288,192,87161,1,8,0:0:0:0:
253,182,87343,5,0,0:0:0:0:
253,182,87434,1,0,0:0:0:0:
253,182,87525,1,0,0:0:0:0:
253,182,87707,1,8,0:0:0:0:
253,182,87798,1,8,0:0:0:0:
253,182,87888,1,8,0:0:0:0:
253,182,88070,1,4,0:0:0:0:
234,197,88434,1,8,0:0:0:0:
235,195,88979,1,8,0:0:0:0:
234,197,89161,1,8,0:0:0:0:
256,256,89343,1,0,0:0:0:0:
262,226,89525,1,8,0:0:0:0:
254,211,90070,1,0,0:0:0:0:
254,211,90252,1,8,0:0:0:0:
258,210,90616,1,8,0:0:0:0:
273,207,90798,1,8,0:0:0:0:
273,207,90979,1,0,0:0:0:0:
258,210,91525,1,0,0:0:0:0:
261,211,91707,1,8,0:0:0:0:
272,225,92070,1,0,0:0:0:0:
268,224,92252,1,8,0:0:0:0:
268,224,92434,1,0,0:0:0:0:
277,204,92979,1,0,0:0:0:0:
277,204,93161,1,8,0:0:0:0:
325,215,93525,1,4,0:0:0:0:
296,198,93888,5,0,0:0:0:0:
234,197,94252,1,8,0:0:0:0:
249,230,94616,1,0,0:0:0:0:
235,195,94798,1,8,0:0:0:0:
234,197,94979,1,0,0:0:0:0:
288,192,95161,1,0,0:0:0:0:
262,226,95343,1,8,0:0:0:0:
270,214,95707,1,0,0:0:0:0:
254,211,95888,1,8,0:0:0:0:
254,211,96070,1,8,0:0:0:0:
258,210,96434,1,0,0:0:0:0:
273,207,96616,1,8,0:0:0:0:
273,207,96798,1,0,0:0:0:0:
258,210,97343,1,0,0:0:0:0:
261,211,97525,1,8,0:0:0:0:
296,211,98070,1,0,0:0:0:0:
298,214,98252,1,8,0:0:0:0:
291,222,98343,1,8,0:0:0:0:
291,222,98434,1,8,0:0:0:0:
291,222,98616,1,0,0:0:0:0:
291,222,98798,1,8,0:0:0:0:
291,222,98979,1,0,0:0:0:0:
320,256,99070,1,0,0:0:0:0:
291,222,99161,1,0,0:0:0:0:
283,216,99343,1,8,0:0:0:0:
291,222,99707,1,4,0:0:0:0:
274,220,100070,1,8,0:0:0:0:
268,227,100434,1,0,0:0:0:0:
274,220,100616,1,8,0:0:0:0:
267,224,100798,1,0,0:0:0:0:
267,224,100888,1,0,0:0:0:0:
267,224,100979,1,0,0:0:0:0:
280,229,101161,1,8,0:0:0:0:
279,230,101525,1,0,0:0:0:0:
280,229,101707,1,8,0:0:0:0:
280,226,101888,1,0,0:0:0:0:
291,230,102070,1,8,0:0:0:0:
302,240,102161,1,8,0:0:0:0:
293,230,102252,1,8,0:0:0:0:
300,234,102434,1,8,0:0:0:0:
309,244,102616,1,0,0:0:0:0:
315,246,102979,1,8,0:0:0:0:
315,243,103161,1,0,0:0:0:0:
326,256,103343,1,8,0:0:0:0:
322,253,103434,1,8,0:0:0:0:
332,250,103525,1,8,0:0:0:0:
321,256,103707,1,0,0:0:0:0:
326,225,103888,1,8,0:0:0:0:
354,258,104070,1,0,0:0:0:0:
338,261,104434,1,8,0:0:0:0:
311,242,104616,1,8,0:0:0:0:
315,252,104798,1,0,0:0:0:0:
311,242,105161,1,8,0:0:0:0:
296,217,105525,1,4,0:0:0:0:
274,220,105888,1,8,0:0:0:0:
268,227,106252,1,0,0:0:0:0:
274,220,106434,1,8,0:0:0:0:
267,224,106616,1,0,0:0:0:0:
267,224,106707,1,0,0:0:0:0:
326,225,106798,1,0,0:0:0:0:
280,229,106979,1,8,0:0:0:0:
274,230,107343,1,0,0:0:0:0:
280,229,107525,1,8,0:0:0:0:
280,226,107707,1,0,0:0:0:0:
291,230,107888,1,8,0:0:0:0:
302,240,107979,1,8,0:0:0:0:
293,230,108070,1,8,0:0:0:0:
300,234,108252,1,8,0:0:0:0:
309,244,108434,1,0,0:0:0:0:
315,246,108798,1,8,0:0:0:0:
315,243,108979,1,0,0:0:0:0:
291,271,109070,1,0,0:0:0:0:
326,256,109161,1,8,0:0:0:0:
292,230,109525,1,8,0:0:0:0:
315,246,109707,1,0,0:0:0:0:
315,246,109798,1,0,0:0:0:0:
300,231,109888,1,8,0:0:0:0:
283,220,110161,1,0,0:0:0:0:
292,230,110434,1,8,0:0:0:0:
290,233,110707,1,0,0:0:0:0:
306,226,110979,1,8,0:0:0:0:
288,224,111161,1,8,0:0:0:0:
302,225,111343,1,4,0:0:0:0:
320,224,112070,1,8,0:0:0:0:
256,192,112798,1,4,0:0:0:0:
256,192,113070,1,12,0:0:0:0:
256,192,113343,1,4,0:0:0:0:
256,192,113616,1,12,0:0:0:0:
256,192,113888,1,12,0:0:0:0:
256,224,114252,1,0,0:0:0:0:
256,192,114525,1,0,0:0:0:0:
288,224,114616,1,0,0:0:0:0:
256,192,114798,1,8,0:0:0:0:
288,256,115161,1,8,0:0:0:0:
288,224,115343,1,0,0:0:0:0:
256,224,115707,1,0,0:0:0:0:
267,224,115888,1,8,0:0:0:0:
224,192,115979,1,8,0:0:0:0:
256,224,116070,1,8,0:0:0:0:
256,224,116252,1,0,0:0:0:0:
224,192,116434,1,0,0:0:0:0:
230,211,116525,1,0,0:0:0:0:
224,192,116616,1,0,0:0:0:0:
256,224,116798,1,8,0:0:0:0:
224,192,117161,1,0,0:0:0:0:
230,211,117434,1,0,0:0:0:0:
256,192,117525,1,0,0:0:0:0:
230,211,117707,1,8,0:0:0:0:
224,192,118070,1,8,0:0:0:0:
224,224,118252,1,0,0:0:0:0:
230,211,118616,1,0,0:0:0:0:
224,224,118798,1,8,0:0:0:0:
230,211,118979,1,0,0:0:0:0:
230,211,119070,1,0,0:0:0:0:
230,211,119161,1,0,0:0:0:0:
229,211,119343,1,8,0:0:0:0:
256,224,119888,1,8,0:0:0:0:
226,206,120070,1,0,0:0:0:0:
230,211,120343,1,8,0:0:0:0:
230,211,120434,1,0,0:0:0:0:
230,211,120616,1,8,0:0:0:0:
230,211,120979,1,8,0:0:0:0:
230,211,121161,1,0,0:0:0:0:
230,211,121525,1,0,0:0:0:0:
283,211,121707,1,8,0:0:0:0:
230,211,121798,1,8,0:0:0:0:
230,211,121888,1,8,0:0:0:0:
230,211,122070,1,0,0:0:0:0:
256,224,122252,1,8,0:0:0:0:
256,224,122434,1,0,0:0:0:0:
230,211,122616,1,8,0:0:0:0:
224,224,122707,1,8,0:0:0:0:
224,224,122798,1,8,0:0:0:0:
226,206,122979,1,0,0:0:0:0:
230,211,123252,1,8,0:0:0:0:
230,211,123343,1,0,0:0:0:0:
230,211,123525,1,8,0:0:0:0:
230,211,123888,1,8,0:0:0:0:
230,211,124070,1,0,0:0:0:0:
230,211,124434,1,0,0:0:0:0:
230,211,124616,1,8,0:0:0:0:
230,211,124707,1,8,0:0:0:0:
230,211,124798,1,0,0:0:0:0:
230,211,124979,1,8,0:0:0:0:
210,186,125161,2,0,L|269:181,8,41.2999985505677
256,256,126252,1,12,0:0:0:0:
