osu file format v14

[General]
AudioFilename: neko.mp3
AudioLeadIn: 0
PreviewTime: 41525
Countdown: 0
SampleSet: Normal
StackLeniency: 0.7
Mode: 1
LetterboxInBreaks: 0
WidescreenStoryboard: 1

[Editor]
DistanceSpacing: 0.8
BeatDivisor: 4
GridSize: 32
TimelineZoom: 2.2

[Metadata]
Title:BUZRA
TitleUnicode:刃図羅
Artist:Nekomata Master vs. HuMeR
ArtistUnicode:猫叉Master vs. HuΣeR
Creator:ZTH
Version:Kantan
Source:beatmania IIDX 24 SINOBUZ
Tags:Last Arts 25 CANNON BALLERS konami naoyuki sato Electronic Instrumental 佐藤直之 Aritomo Hamada 濵田有共
BeatmapID:2830137
BeatmapSetID:1349645

[Difficulty]
HPDrainRate:7.5
CircleSize:5
OverallDifficulty:3
ApproachRate:5
SliderMultiplier:1.4
SliderTickRate:1

[Events]
//Background and Video events
0,0,"jpg.jpg",0,-20
//Break Periods
//Storyboard Layer 0 (Background)
//Storyboard Layer 1 (Fail)
//Storyboard Layer 2 (Pass)
//Storyboard Layer 3 (Foreground)
//Storyboard Layer 4 (Overlay)
//Storyboard Sound Samples

[TimingPoints]
798,363.636363636364,4,1,0,80,1,0
798,-100,4,1,0,85,0,0
29873,-100,4,1,0,90,0,0
64798,-100,4,1,0,90,0,1
73525,-100,4,1,0,90,0,0
74237,-100,4,1,0,85,0,0
79327,-100,4,1,0,90,0,0
82237,-100,4,1,0,95,0,0
82252,-100,4,1,0,95,0,1
88070,-100,4,1,0,95,0,0
88418,-100,4,1,0,80,0,0
93873,-100,4,1,0,85,0,0
99691,-100,4,1,0,90,0,0
111870,-100,4,1,0,85,0,0
112782,-100,4,1,0,90,0,0
114237,-100,4,1,0,95,0,0
114252,-100,4,1,0,95,0,1
125888,-100,4,1,0,95,0,0
126237,-100,4,1,0,85,0,0

[HitObjects]
250,219,2252,5,4,0:0:0:0:
250,219,3707,1,8,0:0:0:0:
245,189,5161,1,0,0:0:0:0:
234,213,5888,1,8,0:0:0:0:
249,213,6616,1,0,0:0:0:0:
260,211,8070,1,4,0:0:0:0:
249,213,9525,1,8,0:0:0:0:
249,213,10979,1,0,0:0:0:0:
249,213,11707,1,8,0:0:0:0:
249,213,12434,1,0,0:0:0:0:
256,202,13161,1,8,0:0:0:0:
256,202,13525,1,0,0:0:0:0:
265,190,13888,1,4,0:0:0:0:
280,191,14616,1,8,0:0:0:0:
289,212,15343,1,0,0:0:0:0:
248,213,16434,1,8,0:0:0:0:
265,190,16798,1,0,0:0:0:0:
280,191,17525,1,8,0:0:0:0:
289,212,18252,1,0,0:0:0:0:
265,190,19707,1,4,0:0:0:0:
263,208,20434,1,8,0:0:0:0:
289,212,21161,1,0,0:0:0:0:
260,218,21888,1,8,0:0:0:0:
267,219,22252,1,0,0:0:0:0:
265,190,22616,1,8,0:0:0:0:
286,206,23343,1,0,0:0:0:0:
289,212,24070,1,8,0:0:0:0:
289,212,24798,1,8,0:0:0:0:
296,229,25161,1,0,0:0:0:0:
287,207,25525,1,4,0:0:0:0:
285,207,26979,1,8,0:0:0:0:
285,207,27707,1,0,0:0:0:0:
278,203,28070,1,0,0:0:0:0:
278,203,28434,1,8,0:0:0:0:
293,226,28979,1,8,0:0:0:0:
283,233,29525,1,8,0:0:0:0:
283,233,29888,1,0,0:0:0:0:
266,224,30616,1,8,0:0:0:0:
259,229,30979,1,0,0:0:0:0:
284,223,32070,1,0,0:0:0:0:
262,228,32434,1,8,0:0:0:0:
293,220,33525,1,8,0:0:0:0:
298,194,33888,1,0,0:0:0:0:
288,217,34252,1,0,0:0:0:0:
287,211,34979,1,0,0:0:0:0:
274,202,35343,1,8,0:0:0:0:
273,202,35707,1,0,0:0:0:0:
287,211,36798,1,0,0:0:0:0:
285,222,37161,1,0,0:0:0:0:
294,233,37525,1,8,0:0:0:0:
320,224,37888,1,8,0:0:0:0:
320,224,38616,1,8,0:0:0:0:
320,224,39161,1,0,0:0:0:0:
320,224,39707,1,8,0:0:0:0:
320,224,40070,1,8,0:0:0:0:
320,224,40616,1,8,0:0:0:0:
320,224,41161,1,8,0:0:0:0:
320,224,41525,1,4,0:0:0:0:
320,224,42252,1,8,0:0:0:0:
292,223,42979,1,0,0:0:0:0:
299,218,43343,1,8,0:0:0:0:
360,221,43707,1,0,0:0:0:0:
288,224,44434,1,0,0:0:0:0:
288,224,45161,1,8,0:0:0:0:
320,224,45888,1,0,0:0:0:0:
260,228,46252,1,0,0:0:0:0:
288,224,46616,1,8,0:0:0:0:
256,224,47343,1,4,0:0:0:0:
256,224,48070,1,8,0:0:0:0:
256,224,48798,1,0,0:0:0:0:
256,224,49161,1,8,0:0:0:0:
224,192,49525,1,0,0:0:0:0:
225,233,50252,1,0,0:0:0:0:
228,194,50616,1,8,0:0:0:0:
224,224,50979,1,0,0:0:0:0:
231,225,51343,1,8,0:0:0:0:
224,224,51707,1,8,0:0:0:0:
224,224,52798,1,12,0:0:0:0:
320,224,53161,1,4,0:0:0:0:
320,224,53888,1,8,0:0:0:0:
292,223,54616,1,0,0:0:0:0:
360,221,54979,1,8,0:0:0:0:
299,218,55343,1,0,0:0:0:0:
282,215,55707,1,8,0:0:0:0:
288,224,56070,1,0,0:0:0:0:
288,224,56798,1,8,0:0:0:0:
320,224,57525,1,0,0:0:0:0:
260,228,57888,1,0,0:0:0:0:
288,224,58252,1,8,0:0:0:0:
256,224,58979,1,4,0:0:0:0:
256,224,59707,1,8,0:0:0:0:
256,224,60434,1,0,0:0:0:0:
256,224,60798,1,8,0:0:0:0:
224,192,61161,1,0,0:0:0:0:
224,224,61888,1,0,0:0:0:0:
224,192,62252,1,8,0:0:0:0:
203,192,62616,1,0,0:0:0:0:
239,208,62979,1,8,0:0:0:0:
237,167,63343,5,8,0:0:0:0:
305,200,64434,5,8,0:0:0:0:
286,172,64798,5,4,0:0:0:0:
281,176,65525,1,8,0:0:0:0:
284,171,66252,1,0,0:0:0:0:
277,201,66616,1,0,0:0:0:0:
284,171,66979,1,8,0:0:0:0:
284,171,67343,1,8,0:0:0:0:
284,171,67707,1,0,0:0:0:0:
281,176,68434,1,8,0:0:0:0:
284,171,69161,1,0,0:0:0:0:
288,193,69525,1,8,0:0:0:0:
284,171,69888,1,8,0:0:0:0:
284,171,70252,1,8,0:0:0:0:
273,180,70616,1,0,0:0:0:0:
284,186,71343,1,8,0:0:0:0:
284,186,71707,1,0,0:0:0:0:
284,186,72070,1,0,0:0:0:0:
284,186,72798,1,8,0:0:0:0:
284,186,73161,1,8,0:0:0:0:
284,186,73525,1,0,0:0:0:0:
277,193,74979,1,0,0:0:0:0:
277,193,75707,1,8,0:0:0:0:
277,193,76434,1,0,0:0:0:0:
301,196,77888,1,0,0:0:0:0:
294,211,78616,1,8,0:0:0:0:
306,208,79343,1,4,0:0:0:0:
271,209,79707,1,8,0:0:0:0:
319,213,80070,1,0,0:0:0:0:
307,214,80798,1,0,0:0:0:0:
320,218,81161,1,8,0:0:0:0:
329,219,81525,1,8,0:0:0:0:
226,206,82252,1,4,0:0:0:0:
230,211,82979,1,8,0:0:0:0:
230,211,83343,1,0,0:0:0:0:
230,211,83707,1,0,0:0:0:0:
229,211,84434,1,8,0:0:0:0:
230,211,84798,1,8,0:0:0:0:
249,227,85161,1,0,0:0:0:0:
230,211,85888,1,8,0:0:0:0:
230,211,86252,5,0,0:0:0:0:
229,211,86616,1,0,0:0:0:0:
258,227,86979,1,8,0:0:0:0:
234,215,87343,1,0,0:0:0:0:
234,215,87707,1,8,0:0:0:0:
253,182,88070,1,4,0:0:0:0:
262,226,89525,1,8,0:0:0:0:
254,211,90252,1,0,0:0:0:0:
273,207,90979,1,0,0:0:0:0:
272,225,92070,1,8,0:0:0:0:
268,224,92434,1,0,0:0:0:0:
277,204,93161,1,8,0:0:0:0:
296,198,93888,5,0,0:0:0:0:
262,226,94979,1,0,0:0:0:0:
270,219,95343,1,8,0:0:0:0:
254,211,96070,1,8,0:0:0:0:
258,210,96434,1,0,0:0:0:0:
273,207,96798,1,0,0:0:0:0:
261,211,97525,1,8,0:0:0:0:
298,214,98252,1,8,0:0:0:0:
291,222,98979,1,0,0:0:0:0:
283,216,99343,1,8,0:0:0:0:
291,222,99707,1,4,0:0:0:0:
274,220,100070,1,8,0:0:0:0:
267,224,100798,1,8,0:0:0:0:
280,229,101161,1,8,0:0:0:0:
280,226,101888,1,0,0:0:0:0:
293,230,102252,1,8,0:0:0:0:
309,244,102616,1,0,0:0:0:0:
332,250,103343,1,8,0:0:0:0:
321,256,103707,1,8,0:0:0:0:
354,258,104070,1,0,0:0:0:0:
311,242,105161,1,8,0:0:0:0:
296,217,105525,1,4,0:0:0:0:
274,220,105888,1,8,0:0:0:0:
267,224,106616,1,8,0:0:0:0:
280,229,106979,1,8,0:0:0:0:
280,226,107707,1,0,0:0:0:0:
293,230,108070,1,8,0:0:0:0:
309,244,108434,1,0,0:0:0:0:
326,256,109161,1,8,0:0:0:0:
300,231,109888,1,8,0:0:0:0:
292,230,110434,1,8,0:0:0:0:
306,226,110979,1,8,0:0:0:0:
302,225,111343,1,4,0:0:0:0:
288,224,112070,1,8,0:0:0:0:
256,192,112798,1,4,0:0:0:0:
256,192,113343,1,4,0:0:0:0:
256,192,113888,1,12,0:0:0:0:
256,224,114252,1,0,0:0:0:0:
256,192,114798,1,8,0:0:0:0:
288,224,115343,1,0,0:0:0:0:
256,224,115707,1,0,0:0:0:0:
237,204,116252,1,0,0:0:0:0:
261,214,116798,1,8,0:0:0:0:
224,192,117161,1,0,0:0:0:0:
230,211,117707,1,8,0:0:0:0:
224,224,118252,1,0,0:0:0:0:
230,211,118616,1,8,0:0:0:0:
249,209,119707,1,8,0:0:0:0:
230,211,120070,1,0,0:0:0:0:
230,211,120616,1,8,0:0:0:0:
230,211,121161,1,0,0:0:0:0:
230,211,121525,1,0,0:0:0:0:
230,211,122070,1,0,0:0:0:0:
230,211,122616,1,8,0:0:0:0:
226,206,122979,1,0,0:0:0:0:
230,211,123525,1,8,0:0:0:0:
230,211,124070,1,8,0:0:0:0:
230,211,124434,1,0,0:0:0:0:
256,192,125161,12,0,125888,0:0:0:0:
256,256,126252,5,12,0:0:0:0:
