osu file format v14

[General]
AudioFilename: neko.mp3
AudioLeadIn: 0
PreviewTime: 41525
Countdown: 0
SampleSet: Normal
StackLeniency: 0.7
Mode: 1
LetterboxInBreaks: 0
WidescreenStoryboard: 1

[Editor]
DistanceSpacing: 0.8
BeatDivisor: 4
GridSize: 32
TimelineZoom: 2.3

[Metadata]
Title:BUZRA
TitleUnicode:刃図羅
Artist:Nekomata Master vs. HuMeR
ArtistUnicode:猫叉Master vs. HuΣeR
Creator:ZTH
Version:Futsuu
Source:beatmania IIDX 24 SINOBUZ
Tags:Last Arts 25 CANNON BALLERS konami naoyuki sato Electronic Instrumental 佐藤直之 Aritomo Hamada 濵田有共
BeatmapID:2830136
BeatmapSetID:1349645

[Difficulty]
HPDrainRate:7
CircleSize:5
OverallDifficulty:3.8
ApproachRate:5
SliderMultiplier:1.4
SliderTickRate:1

[Events]
//Background and Video events
0,0,"jpg.jpg",0,-20
//Break Periods
//Storyboard Layer 0 (Background)
//Storyboard Layer 1 (Fail)
//Storyboard Layer 2 (Pass)
//Storyboard Layer 3 (Foreground)
//Storyboard Layer 4 (Overlay)
//Storyboard Sound Samples

[TimingPoints]
798,363.636363636364,4,1,0,80,1,0
798,-108.108108108108,4,1,0,80,0,0
13146,-108.108108108108,4,1,0,80,0,0
13509,-105.540897097625,4,1,0,80,0,0
13691,-104.302477183833,4,1,0,80,0,0
13873,-103.092783505155,4,1,0,85,0,0
26964,-108.108108108108,4,1,0,85,0,0
27691,-108.108108108108,4,1,0,85,0,0
27873,-107.385087218168,4,1,0,85,0,0
28055,-106.671559335522,4,1,0,85,0,0
28418,-105.272798666825,4,1,0,85,0,0
28691,-104.247458446963,4,1,0,85,0,0
28964,-103.241898866301,4,1,0,85,0,0
29146,-102.582304347335,4,1,0,85,0,0
29327,-101.931084393841,4,1,0,85,0,0
29509,-101.287977927324,4,1,0,85,0,0
29873,-100.026006761758,4,1,0,90,0,0
40055,-100,4,1,0,90,0,0
40327,-99.4406463642014,4,1,0,90,0,0
40600,-98.8875154511743,4,1,0,90,0,0
40873,-98.340503995083,4,1,0,90,0,0
41146,-97.799511002445,4,1,0,90,0,0
41509,-97.0873786407767,4,1,0,90,0,0
46964,-86.9565217391304,4,1,0,90,0,0
47327,-97.0873786407767,4,1,0,90,0,0
52782,-86.9565217391304,4,1,0,90,0,0
53146,-97.0873786407767,4,1,0,90,0,0
58600,-86.9565217391304,4,1,0,90,0,0
58964,-97.0873786407767,4,1,0,90,0,0
63691,-95.7009231311045,4,1,0,90,0,0
63873,-95.0224395490995,4,1,0,90,0,0
64055,-94.35341960381,4,1,0,90,0,0
64418,-93.0434224348161,4,1,0,90,0,0
64782,-91.769302984613,4,1,0,90,0,0
64798,-91.769302984613,4,1,0,90,0,1
73525,-91.769302984613,4,1,0,90,0,0
74237,-101.522842639594,4,1,0,85,0,0
78237,-101.522842639594,4,1,0,85,0,0
78418,-100.250626566416,4,1,0,85,0,0
78600,-99.009900990099,4,1,0,85,0,0
79327,-94.3396226415094,4,1,0,90,0,0
82237,-94.3396226415094,4,1,0,95,0,0
82252,-94.3396226415094,4,1,0,95,0,1
82964,-93.5125657510228,4,1,0,95,0,1
83237,-93.2061132025527,4,1,0,95,0,1
83509,-92.9017489683261,4,1,0,95,0,1
83691,-92.6998841251448,4,1,0,95,0,1
84055,-92.298774826063,4,1,0,95,0,1
84418,-91.9012062033314,4,1,0,95,0,1
84691,-91.6052072063984,4,1,0,95,0,1
84964,-91.3111921954498,4,1,0,95,0,1
85146,-91.1161731207289,4,1,0,95,0,1
85327,-90.9219852997334,4,1,0,95,0,1
85509,-90.7286234290339,4,1,0,95,0,1
85873,-90.3444381705251,4,1,0,95,0,1
86146,-90.0583668275409,4,1,0,95,0,1
86418,-89.7741820225405,4,1,0,95,0,1
86600,-89.5856662933931,4,1,0,95,0,1
86964,-89.211000073153,4,1,0,95,0,1
87327,-88.8395335924486,4,1,0,95,0,1
87509,-88.6549187078723,4,1,0,95,0,1
87691,-88.471147789283,4,1,0,95,0,1
87873,-88.2880592165671,4,1,0,95,0,1
88055,-88.1057268722467,4,1,0,95,0,1
88070,-88.1057268722467,4,1,0,95,0,0
88417,-101.522842639594,4,1,0,80,0,0
93509,-90.4977375565611,4,1,0,85,0,0
93873,-101.522842639594,4,1,0,85,0,0
98055,-101.522842639594,4,1,0,85,0,0
98237,-100.671174721871,4,1,0,85,0,0
98600,-99.009900990099,4,1,0,85,0,0
98782,-98.1997048116873,4,1,0,85,0,0
98964,-97.4025657783877,4,1,0,85,0,0
99146,-96.6183574879227,4,1,0,85,0,0
99327,-95.8466759893533,4,1,0,85,0,0
99691,-94.3396226415094,4,1,0,90,0,0
111870,-101.522842639594,4,1,0,85,0,0
112782,-101.522842639594,4,1,0,90,0,0
113327,-98.7187296084124,4,1,0,90,0,0
113873,-96.0652628970017,4,1,0,90,0,0
114237,-94.3396226415094,4,1,0,95,0,0
114252,-94.3396226415094,4,1,0,95,0,1
114509,-94.1730429664509,4,1,0,95,0,1
114782,-94.0070505287897,4,1,0,95,0,1
115146,-93.7866354044549,4,1,0,95,0,1
115327,-93.6768149882904,4,1,0,95,0,1
115691,-93.4579439252336,4,1,0,95,0,1
115964,-93.2944606413994,4,1,0,95,0,1
116237,-93.1315483119907,4,1,0,95,0,1
116418,-93.0232558139535,4,1,0,95,0,1
117146,-92.5925925925926,4,1,0,95,0,1
117418,-92.4321201617562,4,1,0,95,0,1
117691,-92.2722029988466,4,1,0,95,0,1
118055,-92.0598388952819,4,1,0,95,0,1
118237,-91.9540229885058,4,1,0,95,0,1
118600,-91.743119266055,4,1,0,95,0,1
118782,-91.6380297823597,4,1,0,95,0,1
118964,-91.533180778032,4,1,0,95,0,1
119327,-91.324200913242,4,1,0,95,0,1
119873,-91.0125142207054,4,1,0,95,0,1
120055,-90.9090909090909,4,1,0,95,0,1
120327,-90.7543959160522,4,1,0,95,0,1
120600,-90.6002265005663,4,1,0,95,0,1
120964,-90.3954802259887,4,1,0,95,0,1
121146,-90.293453724605,4,1,0,95,0,1
121509,-90.0900900900901,4,1,0,95,0,1
121782,-89.938167509837,4,1,0,95,0,1
122055,-89.7867564534231,4,1,0,95,0,1
122237,-89.6860986547085,4,1,0,95,0,1
122600,-89.4854586129754,4,1,0,95,0,1
122782,-89.3854748603352,4,1,0,95,0,1
122964,-89.2857142857143,4,1,0,95,0,1
123237,-89.1364902506964,4,1,0,95,0,1
123509,-88.9877641824249,4,1,0,95,0,1
123873,-88.7902330743618,4,1,0,95,0,1
124055,-88.6917960088692,4,1,0,95,0,1
124418,-88.495575221239,4,1,0,95,0,1
124600,-88.3977900552486,4,1,0,95,0,1
124782,-88.3002207505519,4,1,0,95,0,1
125146,-88.1057268722467,4,1,0,95,0,1
125888,-88.1057268722467,4,1,0,95,0,0
126237,-88.1057268722467,4,1,0,85,0,0

[HitObjects]
250,219,2252,5,4,0:0:0:0:
250,219,2979,1,0,0:0:0:0:
250,219,3707,1,8,0:0:0:0:
245,189,5161,1,0,0:0:0:0:
234,213,5888,1,8,0:0:0:0:
249,213,6616,1,0,0:0:0:0:
260,211,8070,1,4,0:0:0:0:
249,213,8798,1,0,0:0:0:0:
249,213,9525,1,8,0:0:0:0:
249,213,10979,1,0,0:0:0:0:
249,213,11707,1,8,0:0:0:0:
249,213,12434,1,0,0:0:0:0:
259,184,13161,5,8,0:0:0:0:
265,190,13525,1,0,0:0:0:0:
219,185,13707,1,8,0:0:0:0:
265,190,13888,1,4,0:0:0:0:
280,191,14616,1,8,0:0:0:0:
289,212,15343,1,0,0:0:0:0:
289,212,16070,1,8,0:0:0:0:
289,212,16434,1,0,0:0:0:0:
289,212,16616,1,8,0:0:0:0:
265,190,16798,1,0,0:0:0:0:
299,224,17343,1,8,0:0:0:0:
280,191,17525,1,0,0:0:0:0:
289,212,18252,1,0,0:0:0:0:
289,212,18798,1,0,0:0:0:0:
289,212,18979,1,8,0:0:0:0:
289,212,19161,1,0,0:0:0:0:
289,212,19525,1,8,0:0:0:0:
265,190,19707,1,4,0:0:0:0:
280,191,20434,1,8,0:0:0:0:
289,212,21161,1,0,0:0:0:0:
289,212,21888,1,8,0:0:0:0:
289,212,22252,1,0,0:0:0:0:
289,212,22434,1,8,0:0:0:0:
265,190,22616,1,0,0:0:0:0:
283,221,23161,1,8,0:0:0:0:
280,191,23343,1,0,0:0:0:0:
289,212,24070,1,8,0:0:0:0:
289,212,24616,1,0,0:0:0:0:
289,212,24798,1,8,0:0:0:0:
289,212,25161,1,0,0:0:0:0:
289,212,25343,1,8,0:0:0:0:
287,207,25525,1,4,0:0:0:0:
285,207,26979,1,8,0:0:0:0:
285,207,27707,1,0,0:0:0:0:
285,207,27888,1,0,0:0:0:0:
278,203,28070,1,0,0:0:0:0:
278,203,28434,1,8,0:0:0:0:
293,226,28707,1,8,0:0:0:0:
293,226,28979,1,8,0:0:0:0:
292,213,29161,1,0,0:0:0:0:
290,214,29343,1,8,0:0:0:0:
283,233,29525,1,8,0:0:0:0:
283,233,29888,1,0,0:0:0:0:
273,214,30252,1,8,0:0:0:0:
273,214,30434,1,0,0:0:0:0:
273,214,30798,1,8,0:0:0:0:
274,214,30979,1,0,0:0:0:0:
273,214,31707,1,8,0:0:0:0:
318,246,31888,1,8,0:0:0:0:
287,211,32252,1,0,0:0:0:0:
287,211,32434,1,8,0:0:0:0:
273,214,33161,1,8,0:0:0:0:
273,214,33343,1,0,0:0:0:0:
273,214,33707,1,8,0:0:0:0:
274,214,33888,1,0,0:0:0:0:
273,214,34252,1,0,0:0:0:0:
273,214,34525,1,8,0:0:0:0:
287,211,34798,1,8,0:0:0:0:
287,211,34979,1,0,0:0:0:0:
274,202,35343,1,8,0:0:0:0:
273,202,35707,1,0,0:0:0:0:
289,185,36070,1,8,0:0:0:0:
290,177,36252,1,8,0:0:0:0:
287,211,36616,1,8,0:0:0:0:
287,211,36798,1,0,0:0:0:0:
285,222,37161,1,0,0:0:0:0:
306,227,37343,1,0,0:0:0:0:
306,227,37525,1,8,0:0:0:0:
320,224,37888,1,8,0:0:0:0:
320,224,38616,1,8,0:0:0:0:
320,224,38888,1,0,0:0:0:0:
320,224,39161,1,8,0:0:0:0:
320,224,39434,1,0,0:0:0:0:
320,224,39707,1,8,0:0:0:0:
320,224,40070,1,8,0:0:0:0:
320,224,40343,1,8,0:0:0:0:
320,224,40616,1,8,0:0:0:0:
320,224,40888,1,8,0:0:0:0:
320,224,41161,1,8,0:0:0:0:
320,224,41525,1,4,0:0:0:0:
274,226,41888,1,8,0:0:0:0:
320,224,42252,1,8,0:0:0:0:
292,223,42979,1,0,0:0:0:0:
299,218,43343,1,8,0:0:0:0:
287,233,43525,1,8,0:0:0:0:
360,221,43707,1,0,0:0:0:0:
288,224,44070,1,8,0:0:0:0:
288,224,44434,1,0,0:0:0:0:
288,224,44798,1,8,0:0:0:0:
288,224,45161,1,8,0:0:0:0:
257,233,45525,1,0,0:0:0:0:
257,233,45707,1,8,0:0:0:0:
320,224,45888,1,0,0:0:0:0:
255,239,46070,1,8,0:0:0:0:
260,228,46252,1,0,0:0:0:0:
288,224,46616,1,8,0:0:0:0:
256,224,46979,1,4,0:0:0:0:
256,224,47343,1,4,0:0:0:0:
243,209,47707,1,8,0:0:0:0:
256,224,48070,1,8,0:0:0:0:
256,224,48798,1,0,0:0:0:0:
256,224,49161,1,8,0:0:0:0:
242,231,49343,1,8,0:0:0:0:
224,192,49525,1,0,0:0:0:0:
224,192,49888,1,8,0:0:0:0:
224,224,50252,1,0,0:0:0:0:
225,233,50616,1,8,0:0:0:0:
224,224,50979,1,0,0:0:0:0:
233,224,51161,1,0,0:0:0:0:
231,225,51343,1,8,0:0:0:0:
224,224,51707,1,8,0:0:0:0:
224,224,52070,1,0,0:0:0:0:
224,224,52252,1,8,0:0:0:0:
224,224,52434,1,0,0:0:0:0:
224,224,52798,1,12,0:0:0:0:
320,224,53161,1,4,0:0:0:0:
320,192,53525,1,8,0:0:0:0:
320,224,53888,1,8,0:0:0:0:
292,223,54616,1,0,0:0:0:0:
299,218,54979,1,8,0:0:0:0:
323,229,55161,1,8,0:0:0:0:
360,221,55343,1,0,0:0:0:0:
288,224,55707,1,0,0:0:0:0:
285,214,55888,1,8,0:0:0:0:
288,224,56070,1,0,0:0:0:0:
288,224,56434,1,8,0:0:0:0:
288,224,56798,1,8,0:0:0:0:
288,224,57161,1,0,0:0:0:0:
320,224,57343,1,8,0:0:0:0:
320,224,57525,1,0,0:0:0:0:
288,224,57707,1,8,0:0:0:0:
260,228,57888,1,0,0:0:0:0:
288,224,58252,1,8,0:0:0:0:
256,224,58616,1,4,0:0:0:0:
256,224,58979,1,4,0:0:0:0:
256,224,59343,1,8,0:0:0:0:
256,224,59707,1,8,0:0:0:0:
256,224,60434,1,0,0:0:0:0:
256,224,60798,1,8,0:0:0:0:
224,192,60979,1,8,0:0:0:0:
224,192,61161,1,0,0:0:0:0:
224,192,61525,1,0,0:0:0:0:
233,215,61707,1,8,0:0:0:0:
224,224,61888,1,0,0:0:0:0:
224,224,62252,5,8,0:0:0:0:
203,192,62616,1,0,0:0:0:0:
243,215,62798,1,0,0:0:0:0:
213,187,62979,1,8,0:0:0:0:
237,167,63343,5,8,0:0:0:0:
268,199,63707,1,0,0:0:0:0:
274,200,63888,1,8,0:0:0:0:
273,191,64070,1,0,0:0:0:0:
305,200,64434,5,8,0:0:0:0:
286,172,64798,5,4,0:0:0:0:
281,176,65525,1,8,0:0:0:0:
279,171,65888,1,8,0:0:0:0:
284,171,66252,1,0,0:0:0:0:
282,180,66616,1,0,0:0:0:0:
284,171,66979,1,8,0:0:0:0:
284,171,67343,1,8,0:0:0:0:
284,171,67585,1,0,0:0:0:0:
286,172,67707,5,0,0:0:0:0:
281,176,68434,1,8,0:0:0:0:
279,171,68798,1,8,0:0:0:0:
284,171,69161,1,0,0:0:0:0:
294,184,69525,1,8,0:0:0:0:
284,171,69888,1,8,0:0:0:0:
284,171,70252,1,8,0:0:0:0:
284,171,70494,1,0,0:0:0:0:
273,180,70616,1,0,0:0:0:0:
284,186,71343,1,8,0:0:0:0:
284,186,71707,1,0,0:0:0:0:
284,186,72070,1,0,0:0:0:0:
284,186,72434,1,8,0:0:0:0:
284,186,72798,1,8,0:0:0:0:
284,186,73161,1,0,0:0:0:0:
284,186,73404,1,0,0:0:0:0:
284,186,73525,1,0,0:0:0:0:
277,193,74252,1,8,0:0:0:0:
277,193,74979,1,0,0:0:0:0:
277,193,75707,1,8,0:0:0:0:
277,193,76434,1,0,0:0:0:0:
301,196,77161,1,8,0:0:0:0:
301,196,77888,1,0,0:0:0:0:
297,238,78252,1,0,0:0:0:0:
297,238,78434,1,0,0:0:0:0:
294,211,78616,1,8,0:0:0:0:
306,208,79343,1,4,0:0:0:0:
271,209,79707,1,0,0:0:0:0:
319,213,79888,1,8,0:0:0:0:
319,213,80070,1,0,0:0:0:0:
319,213,80252,1,8,0:0:0:0:
337,228,80434,1,0,0:0:0:0:
307,214,80798,1,0,0:0:0:0:
320,218,81161,1,0,0:0:0:0:
329,219,81343,1,8,0:0:0:0:
329,219,81525,1,8,0:0:0:0:
329,219,81707,1,8,0:0:0:0:
329,219,81888,1,0,0:0:0:0:
226,206,82252,1,4,0:0:0:0:
230,211,82979,1,8,0:0:0:0:
230,211,83252,1,0,0:0:0:0:
230,211,83525,1,8,0:0:0:0:
230,211,83707,1,0,0:0:0:0:
230,211,84070,1,0,0:0:0:0:
229,211,84434,1,8,0:0:0:0:
230,211,84707,1,0,0:0:0:0:
230,211,84979,1,8,0:0:0:0:
230,211,85161,1,0,0:0:0:0:
230,211,85343,1,8,0:0:0:0:
230,211,85525,1,0,0:0:0:0:
230,211,85888,1,8,0:0:0:0:
230,211,86161,5,0,0:0:0:0:
229,211,86434,1,8,0:0:0:0:
230,211,86616,1,0,0:0:0:0:
230,211,86979,1,0,0:0:0:0:
234,215,87343,1,0,0:0:0:0:
234,215,87525,1,0,0:0:0:0:
234,215,87707,1,8,0:0:0:0:
234,215,87888,1,8,0:0:0:0:
253,182,88070,1,4,0:0:0:0:
234,197,89161,1,0,0:0:0:0:
262,226,89525,1,8,0:0:0:0:
254,211,90252,1,0,0:0:0:0:
258,210,90616,1,8,0:0:0:0:
273,207,90979,1,0,0:0:0:0:
261,211,91707,1,8,0:0:0:0:
272,225,92070,1,8,0:0:0:0:
268,224,92434,1,0,0:0:0:0:
277,204,93161,1,8,0:0:0:0:
325,215,93525,1,4,0:0:0:0:
296,198,93888,5,0,0:0:0:0:
234,197,94252,1,8,0:0:0:0:
263,213,94798,1,8,0:0:0:0:
234,197,94979,1,0,0:0:0:0:
262,226,95343,1,8,0:0:0:0:
281,220,95888,1,8,0:0:0:0:
254,211,96070,1,8,0:0:0:0:
258,210,96434,1,0,0:0:0:0:
273,207,96798,1,0,0:0:0:0:
270,230,97343,1,0,0:0:0:0:
261,211,97525,1,8,0:0:0:0:
289,236,98070,1,0,0:0:0:0:
298,214,98252,1,8,0:0:0:0:
291,222,98616,1,0,0:0:0:0:
291,222,98798,1,8,0:0:0:0:
291,222,98979,1,0,0:0:0:0:
291,222,99161,1,0,0:0:0:0:
283,216,99343,1,8,0:0:0:0:
291,222,99707,1,4,0:0:0:0:
274,220,100070,1,8,0:0:0:0:
268,227,100434,1,0,0:0:0:0:
274,220,100616,1,8,0:0:0:0:
267,224,100798,1,8,0:0:0:0:
280,229,101161,1,8,0:0:0:0:
279,230,101525,1,0,0:0:0:0:
280,229,101707,1,8,0:0:0:0:
280,226,101888,1,0,0:0:0:0:
288,256,102070,1,0,0:0:0:0:
293,230,102252,1,8,0:0:0:0:
309,244,102616,1,0,0:0:0:0:
326,256,103343,1,8,0:0:0:0:
332,250,103525,1,8,0:0:0:0:
321,256,103707,1,0,0:0:0:0:
326,225,103888,1,8,0:0:0:0:
354,258,104070,1,0,0:0:0:0:
338,261,104434,1,8,0:0:0:0:
311,242,104616,1,8,0:0:0:0:
315,252,104798,1,0,0:0:0:0:
311,242,105161,1,8,0:0:0:0:
296,217,105525,1,4,0:0:0:0:
274,220,105888,1,8,0:0:0:0:
268,227,106252,1,0,0:0:0:0:
274,220,106434,1,8,0:0:0:0:
267,224,106616,1,8,0:0:0:0:
280,229,106979,1,8,0:0:0:0:
274,230,107343,1,0,0:0:0:0:
280,229,107525,1,8,0:0:0:0:
280,226,107707,1,0,0:0:0:0:
280,229,107888,5,0,0:0:0:0:
293,230,108070,1,8,0:0:0:0:
309,244,108434,1,0,0:0:0:0:
315,243,108979,1,0,0:0:0:0:
326,256,109161,1,8,0:0:0:0:
315,246,109707,1,0,0:0:0:0:
300,231,109888,1,8,0:0:0:0:
283,220,110161,1,0,0:0:0:0:
292,230,110434,1,8,0:0:0:0:
306,226,110979,1,8,0:0:0:0:
288,224,111161,1,8,0:0:0:0:
302,225,111343,1,4,0:0:0:0:
288,224,112070,1,8,0:0:0:0:
256,192,112798,1,4,0:0:0:0:
256,192,113343,1,4,0:0:0:0:
256,192,113888,1,12,0:0:0:0:
256,224,114252,1,0,0:0:0:0:
288,224,114525,1,0,0:0:0:0:
256,192,114798,1,8,0:0:0:0:
288,256,115161,1,8,0:0:0:0:
288,224,115343,1,0,0:0:0:0:
256,224,115707,1,0,0:0:0:0:
224,192,115979,1,8,0:0:0:0:
237,204,116252,1,0,0:0:0:0:
224,192,116434,1,8,0:0:0:0:
224,192,117161,1,0,0:0:0:0:
230,211,117434,1,0,0:0:0:0:
230,211,117707,1,8,0:0:0:0:
224,192,118070,1,8,0:0:0:0:
224,224,118252,1,0,0:0:0:0:
230,211,118616,1,0,0:0:0:0:
224,224,118798,1,8,0:0:0:0:
230,211,118979,1,0,0:0:0:0:
229,211,119343,1,8,0:0:0:0:
249,209,119888,1,8,0:0:0:0:
226,206,120070,1,0,0:0:0:0:
230,211,120343,1,8,0:0:0:0:
230,211,120616,1,8,0:0:0:0:
230,211,120979,1,8,0:0:0:0:
230,211,121161,1,0,0:0:0:0:
230,211,121525,1,0,0:0:0:0:
230,211,121798,1,8,0:0:0:0:
230,211,122070,1,0,0:0:0:0:
248,216,122252,1,8,0:0:0:0:
230,211,122616,1,8,0:0:0:0:
224,224,122798,1,8,0:0:0:0:
226,206,122979,1,0,0:0:0:0:
230,211,123252,1,8,0:0:0:0:
230,211,123525,1,8,0:0:0:0:
230,211,123888,1,8,0:0:0:0:
230,211,124070,1,0,0:0:0:0:
230,211,124434,1,0,0:0:0:0:
230,211,124616,1,8,0:0:0:0:
230,211,124798,1,0,0:0:0:0:
256,192,125161,12,0,125888,0:0:0:0:
256,256,126252,5,12,0:0:0:0:
