osu file format v14

[General]
AudioFilename: audio.mp3
AudioLeadIn: 0
PreviewTime: 2201
Countdown: 0
SampleSet: Soft
StackLeniency: 0
Mode: 0
LetterboxInBreaks: 0
WidescreenStoryboard: 0

[Editor]
Bookmarks: 2201,29837,41473,64746,79291,88019,99655,130201
DistanceSpacing: 1.2
BeatDivisor: 8
GridSize: 32
TimelineZoom: 3.399999

[Metadata]
Title:BUZRA
TitleUnicode:刃図羅
Artist:Nekomata Master vs. HuMeR
ArtistUnicode:猫叉Master vs. HuΣeR
Creator:Kyumo
Version:RIFT
Source:beatmania IIDX 24 SINOBUZ
Tags:electronic instrumental omc7 o!mc 7 xenon xehn xen xenon- 0ppinosu oppinosu zetera sala- j1 j1_ xj1
BeatmapID:2845557
BeatmapSetID:1376812

[Difficulty]
HPDrainRate:5.5
CircleSize:3.8
OverallDifficulty:9
ApproachRate:9.4
SliderMultiplier:1.8
SliderTickRate:1

[Events]
//Background and Video events
0,0,"buzra.jpg",0,0
//Break Periods
//Storyboard Layer 0 (Background)
//Storyboard Layer 1 (Fail)
//Storyboard Layer 2 (Pass)
//Storyboard Layer 3 (Foreground)
//Storyboard Layer 4 (Overlay)
//Storyboard Sound Samples

[TimingPoints]
2201,363.636363636364,4,2,0,60,1,0
2928,-166.666666666667,4,2,0,60,0,0
3655,-100,4,2,0,60,0,0
5110,-166.666666666667,4,2,0,60,0,0
9473,-125,4,2,0,60,0,0
13837,-125,4,2,3,70,0,0
16019,-125,4,2,3,60,0,0
16746,-125,4,2,3,50,0,0
17473,-125,4,2,3,40,0,0
18201,-250,4,2,3,30,0,0
18928,-500,4,2,3,30,0,0
19655,-125,4,2,3,70,0,0
21837,-125,4,2,3,60,0,0
22564,-125,4,2,3,50,0,0
23291,-125,4,2,3,40,0,0
24019,-125,4,2,3,60,0,0
25473,-125,4,2,1,70,0,0
26928,-250,4,2,1,70,0,0
27655,-125,4,2,1,70,0,0
29837,-55.5555555555556,4,2,1,70,0,0
30382,-83.3333333333333,4,2,1,70,0,0
31473,-55.5555555555556,4,2,1,70,0,0
31837,-71.4285714285714,4,2,1,70,0,0
35291,-100,4,2,1,70,0,0
35382,-71.4285714285714,4,2,1,70,0,0
35473,-55.5555555555556,4,2,1,70,0,0
35564,-45.4545454545455,4,2,1,70,0,0
36201,-62.5,4,2,1,70,0,0
38201,-125,4,2,1,70,0,0
38564,-62.5,4,2,1,90,0,0
40019,-41.6666666666667,4,2,1,90,0,0
40291,-55.5555555555556,4,2,1,90,0,0
40564,-41.6666666666667,4,2,1,90,0,0
41201,-62.5,4,2,1,90,0,0
41382,-41.6666666666667,4,2,1,90,0,0
41473,-100,4,2,1,80,0,0
42928,-62.5,4,2,1,80,0,0
45110,-125,4,2,1,80,0,0
45473,-62.5,4,2,1,80,0,0
46746,-125,4,2,1,80,0,0
46928,-62.5,4,2,1,80,0,0
47291,-100,4,2,1,80,0,0
48746,-62.5,4,2,1,80,0,0
53110,-100,4,2,1,80,0,0
54201,-100,4,2,1,80,0,0
54564,-62.5,4,2,1,80,0,0
56746,-100,4,2,1,80,0,0
57110,-62.5,4,2,1,80,0,0
58564,-50,4,2,1,80,0,0
58928,-100,4,2,1,80,0,0
60019,-83.3333333333333,4,2,1,80,0,0
60382,-62.5,4,2,1,80,0,0
63928,-83.3333333333333,4,2,1,80,0,0
64382,-62.5,4,2,1,80,0,0
64746,-100,4,2,1,90,0,0
71655,-62.5,4,2,1,90,0,0
72019,-100,4,2,1,90,0,0
79428,-100,4,2,1,5,0,0
79473,-100,4,2,1,80,0,0
79655,-71.4285714285714,4,2,1,80,0,0
79791,-71.4285714285714,4,2,1,5,0,0
79837,-71.4285714285714,4,2,1,80,0,0
80019,-55.5555555555556,4,2,1,80,0,0
80155,-55.5555555555556,4,2,1,5,0,0
80201,-55.5555555555556,4,2,1,80,0,0
80382,-71.4285714285714,4,2,1,80,0,0
80519,-71.4285714285714,4,2,1,5,0,0
80564,-71.4285714285714,4,2,1,80,0,0
80746,-100,4,2,1,80,0,0
80882,-100,4,2,1,5,0,0
80928,-100,4,2,1,80,0,0
81110,-71.4285714285714,4,2,1,80,0,0
81246,-71.4285714285714,4,2,1,5,0,0
81291,-71.4285714285714,4,2,1,80,0,0
81473,-55.5555555555556,4,2,1,80,0,0
81610,-55.5555555555556,4,2,1,5,0,0
81655,-55.5555555555556,4,2,1,80,0,0
81837,-71.4285714285714,4,2,1,80,0,0
81973,-71.4285714285714,4,2,1,5,0,0
82019,-71.4285714285714,4,2,1,80,0,0
82201,-100,4,2,1,80,0,0
82564,-71.4285714285714,4,2,1,80,0,0
82928,-55.5555555555556,4,2,1,80,0,0
83655,-62.5,4,2,1,80,0,0
86564,-45.4545454545455,4,2,1,80,0,0
87837,-45.4545454545455,4,2,1,70,0,0
88019,-250,4,2,1,70,0,0
91837,-125,4,2,1,70,0,0
92382,-250,4,2,1,70,0,0
93291,-125,4,2,1,70,0,0
93837,-83.3333333333333,4,2,1,70,0,0
98201,-50,4,2,1,70,0,0
99655,-166.666666666667,4,2,1,90,0,1
100019,-55.5555555555556,4,2,1,90,0,1
100564,-38.4615384615385,4,2,1,90,0,1
101110,-55.5555555555556,4,2,1,90,0,1
101473,-50,4,2,1,90,0,1
101837,-41.6666666666667,4,2,1,90,0,1
102201,-55.5555555555556,4,2,1,90,0,1
104019,-35.7142857142857,4,2,1,90,0,1
104382,-50,4,2,1,90,0,1
106928,-35.7142857142857,4,2,1,90,0,1
107291,-50,4,2,1,90,0,1
107655,-38.4615384615385,4,2,1,90,0,1
108201,-50,4,2,1,90,0,1
108382,-38.4615384615385,4,2,1,90,0,1
108746,-55.5555555555556,4,2,1,90,0,1
111291,-55.5555555555556,4,2,1,80,0,1
112746,-500,4,2,1,100,0,1
112837,-166.666666666667,4,2,1,100,0,1
112928,-83.3333333333333,4,2,1,100,0,1
113019,-71.4285714285714,4,2,1,100,0,1
113110,-50,4,2,1,100,0,1
113201,-38.4615384615385,4,2,1,100,0,1
113291,-29.4117647058824,4,2,1,100,0,1
113382,-25,4,2,1,100,0,1
113564,-29.4117647058824,4,2,1,100,0,1
113655,-38.4615384615385,4,2,1,100,0,1
113746,-50,4,2,1,100,0,1
113837,-71.4285714285714,4,2,1,80,0,1
113928,-83.3333333333333,4,2,1,80,0,1
114019,-166.666666666667,4,2,1,80,0,1
114110,-500,4,2,1,80,0,1
114201,-55.5555555555556,4,2,1,80,0,1
118382,-83.3333333333333,4,2,1,80,0,1
120019,-55.5555555555556,4,2,1,80,0,1
125110,-33.3333333333333,4,2,1,80,0,1
125473,-62.5,4,2,1,80,0,1
125837,-50,4,2,1,60,0,0
126201,-181.818181818182,4,2,1,60,0,0
130201,-181.818181818182,4,2,1,5,0,0

[Colours]
Combo1 : 255,255,164
Combo2 : 255,164,119

[HitObjects]
82,229,2201,6,0,B|132:216|146:165|117:110|64:103|1:130|-20:195|8:275,1,315,6|0,1:2|0:0,0:0:0:0:
1,271,2928,2,0,P|75:262|203:252,1,188.999994232178,2|0,0:0|0:0,0:0:0:0:
401,339,3655,2,0,B|466:353|539:305|530:199|477:133|364:120|298:188|305:273|322:288|343:303|316:342|246:369|184:349|167:295|189:253|189:253|189:297|237:317,1,675,2|0,0:0|0:0,0:0:0:0:
259,210,5110,6,0,P|247:124|233:28,1,161.999995056153,2|0,0:0|0:0,0:0:0:0:
112,227,5837,2,0,P|124:141|138:45,1,161.999995056153,2|0,0:0|0:0,0:0:0:0:
382,20,6564,6,0,B|419:91|419:91|336:49|233:49,1,269.999991760254,2|0,0:0|0:0,0:0:0:0:
235,49,7837,1,0,0:0:0:0:
123,101,8019,6,0,B|100:90|76:101|76:101|107:69|152:75|180:107|172:162,1,188.999994232178,6|0,1:2|0:0,0:0:0:0:
194,152,8746,2,0,P|180:207|156:351,1,188.999994232178,2|0,0:0|0:0,0:0:0:0:
446,242,9473,2,0,B|483:214|502:153|450:90|331:71|213:156|203:226|253:302|318:292|321:280|324:270|358:270|395:283|397:339,1,504,2|0,0:0|0:0,0:0:0:0:
270,356,10928,6,0,P|200:376|131:270,1,216,2|0,0:0|0:0,0:0:0:0:
300,252,11655,2,0,P|370:272|439:166,1,216,2|0,0:0|0:0,0:0:0:0:
247,71,12382,6,0,B|184:85|161:141|179:200|179:200|236:182,1,216,2|0,0:0|0:0,0:0:0:0:
512,72,13110,5,2,0:0:0:0:
441,36,13201,1,2,0:0:0:0:
397,70,13291,1,2,0:0:0:0:
365,55,13382,1,2,0:0:0:0:
342,64,13473,1,2,0:0:0:0:
324,60,13564,1,2,0:0:0:0:
313,66,13655,1,2,0:0:0:0:
303,63,13746,1,2,0:0:0:0:
224,52,13837,6,0,P|205:98|219:126,1,72,6|0,0:3|0:0,0:0:0:0:
290,127,14201,2,0,P|309:81|295:53,1,72
168,200,14564,6,0,P|213:194|244:193,1,72,2|0,0:0|0:0,0:0:0:0:
382,125,14928,2,0,B|410:149|410:149|376:139,1,72,2|0,0:0|0:0,0:0:0:0:
297,260,15291,6,0,P|317:214|349:206,1,72,2|0,0:0|0:0,0:0:0:0:
487,161,15655,2,0,P|468:213|462:244,1,72
443,368,16019,6,0,B|458:384|482:379|482:379|463:374|453:357,1,72,2|0,0:0|0:0,0:0:0:0:
426,293,16382,2,0,B|415:287|415:287|355:309,1,72
238,383,16746,6,0,P|225:346|199:298,1,72,2|0,0:0|0:0,0:0:0:0:
99,332,17110,2,0,P|120:366|164:365,1,72
203,203,17473,6,0,B|169:189|169:189|146:220,1,72,2|0,0:0|0:0,0:0:0:0:
196,281,17837,2,0,B|232:274|232:274|238:277|238:277|277:268,1,72
395,187,18201,6,0,P|411:170|419:152,3,36,2|0|0|0,0:0|0:0|0:0|0:0,0:0:0:0:
472,213,18928,2,0,P|488:218|497:217,3,18,2|0|0|0,0:0|0:0|0:0|0:0,0:0:0:0:
328,137,19655,6,0,B|319:94|319:94|343:126,1,72,6|0,0:3|0:0,0:0:0:0:
356,338,20019,2,0,P|318:338|290:299,1,72
410,192,20382,6,0,B|422:183|422:183|486:206,1,72,2|0,0:0|0:0,0:0:0:0:
232,264,20746,2,0,P|193:260|157:249,1,72,2|0,0:0|0:0,0:0:0:0:
427,269,21110,6,0,B|455:292|455:292|438:325,1,72,2|0,0:0|0:0,0:0:0:0:
244,181,21473,2,0,B|236:146|236:146|239:141|239:141|229:94,1,72
330,214,21837,6,0,P|316:236|325:213,3,72,2|0|0|0,0:0|0:0|0:0|0:0,0:0:0:0:
162,169,22564,5,2,0:0:0:0:
151,157,22746,1,0,0:0:0:0:
319,93,22928,5,0,0:0:0:0:
329,43,23110,1,0,0:0:0:0:
410,192,23291,5,2,0:0:0:0:
478,156,23473,1,0,0:0:0:0:
356,338,23655,5,0,0:0:0:0:
437,373,23837,1,0,0:0:0:0:
211,354,24019,6,0,P|166:338|119:334,1,72,0|0,3:0|0:0,0:0:0:0:
74,237,24291,1,0,0:0:0:0:
79,233,24382,2,0,P|125:236|142:275,1,72,0|0,3:0|0:0,0:0:0:0:
222,277,24655,1,0,0:0:0:0:
225,267,24746,2,0,P|242:230|266:183,1,72,0|0,3:0|0:0,0:0:0:0:
206,58,25019,1,0,0:0:0:0:
197,64,25110,2,0,P|170:125|209:159,1,108,0|0,3:0|0:0,0:0:0:0:
330,169,25473,5,4,1:2:0:0:
256,192,25564,12,0,26837,0:0:0:0:
148,305,26928,6,0,L|137:280,3,18,2|0|0|0,0:0|0:0|0:0|0:0,0:0:0:0:
214,266,27291,2,0,L|230:243,3,18,2|0|0|0,0:0|0:0|0:0|0:0,0:0:0:0:
305,272,27655,5,2,0:0:0:0:
301,279,27746,1,0,0:0:0:0:
298,286,27837,2,0,L|291:333,1,36,2|0,0:0|0:0,0:0:0:0:
371,222,28019,2,0,L|393:263,1,36,2|0,0:0|0:0,0:0:0:0:
303,171,28201,2,0,L|280:212,1,36,2|0,0:0|0:0,0:0:0:0:
412,94,28382,5,0,1:0:0:0:
373,77,28473,1,0,1:0:0:0:
330,96,28564,1,0,1:0:0:0:
343,106,28655,1,0,1:0:0:0:
372,91,28746,1,0,1:0:0:0:
397,103,28837,1,0,1:0:0:0:
370,188,28928,5,0,1:0:0:0:
376,193,29019,1,0,1:0:0:0:
382,199,29110,2,0,P|375:218|366:245,1,36,4|0,1:3|1:0,0:0:0:0:
474,173,29291,2,0,P|468:155|461:139,1,36,0|0,1:0|1:0,0:0:0:0:
293,214,29473,6,0,P|275:219|259:226,1,36,0|0,1:0|0:0,0:0:0:0:
451,255,29655,2,0,P|468:260|484:267,1,36
192,182,29837,6,0,B|147:121|172:46|248:39|284:93|253:148|190:100,1,242.999992584229,2|0,3:2|0:0,0:0:0:0:
95,155,30201,2,0,B|59:128|59:128|114:145,1,80.9999975280763,2|0,3:2|0:0,0:0:0:0:
259,226,30382,6,0,B|282:241|282:241|261:295|204:295|171:259,1,161.999995056153
160,260,30746,1,0,0:0:0:0:
17,60,30928,2,0,P|31:140|40:221,1,161.999995056153,2|0,3:2|0:0,0:0:0:0:
180,341,31291,5,2,3:2:0:0:
111,285,31473,1,0,0:0:0:0:
110,275,31564,1,0,0:0:0:0:
111,264,31655,2,0,B|114:240|139:233|139:233|127:248|128:272,1,80.9999975280763,2|0,3:2|0:0,0:0:0:0:
225,270,31837,6,0,P|153:296|33:354,1,188.999994232178,2|0,0:0|0:0,0:0:0:0:
41,344,32201,2,0,P|14:309|30:270,1,62.9999980773926,2|0,0:0|0:0,0:0:0:0:
302,247,32382,2,0,B|315:267|315:267|276:387,1,125.999996154785,2|0,3:2|0:0,0:0:0:0:
117,235,32746,6,0,P|125:176|205:158,1,125.999996154785,2|0,3:2|0:0,0:0:0:0:
186,158,33019,1,0,0:0:0:0:
191,164,33110,2,0,P|223:174|258:155,1,62.9999980773926,2|0,3:2|0:0,0:0:0:0:
274,326,33291,6,0,B|334:343|353:284|340:279|330:276|350:213|411:229,1,188.999994232178,2|0,0:0|0:0,0:0:0:0:
472,264,33655,2,0,B|494:291|494:291|464:279,1,62.9999980773926,2|0,0:0|0:0,0:0:0:0:
305,189,33837,6,0,P|329:231|376:375,1,188.999994232178,2|0,3:2|0:0,0:0:0:0:
449,375,34201,1,2,3:2:0:0:
431,131,34382,5,2,0:0:0:0:
443,120,34473,1,2,0:0:0:0:
460,45,34564,1,2,3:2:0:0:
386,68,34655,1,2,0:0:0:0:
443,120,34746,2,0,B|473:112|473:112|478:106|478:106|510:97,1,62.9999980773926
295,110,34928,6,0,P|322:140|346:205,1,94.499997116089,2|0,3:2|0:0,0:0:0:0:
352,198,35110,2,0,P|388:193|406:169,1,62.9999980773926
237,228,35291,2,0,L|210:209,1,22.5,4|0,3:2|0:0,0:0:0:0:
232,242,35382,2,0,L|181:244,1,31.4999990386963
234,256,35473,2,0,L|179:276,1,40.4999987640381,2|0,0:0|0:0,0:0:0:0:
241,267,35564,2,0,L|199:309,1,49.5000015106202
278,343,35655,6,0,P|216:330|70:313,1,198.000006042481,2|0,3:2|0:0,0:0:0:0:
72,314,35928,1,0,0:0:0:0:
63,317,36019,2,0,P|57:374|104:385,1,99.0000030212403,2|0,3:2|0:0,0:0:0:0:
367,254,36201,6,0,B|363:211|324:188|280:199|280:199|260:246|194:243,1,216,2|0,0:0|0:0,0:0:0:0:
212,167,36564,2,0,B|209:142|186:142|186:142|189:165|213:167,1,72,2|0,0:0|0:0,0:0:0:0:
359,349,36746,2,0,B|332:314|345:269|385:253|391:263|397:275|437:254|449:215|426:175,1,216,2|0,3:2|0:0,0:0:0:0:
421,65,37110,5,2,3:2:0:0:
415,71,37201,1,0,0:0:0:0:
415,81,37291,2,0,P|452:107|486:98,1,72
498,13,37473,2,0,B|399:28|399:28|396:37|396:37|275:56,1,216,2|0,3:2|0:0,0:0:0:0:
245,153,37837,5,2,3:2:0:0:
235,145,37928,1,2,0:0:0:0:
227,112,38019,1,2,0:0:0:0:
203,87,38110,1,2,0:0:0:0:
207,38,38201,6,0,L|215:2,1,36,2|0,3:2|0:0,0:0:0:0:
112,90,38382,2,0,L|104:53,1,36,2|0,0:0|0:0,0:0:0:0:
173,217,38564,5,2,3:2:0:0:
182,210,38655,1,0,0:0:0:0:
190,205,38746,2,0,B|222:189|222:189|265:221,1,72
310,149,38928,2,0,B|337:186|329:222|287:246|280:237|273:226|238:245|224:292|256:325,1,216,2|0,3:2|0:0,0:0:0:0:
159,346,39291,2,0,B|168:365|193:368|193:368|183:356|177:337,1,72,2|0,3:2|0:0,0:0:0:0:
102,269,39473,5,0,0:0:0:0:
95,266,39564,1,0,0:0:0:0:
85,268,39655,2,0,P|56:300|65:339,1,72,2|0,1:2|0:0,0:0:0:0:
173,217,39837,2,0,P|159:175|121:164,1,72,2|0,0:0|0:0,0:0:0:0:
4,167,40019,5,8,3:3:0:0:
28,170,40110,1,0,0:0:0:0:
67,150,40201,1,0,0:0:0:0:
84,95,40291,1,8,3:3:0:0:
132,64,40382,1,0,0:0:0:0:
199,68,40474,1,0,0:0:0:0:
240,130,40564,1,8,3:3:0:0:
219,201,40655,1,0,0:0:0:0:
244,270,40746,1,0,0:0:0:0:
310,303,40837,1,8,3:3:0:0:
385,294,40928,1,0,0:0:0:0:
432,234,41019,1,0,0:0:0:0:
447,158,41110,6,0,L|500:181,1,53.9999983520508,8|0,3:3|0:0,0:0:0:0:
449,144,41201,2,0,L|491:125,1,36
427,144,41291,6,0,L|388:119,1,36
427,157,41382,2,0,L|369:171,1,53.9999983520508
432,234,41473,6,0,B|418:292|418:292|421:298|421:298|405:378,1,135,6|0,3:2|0:0,0:0:0:0:
318,115,41837,1,2,3:2:0:0:
318,115,42201,2,0,B|303:100|280:96|280:96|315:82|320:108,1,90,2|0,3:2|0:0,0:0:0:0:
408,143,42564,2,0,P|407:164|389:188,1,45,2|0,3:2|0:0,0:0:0:0:
402,262,42746,2,0,P|381:266|353:255,1,45
294,217,42928,6,0,P|235:204|139:192,1,144,2|0,3:2|0:0,0:0:0:0:
75,204,43201,1,0,0:0:0:0:
73,215,43291,2,0,P|80:253|120:264,1,72,2|0,3:2|0:0,0:0:0:0:
275,357,43473,5,0,0:0:0:0:
277,348,43534,1,0,0:0:0:0:
277,338,43594,1,0,0:0:0:0:
273,328,43655,2,0,B|233:310|210:350|216:353|223:357|196:404|142:376,1,144,2|0,3:2|0:0,0:0:0:0:
75,365,43928,1,0,0:0:0:0:
73,353,44019,2,0,P|63:308|30:204,1,144,2|0,3:2|0:0,0:0:0:0:
33,214,44382,6,0,B|-10:214|-9:261|-9:261|35:215|118:192,1,216,2|0,3:2|0:0,0:0:0:0:
0,126,44746,1,2,3:2:0:0:
0,126,45110,2,0,B|-16:110|-16:110|17:109|19:141,1,72,2|0,3:2|0:0,0:0:0:0:
176,324,45473,2,0,B|150:330|150:330|125:280|162:237|214:251,1,144,2|0,3:2|0:0,0:0:0:0:
256,193,45746,1,0,0:0:0:0:
266,194,45837,6,0,B|329:174|329:174|333:180|333:180|410:157,1,144,2|0,3:2|0:0,0:0:0:0:
413,157,46110,1,0,0:0:0:0:
295,273,46201,1,2,3:2:0:0:
294,284,46261,1,2,0:0:0:0:
288,291,46322,1,2,0:0:0:0:
281,297,46382,2,0,B|241:284|241:284|277:273,1,72,2|0,0:0|0:0,0:0:0:0:
440,256,46564,5,2,3:2:0:0:
440,256,46746,2,0,P|450:235|469:224,1,36,8|0,1:2|0:0,0:0:0:0:
398,320,46928,2,0,B|364:286|364:286|431:251|485:303|462:375,1,216,12|0,1:2|0:0,0:0:0:0:
322,372,47291,6,0,P|259:361|181:352,1,135,2|0,3:2|0:0,0:0:0:0:
398,320,47655,1,2,3:2:0:0:
398,320,48019,2,0,B|400:290|428:292|428:292|430:321|398:322,1,90,2|0,3:2|0:0,0:0:0:0:
320,297,48382,2,0,P|298:274|287:246,1,45,2|0,3:2|0:0,0:0:0:0:
192,307,48564,2,0,P|200:276|219:252,1,45
144,184,48746,6,0,B|182:169|229:185|229:185|242:151|208:125,1,144,2|0,3:2|0:0,0:0:0:0:
320,131,49019,1,0,0:0:0:0:
309,140,49110,2,0,P|274:182|234:271,1,144,2|0,3:2|0:0,0:0:0:0:
331,308,49473,6,0,B|349:347|392:334|400:304|363:250|272:273|277:377,1,216,2|0,3:2|0:0,0:0:0:0:
280,373,49791,1,0,0:0:0:0:
280,384,49837,2,0,P|214:377|179:304,1,144,2|0,3:2|0:0,0:0:0:0:
359,203,50201,6,0,B|408:197|417:240|417:240|384:212|336:201|283:224,1,216,2|0,3:2|0:0,0:0:0:0:
273,231,50564,2,0,P|232:204|241:162,1,72,2|0,3:2|0:0,0:0:0:0:
235,45,50746,5,0,0:0:0:0:
241,50,50807,1,0,0:0:0:0:
247,57,50867,1,0,0:0:0:0:
250,65,50928,2,0,P|233:119|187:283,1,216,2|0,3:2|0:0,0:0:0:0:
0,263,51291,2,0,B|67:239|94:305|82:309|70:313|97:378|171:354,1,216,2|0,3:2|0:0,0:0:0:0:
304,318,51655,6,0,B|328:304|354:312|354:312|340:276|280:267|234:310|248:375,1,216,2|0,3:2|0:0,0:0:0:0:
384,384,52019,2,0,P|397:309|426:212,1,144,2|0,3:2|0:0,0:0:0:0:
434,239,52291,1,0,0:0:0:0:
430,225,52382,2,0,P|417:196|413:152,1,72,2|0,3:2|0:0,0:0:0:0:
452,91,52564,2,0,P|490:88|515:130,1,72,0|0,3:0|0:0,0:0:0:0:
338,207,52746,2,0,B|290:192|271:237|279:241|286:246|266:280|219:288|185:269|195:215|244:207|270:237,1,216,6|0,3:1|0:0,0:0:0:0:
147,162,53110,6,0,B|157:180|157:180|118:296,1,135,2|0,3:2|0:0,0:0:0:0:
55,80,53473,1,2,1:2:0:0:
55,80,53837,2,0,B|40:72|40:72|42:41|42:41|60:64|60:64|55:80,1,90,2|0,3:2|0:0,0:0:0:0:
14,154,54201,6,0,P|11:180|-5:206,1,45,2|0,1:2|0:0,0:0:0:0:
93,162,54382,2,0,P|109:182|116:212,1,45
134,98,54564,6,0,P|181:90|195:57,1,72,2|0,3:2|0:0,0:0:0:0:
260,112,54746,2,0,B|296:122|296:122|265:95,1,72
255,18,54928,2,0,P|229:79|207:181,1,144,2|0,1:2|0:0,0:0:0:0:
201,164,55170,1,0,0:0:0:0:
204,174,55231,1,0,0:0:0:0:
208,184,55291,2,0,P|211:235|173:257,1,72,2|0,3:2|0:0,0:0:0:0:
105,279,55473,5,0,0:0:0:0:
124,290,55564,1,0,0:0:0:0:
140,299,55655,2,0,B|212:284|212:284|217:288|217:288|310:267,1,144,2|0,1:2|0:0,0:0:0:0:
398,247,56019,6,0,B|389:189|356:143|275:144|259:200|323:233|353:180,1,216,2|0,3:2|0:0,0:0:0:0:
455,303,56382,1,2,1:2:0:0:
455,303,56746,2,0,B|452:280|471:264|494:275|494:275|478:280|470:296,1,90,2|0,3:2|0:0,0:0:0:0:
505,367,57110,2,0,P|439:338|344:317,1,144,2|0,1:2|0:0,0:0:0:0:
201,308,57473,6,0,B|152:344|152:344|212:329,1,108,2|0,3:2|0:0,0:0:0:0:
210,320,57655,2,0,B|216:284|216:284|222:281|222:281|229:231,1,72
134,179,57837,5,2,1:2:0:0:
125,182,57897,1,2,0:0:0:0:
118,187,57958,1,2,0:0:0:0:
114,193,58019,2,0,P|122:230|162:261,1,72,2|0,0:0|0:0,0:0:0:0:
290,162,58201,5,2,3:2:0:0:
290,162,58382,2,0,P|295:200|268:243,1,72,8|0,1:2|0:0,0:0:0:0:
376,288,58564,6,0,B|409:250|409:185|356:151|299:163|299:163|315:203|283:240,1,270,14|0,1:2|0:0,0:0:0:0:
195,99,58928,6,0,P|267:90|338:72,1,135,2|0,3:2|0:0,0:0:0:0:
179,248,59291,1,2,1:2:0:0:
179,248,59655,2,0,B|161:268|181:288|181:288|207:281|200:253,1,90,2|0,3:2|0:0,0:0:0:0:
154,125,60019,2,0,P|145:154|166:190,1,53.9999983520508,2|0,1:2|0:0,0:0:0:0:
56,206,60201,2,0,P|76:228|118:228,1,53.9999983520508
267,222,60382,6,0,B|261:200|236:186|236:186|240:150|294:134|334:163|327:220|279:230,1,216,2|0,3:2|0:0,0:0:0:0:
344,301,60746,2,0,P|283:317|195:355,1,144,2|0,1:2|0:0,0:0:0:0:
200,354,60988,1,0,0:0:0:0:
192,359,61049,1,0,0:0:0:0:
182,364,61110,2,0,B|131:325|172:261|184:270|195:276|248:218|181:164,1,216,2|0,3:2|0:0,0:0:0:0:
34,280,61473,2,0,B|8:284|10:314|10:314|50:268|111:265,1,144,2|0,1:2|0:0,0:0:0:0:
399,245,61837,6,0,P|443:214|470:331,1,216,2|0,3:2|0:0,0:0:0:0:
486,338,62201,2,0,P|420:331|263:331,1,216,2|0,1:2|0:0,0:0:0:0:
256,343,62564,2,0,B|270:359|270:359|334:327|340:233|251:181,1,216,2|0,3:2|0:0,0:0:0:0:
103,297,62928,2,0,B|158:299|185:341|180:355|180:355|169:344|177:293|227:266,1,216,2|0,1:2|0:0,0:0:0:0:
403,256,63291,6,0,B|383:210|401:183|420:164|434:170|448:180|481:152|488:109|445:65|445:65|450:102|435:126|407:151|400:140|391:131|359:160|358:207|397:243,1,432,2|0,3:2|0:0,0:0:0:0:
428,338,63928,1,0,0:0:0:0:
435,344,64019,2,0,P|475:350|501:250,1,161.999995056153,2|0,3:2|0:0,0:0:0:0:
493,248,64382,2,0,B|432:225|402:284|414:291|425:293|392:363|321:332,1,216,14|0,1:2|0:0,0:0:0:0:
312,331,64746,6,0,P|298:277|263:193,1,120,6|0,3:2|0:0,3:0:0:0:
204,185,65110,2,0,P|175:196|162:235,2,60,0|0|0,3:0|0:0|0:0,0:0:0:0:
320,150,65473,5,2,1:2:0:0:
343,156,65594,1,0,0:0:0:0:
361,162,65716,1,0,0:0:0:0:
391,96,65837,5,2,0:0:0:0:
343,156,65958,1,0,0:0:0:0:
292,216,66079,1,0,0:0:0:0:
375,257,66201,6,0,B|401:251|401:251|403:244|403:244|432:236,2,60,2|0|0,3:2|0:0|0:0,0:0:0:0:
320,324,66564,2,0,B|346:330|346:330|348:337|348:337|377:345,2,60,2|0|0,0:0|0:0|0:0,0:0:0:0:
249,294,66867,1,0,0:0:0:0:
240,298,66928,6,0,B|224:321|224:321|254:359,1,60,2|0,1:2|0:0,0:0:0:0:
320,324,67170,1,0,0:0:0:0:
215,223,67291,6,0,B|203:197|203:197|155:204,1,60,2|0,0:0|0:0,0:0:0:0:
152,279,67533,1,0,0:0:0:0:
303,232,67655,6,0,P|321:167|347:106,1,120,2|0,3:2|0:0,0:0:0:0:
411,88,68019,2,0,P|437:107|432:156,1,60
422,206,68261,1,0,0:0:0:0:
336,292,68382,5,2,1:2:0:0:
380,269,68504,1,0,0:0:0:0:
427,283,68625,1,0,0:0:0:0:
420,294,68746,5,2,0:0:0:0:
383,283,68867,1,0,0:0:0:0:
348,301,68989,1,0,0:0:0:0:
262,354,69110,6,0,P|224:344|134:335,1,120,2|0,3:2|0:0,0:0:0:0:
0,322,69473,2,0,B|34:317|53:342|53:342|54:307|86:289,1,120,2|0,0:0|0:0,0:0:0:0:
231,269,69837,2,0,P|206:229|130:250,1,120,2|0,1:2|0:0,0:0:0:0:
43,183,70201,2,0,B|61:214|61:214|78:176|58:141|4:144,1,135,2|0,0:0|0:0,0:0:0:0:
123,44,70564,6,0,B|84:50|88:91|88:91|123:44|194:45,1,180,2|2,3:2|0:2,0:0:0:0:
255,82,71049,2,0,P|233:118|213:122,1,60,2|2,0:2|0:0,0:0:0:0:
203,238,71291,2,0,P|185:207|168:183,2,60,2|0|0,1:2|0:0|0:0,0:0:0:0:
210,249,71594,1,0,0:0:0:0:
243,260,71655,1,0,0:0:0:0:
243,272,71716,1,2,0:0:0:0:
243,283,71776,1,2,0:0:0:0:
244,296,71837,2,0,P|233:321|221:337,2,48,2|2|2,0:2|0:2|0:0,0:0:0:0:
279,192,72019,6,0,P|317:196|338:274,1,120,2|0,3:2|0:0,0:0:0:0:
339,274,72322,1,0,0:0:0:0:
320,289,72382,5,2,0:2:0:0:
310,288,72443,1,2,0:2:0:0:
301,286,72504,1,2,0:2:0:0:
291,286,72564,2,0,L|258:280,2,30,0|2|0,0:0|0:0|0:0,0:0:0:0:
399,346,72746,6,0,B|433:335|430:298|425:299|419:300|414:260|452:248,1,120,2|0,1:2|0:0,0:0:0:0:
452,172,73110,1,2,0:2:0:0:
454,164,73170,1,2,0:2:0:0:
456,157,73231,1,2,0:2:0:0:
459,150,73291,2,0,L|469:115,2,30,0|2|0,0:0|0:0|0:0,0:0:0:0:
240,188,73473,6,0,B|240:131|265:81|325:58|378:83|378:83|337:112|335:160|335:160|303:147|262:169,1,360,14|2,3:2|0:1,0:0:0:0:
137,199,74928,6,0,B|111:168|62:172|34:213|46:265|89:277|89:277|131:223|182:196|262:185,1,360,10|2,3:2|0:1,0:0:0:0:
375,207,76261,1,2,0:0:0:0:
379,219,76322,1,2,0:0:0:0:
375,235,76382,6,0,P|316:223|280:383,1,270,10|0,3:2|0:0,0:0:0:0:
492,353,77110,2,0,B|331:308|331:308|394:325|385:406,1,270,2|0,1:1|0:0,0:0:0:0:
174,357,77837,2,0,B|131:303|96:232|135:152|219:129|285:187|271:261|219:285,1,360,10|6,3:2|2:1,0:0:0:0:
54,274,78746,5,0,0:0:0:0:
43,276,78807,1,0,0:0:0:0:
32,275,78867,1,0,0:0:0:0:
25,272,78928,1,0,0:0:0:0:
18,266,78988,1,0,0:0:0:0:
13,257,79049,1,0,0:0:0:0:
10,245,79110,2,0,L|19:221,4,15
34,158,79291,6,0,P|22:111|12:81,1,60,2|0,3:2|0:0,0:0:0:0:
8,92,79473,2,0,P|11:67|16:61,2,30
115,61,79655,6,0,P|154:54|188:92,1,83.9999974365235,2|0,1:2|0:0,0:0:0:0:
203,90,79837,2,0,P|232:84|244:73,2,41.9999987182618
311,137,80019,6,0,P|321:77|344:18,1,107.999996704102,2|0,3:2|0:0,0:0:0:0:
354,28,80201,2,0,P|389:47|396:74,2,53.9999983520508
460,133,80382,6,0,P|456:165|399:190,1,83.9999974365235,2|0,1:2|0:0,0:0:0:0:
401,187,80564,2,0,P|377:203|376:229,2,41.9999987182618
400,304,80746,6,0,B|367:298|367:298|365:302|365:302|332:297,1,60,2|0,3:2|0:0,0:0:0:0:
326,306,80928,2,0,L|289:301,2,30
213,344,81110,6,0,P|174:324|177:272,1,83.9999974365235,2|0,1:2|0:0,0:0:0:0:
177,271,81291,2,0,P|168:245|145:237,2,41.9999987182618
155,152,81473,6,0,B|108:155|108:155|105:159|105:159|37:166,1,107.999996704102,2|0,3:2|0:0,0:0:0:0:
35,155,81655,2,0,B|18:134|18:134|30:96,2,53.9999983520508
211,91,81837,6,0,P|247:126|236:174,1,83.9999974365235,2|0,1:2|0:0,0:0:0:0:
236,173,82019,2,0,L|251:217,2,41.9999987182618
218,301,82201,6,0,B|248:307|248:307|253:304|253:304|299:312,1,60,2|0,3:2|0:0,0:0:0:0:
293,313,82382,2,0,L|325:289,2,30
417,306,82564,6,0,B|406:274|406:274|409:269|409:269|387:208,1,83.9999974365235,2|0,1:2|0:0,0:0:0:0:
376,218,82746,2,0,L|329:211,2,41.9999987182618
334,97,82928,6,0,B|293:124|293:124|293:132|293:132|247:163,1,107.999996704102,2|0,3:2|0:0,0:0:0:0:
240,177,83110,2,0,L|254:242,2,53.9999983520508
151,80,83291,1,2,1:2:0:0:
121,76,83382,1,0,0:0:0:0:
97,88,83473,1,0,0:0:0:0:
59,78,83564,1,0,0:0:0:0:
19,114,83655,6,0,B|27:146|27:146|32:148|32:148|41:186,2,72,2|0|0,3:2|0:0|0:0,0:0:0:0:
151,80,83928,6,0,B|159:47|159:47|164:45|164:45|173:8,2,72,0|2|0,0:0|1:2|0:0,0:0:0:0:
107,219,84201,1,0,0:0:0:0:
115,224,84291,1,0,0:0:0:0:
127,229,84382,2,0,B|199:248|223:179|210:175|199:174|222:103|294:125,1,216,2|0,3:2|0:0,0:0:0:0:
387,212,84746,2,0,B|396:228|396:228|360:249|331:285|331:285|313:243|284:211|284:211|305:193,1,216,2|0,1:2|0:0,0:0:0:0:
379,127,85110,6,0,P|404:140|459:146,2,72,2|0|0,3:2|0:0|0:0,0:0:0:0:
335,47,85382,2,0,P|363:45|413:23,2,72,0|2|0,0:0|1:2|0:0,0:0:0:0:
293,123,85655,2,0,P|302:160|301:203,1,72
270,292,85837,5,2,3:2:0:0:
250,295,85928,1,0,0:0:0:0:
223,272,86019,1,0,0:0:0:0:
171,281,86110,1,0,0:0:0:0:
128,259,86201,6,0,B|114:228|114:228|117:223|117:223|100:183,2,72,2|0|0,1:2|0:0|0:0,0:0:0:0:
165,354,86473,1,0,0:0:0:0:
0,384,86564,6,0,B|-9:324|28:271|95:283|101:334|64:367|12:316,1,198.000006042481,6|2,3:2|0:0,0:0:0:0:
207,189,86837,2,0,B|241:233|241:233|81:186,1,198.000006042481
280,61,87110,6,0,B|341:41|366:97|358:100|350:103|374:164|448:139,1,198.000006042481,2|2,0:0|0:0,0:0:0:0:
441,62,87382,2,0,B|380:42|355:98|363:101|371:104|347:165|273:140,1,198.000006042481
92,105,87655,6,0,P|135:182|171:273,1,148.50000453186,8|0,1:2|0:0,0:0:0:0:
144,239,87837,2,0,P|173:171|210:106,1,148.50000453186,8|0,1:2|0:0,0:0:0:0:
192,32,88019,6,0,P|156:20|124:32,1,72,6|0,1:1|0:0,0:0:0:0:
125,31,88928,1,0,0:0:0:0:
49,58,89110,2,0,L|24:54,2,18,2|0|0,0:0|0:0|0:0,0:0:0:0:
108,112,89473,2,0,P|160:121|201:89,1,108,2|0,0:0|0:0,0:0:0:0:
212,79,90201,6,0,P|207:55|195:42,1,36,2|0,0:0|0:0,0:0:0:0:
133,11,90473,1,0,0:0:0:0:
122,18,90564,2,0,L|82:14,1,36
30,131,90928,6,0,P|46:176|63:239,1,108,2|0,0:0|0:0,0:0:0:0:
59,241,91655,1,2,0:0:0:0:
145,244,91837,6,0,L|151:213,2,24
142,268,92019,1,0,0:0:0:0:
208,169,92201,1,0,0:0:0:0:
132,117,92382,6,0,B|142:85|142:85|139:81|139:81|151:44,1,72,2|0,0:0|0:0,0:0:0:0:
221,19,92928,1,2,0:0:0:0:
221,19,93110,1,2,0:0:0:0:
277,86,93291,6,0,L|318:87,1,36,8|0,0:0|0:0,0:0:0:0:
275,94,93473,2,0,L|316:95,1,36,8|0,0:0|0:0,0:0:0:0:
190,95,93655,1,2,0:0:0:0:
239,160,93837,6,0,B|300:159|297:103|289:103|282:103|281:52|335:49,1,161.999995056153,6|0,3:2|0:0,0:0:0:0:
349,54,94201,2,0,P|366:83|359:110,1,53.9999983520508
405,289,94382,1,0,0:0:0:0:
394,287,94473,1,0,0:0:0:0:
387,279,94564,2,0,P|367:226|345:156,1,107.999996704102,2|0,1:2|0:0,0:0:0:0:
442,92,94928,5,0,0:0:0:0:
447,98,94988,1,0,0:0:0:0:
451,105,95049,1,0,0:0:0:0:
454,115,95110,2,0,L|437:158,1,35.9999989013672
316,313,95291,6,0,P|275:316|250:208,1,161.999995056153,2|0,3:2|0:0,0:0:0:0:
250,227,95655,2,0,P|225:250|150:273,1,107.999996704102
78,276,96019,1,2,1:2:0:0:
111,206,96201,1,0,0:0:0:0:
107,197,96291,1,0,0:0:0:0:
104,190,96382,1,0,0:0:0:0:
122,348,96564,1,0,0:0:0:0:
29,189,96746,6,0,P|47:134|111:31,1,161.999995056153,2|0,3:2|0:0,0:0:0:0:
113,40,97110,2,0,P|148:61|134:136,1,107.999996704102
177,194,97382,1,0,0:0:0:0:
185,198,97473,2,0,P|230:202|300:220,1,107.999996704102,2|0,1:2|0:0,0:0:0:0:
360,250,97837,1,0,0:0:0:0:
360,250,98019,1,0,0:0:0:0:
371,247,98110,1,0,0:0:0:0:
386,250,98201,5,2,3:2:0:0:
395,282,98291,1,0,0:0:0:0:
404,314,98382,1,0,3:0:0:0:
413,347,98473,1,0,0:0:0:0:
422,379,98564,5,2,3:2:0:0:
434,325,98654,1,0,0:0:0:0:
447,270,98745,1,0,3:0:0:0:
459,215,98836,1,0,0:0:0:0:
472,160,98928,5,2,3:2:0:0:
444,88,99018,1,0,3:0:0:0:
372,54,99109,1,0,3:0:0:0:
298,79,99200,1,0,3:0:0:0:
270,154,99291,6,0,P|274:179|295:197,1,45,4|0,1:1|0:0,0:0:0:0:
196,172,99382,6,0,P|187:196|196:221,1,45
122,149,99473,6,0,P|102:165|97:192,1,45,2|0,0:0|0:0,0:0:0:0:
68,92,99564,6,0,P|42:96|25:117,1,45
84,10,99655,6,0,B|88:-10|88:-10|70:-19|70:-19|66:-2|66:-2|84:11,1,80.9999975280763,12|0,3:2|0:0,0:0:0:0:
269,52,100019,6,0,B|228:1|165:31|165:31|160:69|116:103|56:90,1,242.999992584229,2|0,1:1|0:0,0:0:0:0:
60,89,100382,1,8,3:2:0:0:
10,287,100564,6,0,B|2:314|-21:325|-21:325|22:335|23:295,1,116.999994644165
99,226,100746,1,2,1:1:0:0:
89,226,100807,1,0,0:0:0:0:
82,223,100867,1,0,0:0:0:0:
74,217,100928,2,0,B|53:196|56:170|56:170|25:203|60:224,1,116.999994644165,0|0,2:0|2:0,2:0:0:0:
92,340,101110,6,0,P|166:308|340:253,1,242.999992584229,8|0,3:2|0:0,0:0:0:0:
333,261,101473,2,0,P|352:302|312:340,1,90,2|0,1:1|0:0,0:0:0:0:
159,154,101655,5,0,0:0:0:0:
159,154,101837,2,0,B|150:108|150:108|216:79|268:145|236:205,1,215.999993408203,8|0,3:2|0:0,0:0:0:0:
126,251,102110,5,0,0:0:0:0:
113,254,102201,2,0,B|84:260|79:227|79:227|91:239|113:246,1,80.9999975280763,2|0,1:1|0:0,0:0:0:0:
304,248,102382,2,0,P|279:280|226:273,1,80.9999975280763
81,333,102564,6,0,P|55:272|-1:172,1,161.999995056153,8|0,3:2|0:0,0:0:0:0:
0,114,102837,1,0,0:0:0:0:
3,104,102928,2,0,P|41:74|86:92,1,80.9999975280763,2|0,1:1|0:0,0:0:0:0:
162,116,103110,1,0,0:0:0:0:
162,116,103291,6,0,B|169:141|151:153|151:153|141:135|161:115,1,80.9999975280763,8|0,3:2|0:0,0:0:0:0:
144,40,103473,1,0,0:0:0:0:
150,31,103534,1,0,0:0:0:0:
158,24,103594,1,0,0:0:0:0:
169,22,103655,6,0,P|218:45|223:80,1,80.9999975280763,2|0,1:1|0:0,0:0:0:0:
288,110,103837,2,0,P|260:158|240:212,1,80.9999975280763
50,243,104019,6,0,B|30:292|62:369|155:370|228:321|224:232|144:191|143:199|138:207|109:203|89:170|109:128,1,377.999988464356,8|0,3:2|0:0,0:0:0:0:
114,127,104382,2,0,P|153:113|185:151,1,90,2|0,1:1|0:0,0:0:0:0:
317,304,104564,5,0,0:0:0:0:
349,299,104655,1,0,0:0:0:0:
376,280,104746,2,0,B|411:231|409:169|372:128|285:128|263:197|329:241|369:178,1,270,8|0,3:2|0:0,0:0:0:0:
511,25,105110,2,0,P|514:80|425:83,1,135,2|0,1:1|0:0,0:0:0:0:
424,108,105291,2,0,B|409:62|409:62|413:59|413:59|398:18,1,90
207,34,105473,6,0,B|259:21|299:61|295:119|277:118|259:117|257:171|303:215|361:199,1,270,12|0,3:2|0:0,0:0:0:0:
424,108,105837,2,0,B|289:122|289:122|285:125|285:125|129:140,1,270,2|0,1:1|0:0,0:0:0:0:
80,130,106201,5,8,3:2:0:0:
80,130,106382,2,0,B|40:162|40:162|80:152,1,90
129,66,106563,1,2,1:1:0:0:
130,56,106624,1,0,0:0:0:0:
129,45,106685,1,0,0:0:0:0:
129,34,106746,2,0,B|121:-16|121:-16|103:38,1,90
156,137,106928,6,0,B|206:184|188:277|99:298|71:246|102:184|167:229,1,251.999992309571,8|0,3:2|0:0,0:0:0:0:
230,271,107201,5,0,0:0:0:0:
243,275,107291,2,0,B|288:263|288:263|293:267|293:267|340:256,1,90,2|0,1:1|0:0,0:0:0:0:
481,199,107473,6,0,B|510:208|512:235|512:235|500:217|479:208,1,90
370,199,107655,2,0,B|328:146|335:82|401:37|452:83|428:141|369:115,1,233.999989288331,8|0,3:2|0:0,0:0:0:0:
512,75,107928,1,0,0:0:0:0:
509,84,108019,2,0,P|444:94|391:9,1,175.499991966248,2|0,1:1|0:0,0:0:0:0:
380,2,108201,2,0,B|424:8|424:8|430:2|430:2|472:9,1,90
369,198,108382,6,0,B|330:226|283:211|270:168|282:161|296:152|278:110|225:85|182:132,1,233.999989288331,8|0,3:2|0:0,0:0:0:0:
195,208,108655,1,0,0:0:0:0:
201,215,108746,2,0,P|243:222|271:175,1,80.9999975280763,2|0,1:1|0:0,0:0:0:0:
338,82,108928,5,0,0:0:0:0:
349,82,109019,1,0,0:0:0:0:
408,128,109110,2,0,P|386:187|361:301,1,161.999995056153,8|0,3:2|0:0,0:0:0:0:
436,374,109382,1,0,0:0:0:0:
445,366,109473,2,0,B|469:333|469:333|441:296,1,80.9999975280763,2|0,1:1|0:0,0:0:0:0:
289,240,109655,5,0,0:0:0:0:
276,243,109716,1,0,0:0:0:0:
263,246,109776,1,0,0:0:0:0:
250,248,109837,6,0,P|235:264|232:290,2,40.4999987640381,8|0|0,3:2|0:0|0:0,0:0:0:0:
394,170,110019,5,0,0:0:0:0:
467,193,110110,2,0,P|482:209|485:235,2,40.4999987640381,2|0|0,1:1|0:0|0:0,0:0:0:0:
294,144,110291,5,0,0:0:0:0:
270,71,110382,2,0,P|276:50|332:35,1,80.9999975280763,8|0,3:2|0:0,0:0:0:0:
185,171,110564,5,0,0:0:0:0:
110,184,110655,2,0,L|60:196,2,40.4999987640381,8|0|0,3:2|0:0|0:0,0:0:0:0:
330,243,110837,5,0,0:0:0:0:
405,256,110928,2,0,L|455:268,2,40.4999987640381,2|0|0,1:1|0:0|0:0,0:0:0:0:
267,333,111110,5,0,0:0:0:0:
187,323,111201,1,0,0:0:0:0:
108,312,111291,2,0,L|94:273,1,40.4999987640381,4|0,3:2|0:0,0:0:0:0:
262,353,111837,5,0,0:0:0:0:
187,323,111928,1,0,0:0:0:0:
113,292,112018,2,0,L|109:250,1,40.4999987640381
101,373,112564,5,0,0:0:0:0:
37,325,112655,1,0,0:0:0:0:
43,243,112746,6,0,P|41:247|40:249,1,4.5,12|0,3:2|0:0,0:0:0:0:
34,228,112837,2,0,P|19:238|14:244,1,13.4999995880127
30,198,112928,2,0,P|12:199|-12:213,1,26.9999991760254
39,161,113019,2,0,P|15:144|-13:144,1,31.4999990386963,4|0,1:1|0:0,0:0:0:0:
69,128,113110,2,0,P|56:102|13:85,1,45
121,97,113201,2,0,P|123:68|86:22,1,58.4999973220826
183,112,113291,2,0,P|199:88|190:27,1,76.5000014591217,4|0,1:1|0:0,0:0:0:0:
224,171,113382,2,0,P|260:160|290:108,1,90
222,245,113473,6,0,P|179:257|150:293,1,90
254,295,113564,2,0,P|227:323|220:360,1,76.5000014591217,4|0,1:1|0:0,0:0:0:0:
298,308,113655,2,0,P|287:335|291:363,1,58.4999973220826
342,297,113746,2,0,P|344:319|355:338,1,45
363,275,113837,2,0,P|371:288|383:298,1,31.4999990386963,12|0,3:2|0:0,0:0:0:0:
371,247,113928,2,0,P|384:249|397:249,1,26.9999991760254
368,231,114019,2,0,P|374:229|380:226,1,13.4999995880127
362,219,114110,2,0,P|363:217|364:215,1,4.5
415,163,114201,6,0,P|423:124|385:94,1,80.9999975280763,8|0,3:2|0:0,0:0:0:0:
274,127,114382,5,0,0:0:0:0:
292,203,114473,2,0,P|333:228|374:204,1,80.9999975280763,8|0,3:2|0:0,0:0:0:0:
395,96,114655,5,0,0:0:0:0:
322,75,114746,2,0,P|279:98|280:145,1,80.9999975280763,8|0,3:2|0:0,0:0:0:0:
459,289,115110,5,4,1:1:0:0:
469,294,115201,1,0,0:0:0:0:
477,300,115291,1,2,0:0:0:0:
471,329,115382,1,2,0:0:0:0:
443,354,115473,1,2,0:0:0:0:
403,354,115564,1,2,0:0:0:0:
304,323,115655,5,8,3:2:0:0:
336,314,115746,1,0,0:0:0:0:
308,332,115837,1,2,0:0:0:0:
330,326,115928,1,2,1:0:0:0:
230,300,116019,5,2,1:0:0:0:
218,279,116110,1,2,0:0:0:0:
227,260,116201,1,10,3:2:0:0:
218,241,116291,1,2,0:0:0:0:
162,190,116382,5,0,0:0:0:0:
150,186,116473,1,0,0:0:0:0:
134,189,116564,2,0,P|108:227|128:266,1,80.9999975280763,0|0,1:0|0:0,0:0:0:0:
76,326,116746,2,0,P|132:295|235:263,1,161.999995056153,10|8,3:2|0:0,0:0:0:0:
238,262,117019,1,8,0:0:0:0:
247,260,117110,6,0,P|275:303|256:337,1,80.9999975280763,8|0,3:2|0:0,0:0:0:0:
118,257,117291,5,0,0:0:0:0:
71,197,117382,2,0,P|94:151|133:150,1,80.9999975280763,8|0,3:2|0:0,0:0:0:0:
293,100,117564,5,0,0:0:0:0:
264,166,117655,2,0,P|212:168|192:135,1,80.9999975280763,8|0,3:2|0:0,0:0:0:0:
196,148,118019,1,4,1:1:0:0:
205,141,118110,1,0,0:0:0:0:
199,109,118201,1,10,3:2:0:0:
171,89,118291,1,2,0:0:0:0:
135,90,118382,1,10,3:2:0:0:
109,115,118473,1,2,0:0:0:0:
19,127,118564,5,0,0:0:0:0:
28,143,118655,1,0,0:0:0:0:
35,162,118746,1,2,1:0:0:0:
39,184,118837,1,2,0:0:0:0:
130,253,118928,5,2,0:0:0:0:
81,249,119019,1,10,3:2:0:0:
122,264,119110,1,2,0:0:0:0:
88,260,119201,1,2,0:0:0:0:
133,352,119291,5,2,1:0:0:0:
160,362,119382,1,2,0:0:0:0:
188,352,119473,1,2,0:0:0:0:
201,327,119564,1,10,3:2:0:0:
228,212,119655,5,0,0:0:0:0:
211,201,119746,1,0,0:0:0:0:
194,189,119837,2,0,L|211:264,1,53.9999983520508,2|0,0:0|0:0,0:0:0:0:
343,331,120019,6,0,B|353:321|353:321|336:246,1,80.9999975280763,8|0,3:2|0:0,0:0:0:0:
332,86,120201,5,0,0:0:0:0:
274,138,120291,2,0,B|277:151|277:151|351:174,1,80.9999975280763,8|0,3:2|0:0,0:0:0:0:
493,256,120473,5,0,0:0:0:0:
474,177,120564,2,0,B|461:173|461:173|404:225,1,80.9999975280763,8|0,3:2|0:0,0:0:0:0:
412,219,120928,1,4,1:1:0:0:
414,229,121019,1,0,0:0:0:0:
416,239,121110,1,2,0:0:0:0:
392,259,121201,1,2,0:0:0:0:
343,252,121291,1,2,0:0:0:0:
320,207,121382,1,2,0:0:0:0:
321,126,121473,5,8,3:2:0:0:
270,135,121564,1,0,0:0:0:0:
314,115,121655,1,2,0:0:0:0:
279,122,121746,1,2,1:0:0:0:
206,86,121837,5,2,1:0:0:0:
182,71,121928,1,2,0:0:0:0:
152,84,122019,1,10,3:2:0:0:
129,66,122110,1,2,0:0:0:0:
51,92,122201,5,2,0:0:0:0:
56,105,122291,1,2,0:0:0:0:
61,118,122382,1,2,1:0:0:0:
66,133,122473,1,2,0:0:0:0:
167,223,122564,5,8,3:2:0:0:
151,249,122655,1,8,0:0:0:0:
120,258,122746,2,0,B|127:226|127:226|133:221|133:221|143:175,1,80.9999975280763,8|8,0:0|0:0,0:0:0:0:
342,70,122928,6,0,B|344:85|344:85|276:126,1,80.9999975280763,8|0,3:2|0:0,0:0:0:0:
174,105,123110,5,0,0:0:0:0:
172,31,123201,2,0,B|184:21|184:21|253:59,1,80.9999975280763,8|0,3:2|0:0,0:0:0:0:
300,202,123382,5,0,0:0:0:0:
236,240,123473,2,0,B|221:233|221:233|220:154,1,80.9999975280763,8|0,3:2|0:0,0:0:0:0:
220,168,123837,1,4,1:1:0:0:
224,155,123928,1,0,0:0:0:0:
290,116,124019,1,10,3:2:0:0:
365,123,124110,1,2,0:0:0:0:
412,179,124201,1,10,3:2:0:0:
415,254,124291,1,2,0:0:0:0:
280,312,124382,5,0,0:0:0:0:
331,286,124473,1,0,0:0:0:0:
288,320,124564,1,2,1:0:0:0:
329,298,124655,1,2,0:0:0:0:
209,356,124746,5,2,0:0:0:0:
185,307,124837,1,10,3:2:0:0:
203,256,124928,1,2,0:0:0:0:
175,208,125019,1,2,0:0:0:0:
101,55,125110,6,0,P|75:34|53:34,1,45.0000017166138,2|0,1:0|0:0,0:0:0:0:
94,71,125170,2,0,P|62:60|41:67,1,45.0000017166138,2|2,0:0|0:0,0:0:0:0:
95,90,125231,2,0,P|61:90|44:104,1,45.0000017166138,2|0,0:0|0:0,0:0:0:0:
99,106,125291,2,0,P|67:118|56:137,1,45.0000017166138
110,119,125352,2,0,P|84:140|80:162,1,45.0000017166138,2|2,0:0|0:0,0:0:0:0:
124,128,125413,2,0,P|107:157|111:178,1,45.0000017166138,2|0,0:0|0:0,0:0:0:0:
200,136,125473,6,0,L|241:124,7,36,2|0|0|0|2|0|0|0,1:0|0:0|0:0|0:0|0:0|0:0|0:0|0:0,0:0:0:0:
303,148,125837,1,8,0:0:0:0:
303,148,126201,6,0,B|383:127|407:15|359:-74|231:-96|117:-19|127:69|179:115|199:113|212:121|229:193|168:248|21:397|-90:243|-89:-35|108:-16|236:50|298:214|207:294|207:294|231:260|211:222,1,1089.00003323364,4|0,2:1|0:0,0:0:0:0:
