osu file format v14

[General]
AudioFilename: audio.mp3
AudioLeadIn: 0
PreviewTime: 91105
Countdown: 0
SampleSet: Soft
StackLeniency: 0.3
Mode: 0
LetterboxInBreaks: 0
WidescreenStoryboard: 0

[Editor]
Bookmarks: 4526,22421,39263,56105,72947,91894,129789,133999
DistanceSpacing: 1.4
BeatDivisor: 4
GridSize: 32
TimelineZoom: 2.2

[Metadata]
Title:Infinity of Our Love
TitleUnicode:Infinity of Our Love
Artist:Nekomata Master feat.Joelle Strother
ArtistUnicode:猫叉Master feat.Joelle Strother
Creator:moph
Version:Normal
Source:エレビッツ カイとゼロの不思議な旅
Tags:佐藤直之 Naoyuki Sato Elebits raindrops pop'n music 17 THE MOVIE ambient
BeatmapID:1345599
BeatmapSetID:629830

[Difficulty]
HPDrainRate:4
CircleSize:3.2
OverallDifficulty:4
ApproachRate:4.5
SliderMultiplier:1.3
SliderTickRate:1

[Events]
//Background and Video events
0,0,"bg.jpg",0,0
//Break Periods
//Storyboard Layer 0 (Background)
//Storyboard Layer 1 (Fail)
//Storyboard Layer 2 (Pass)
//Storyboard Layer 3 (Foreground)
//Storyboard Sound Samples

[TimingPoints]
316,526.315789473684,4,2,2,40,1,0
4526,-100,4,2,2,40,0,0
21894,-100,4,2,1,40,0,0
22421,526.315789473684,4,2,1,50,1,0
72947,-100,4,2,2,40,0,0
91368,-100,4,2,1,40,0,0
91894,-100,4,2,1,65,0,1
108210,-100,4,2,1,65,0,0
108736,-100,4,2,1,65,0,1
125578,-100,4,2,1,50,0,0
129789,-100,4,2,1,50,0,0
129920,-100,4,2,1,20,0,0
131894,-100,4,2,1,30,0,0

[Colours]
Combo1 : 183,132,204
Combo2 : 133,152,228
Combo3 : 251,138,89
Combo4 : 205,109,109

[HitObjects]
448,71,4526,6,0,B|379:37|296:68|352:105|263:139|190:92,1,260,2|0,0:0|0:0,0:0:0:0:
61,316,6631,2,0,B|114:216|114:216|61:114,2,227.5,2|0|2,0:0|0:0|0:0,0:0:0:0:
144,352,8737,6,0,B|213:386|296:355|240:318|329:284|402:331,1,260,2|0,0:0|0:0,0:0:0:0:
471,76,10842,2,0,B|418:177|418:177|471:277,2,227.5,2|0|2,0:0|0:0|0:0,0:0:0:0:
388,38,12947,6,0,P|322:16|264:38,1,130,2|0,0:0|0:0,0:0:0:0:
181,196,14000,2,0,P|247:218|305:196,1,130,2|0,0:0|0:0,0:0:0:0:
444,312,15052,2,0,B|486:204|486:204|441:98,2,227.5,2|0|0,0:0|0:0|0:0,0:0:0:0:
364,356,17158,6,0,P|301:333|229:370,1,130,2|0,0:0|0:0,0:0:0:0:
81,272,18210,2,0,P|144:249|216:286,1,130,2|0,0:0|0:0,0:0:0:0:
300,117,19263,2,0,B|278:192|278:192|307:263|307:263|281:349,1,227.5,2|2,0:0|0:0,0:0:0:0:
442,127,21894,6,0,L|377:127,1,65,2|8,0:0|0:0,0:0:0:0:
307,67,22421,6,0,P|248:47|177:68,1,130,12|8,0:0|0:0,0:0:0:0:
97,34,23210,2,0,P|91:70|102:107,1,65,0|8,0:0|0:0,0:0:0:0:
77,186,23736,2,0,L|12:186,2,65,0|8|2,0:0|0:0|0:0,0:0:0:0:
151,238,24526,2,0,P|129:299|161:367,1,130,12|12,0:0|0:0,0:0:0:0:
219,297,25315,1,0,0:0:0:0:
286,357,25578,2,0,P|308:297|286:237,1,130,12|12,0:0|0:0,0:0:0:0:
215,179,26368,1,2,0:0:0:0:
302,153,26631,6,0,B|281:90|281:90|302:22,1,130,12|8,0:0|0:0,0:0:0:0:
389,46,27421,2,0,L|461:46,1,65,0|8,0:0|0:0,0:0:0:0:
457,136,27947,2,0,L|385:136,2,65,0|8|2,0:0|0:0|0:0,0:0:0:0:
467,226,28736,1,12,0:0:0:0:
422,304,28999,2,0,L|422:374,2,65,6|12|4,0:0|0:0|0:0,0:0:0:0:
376,224,29789,1,8,0:0:0:0:
313,290,30052,2,0,P|277:295|246:290,1,65,4|12,0:0|0:0,0:0:0:0:
188,223,30578,1,8,0:0:0:0:
160,309,30842,6,0,B|98:291|98:291|28:309,1,130,12|8,0:0|0:0,0:0:0:0:
7,220,31631,2,0,P|0:184|12:142,1,65,0|8,0:0|0:0,0:0:0:0:
73,96,32157,2,0,L|17:53,2,65,0|8|2,0:0|0:0|0:0,0:0:0:0:
91,185,32947,2,0,L|228:171,1,130,12|12,0:0|0:0,0:0:0:0:
293,117,33736,1,0,0:0:0:0:
372,73,33999,2,0,L|436:62,1,65,12|0,0:0|0:0,0:0:0:0:
445,153,34526,2,0,L|380:161,1,65,12|2,0:0|0:0,0:0:0:0:
300,203,35052,6,0,B|327:264|327:264|310:334,1,130,12|8,0:0|0:0,0:0:0:0:
236,274,35842,2,0,L|171:282,1,65,0|8,0:0|0:0,0:0:0:0:
125,360,36368,2,0,L|60:368,1,65,0|8,0:0|0:0,0:0:0:0:
1,299,36894,1,2,0:0:0:0:
80,254,37157,2,0,L|73:188,2,65,12|6|12,0:0|0:0|0:0,0:0:0:0:
171,281,37947,1,4,0:0:0:0:
245,228,38210,2,0,L|378:213,1,130,12|12,0:0|0:0,0:0:0:0:
461,237,38999,1,8,0:0:0:0:
491,151,39263,6,0,L|472:21,1,130,0|8,0:0|0:0,0:0:0:0:
309,104,40315,2,0,L|180:125,1,130,0|8,0:0|0:0,0:0:0:0:
61,58,41236,2,0,P|43:138|91:224,1,162.5,0|8,0:0|0:0,0:0:0:0:
22,335,42289,2,0,B|100:310|100:310|179:338,1,162.5,2|8,0:0|0:0,0:0:0:0:
302,280,43342,6,0,L|395:314,1,97.5,4|0,0:0|0:0,0:0:0:0:
480,340,43999,1,8,0:0:0:0:
465,204,44394,2,0,L|489:125,1,65,2|2,0:0|0:0,0:0:0:0:
353,101,45052,2,0,L|329:180,1,65,8|0,0:0|0:0,0:0:0:0:
243,171,45578,2,0,B|182:190|182:190|120:166,1,130,0|8,0:0|0:0,0:0:0:0:
4,308,46631,2,0,B|65:289|65:289|126:312,1,130,0|8,0:0|0:0,0:0:0:0:
210,346,47420,1,8,0:0:0:0:
287,297,47684,6,0,L|421:343,1,130,4|8,0:0|0:0,0:0:0:0:
411,157,48736,2,0,L|288:199,1,130,0|8,0:0|0:0,0:0:0:0:
207,88,49657,2,0,P|131:64|56:92,1,162.5,0|8,0:0|0:0,0:0:0:0:
137,201,50710,2,0,B|108:279|108:279|146:365,1,162.5,2|8,0:0|0:0,0:0:0:0:
264,291,51763,6,0,P|311:275|371:292,1,97.5,4|2,0:0|0:0,0:0:0:0:
421,348,52420,1,8,0:0:0:0:
455,214,52815,2,0,L|493:145,1,65,2|2,0:0|0:0,0:0:0:0:
422,37,53473,2,0,L|384:106,1,65,8|2,0:0|0:0,0:0:0:0:
341,170,53999,2,0,B|251:155|251:155|194:169,1,130,0|8,0:0|0:0,0:0:0:0:
55,72,55052,2,0,B|145:87|145:87|202:73,1,130,8|8,0:0|0:0,0:0:0:0:
213,164,55841,1,8,0:0:0:0:
142,222,56105,6,0,P|124:283|148:352,1,130,4|8,0:0|0:0,0:0:0:0:
264,283,57026,2,0,B|390:300|390:300|418:345,1,162.5,2|8,0:0|0:0,0:0:0:0:
482,163,58210,2,0,P|500:102|476:33,1,130,0|8,0:0|0:0,0:0:0:0:
360,102,59131,2,0,B|233:84|233:84|205:39,1,162.5,2|8,0:0|0:0,0:0:0:0:
57,146,60315,6,0,B|121:137|121:137|186:161,1,130,0|8,0:0|0:0,0:0:0:0:
107,273,61236,2,0,L|97:341,1,65,2|2,0:0|0:0,0:0:0:0:
231,364,61894,2,0,L|241:296,1,65,8|0,0:0|0:0,0:0:0:0:
321,341,62420,2,0,B|383:365|383:365|464:350,1,130,0|8,0:0|0:0,0:0:0:0:
461,171,63473,2,0,B|399:147|399:147|318:162,1,130,8|8,0:0|0:0,0:0:0:0:
255,199,64263,1,8,0:0:0:0:
176,158,64526,6,0,B|114:147|114:147|52:171,1,130,4|8,0:0|0:0,0:0:0:0:
51,307,65447,2,0,P|126:330|199:298,1,162.5,2|8,0:0|0:0,0:0:0:0:
377,336,66631,2,0,P|437:316|502:345,1,130,0|8,0:0|0:0,0:0:0:0:
450,211,67552,2,0,L|453:37,1,162.5,2|8,0:0|0:0,0:0:0:0:
287,121,68736,6,0,B|221:129|221:129|158:95,1,130,0|8,0:0|0:0,0:0:0:0:
37,51,69657,2,0,P|31:82|35:126,1,65,2|2,0:0|0:0,0:0:0:0:
137,203,70315,2,0,P|143:234|139:278,1,65,8|0,0:0|0:0,0:0:0:0:
68,322,70842,2,0,L|-6:322,2,65,8|8|8,0:0|0:0|0:0,0:0:0:0:
151,361,71631,1,0,0:0:0:0:
231,318,71894,2,0,L|377:318,1,130,8|8,0:0|0:0,0:0:0:0:
445,353,72684,1,8,0:0:0:0:
431,263,72947,6,0,L|461:121,1,130,4|0,0:0|0:0,0:0:0:0:
277,156,73999,2,0,L|175:133,2,97.5,2|2|2,0:0|0:0|0:0,0:0:0:0:
356,110,75052,2,0,P|366:174|323:237,1,130,2|0,0:0|0:0,0:0:0:0:
181,134,76105,2,0,L|79:111,2,97.5,2|0|0,0:0|0:0|0:0,0:0:0:0:
138,214,77157,6,0,B|112:277|112:277|136:337,1,130,4|0,0:0|0:0,0:0:0:0:
312,293,78210,2,0,L|414:306,2,97.5,2|2|2,0:0|0:0|0:0,0:0:0:0:
237,346,79263,2,0,P|221:268|258:216,1,130,2|0,0:0|0:0,0:0:0:0:
408,305,80315,2,0,B|455:323|455:323|510:314,2,97.5,2|0|2,0:0|0:0|0:0,0:0:0:0:
461,230,81368,6,0,L|477:82,1,130,4|0,0:0|0:0,0:0:0:0:
296,138,82420,2,0,L|180:125,2,97.5,2|0|2,0:0|0:0|0:0,0:0:0:0:
370,85,83473,2,0,P|384:156|352:210,1,130,2|0,0:0|0:0,0:0:0:0:
199,127,84526,2,0,L|83:114,2,97.5,2|0|0,0:0|0:0|0:0,0:0:0:0:
169,213,85578,6,0,B|151:259|151:259|162:315,2,97.5,4|2|0,0:0|0:0|0:0,0:0:0:0:
243,265,86631,2,0,L|359:278,2,97.5,4|2|0,0:0|0:0|0:0,0:0:0:0:
160,306,87684,1,4,0:0:0:0:
256,192,87947,12,2,89789,0:0:0:0:
409,303,91368,6,0,L|345:303,1,65,8|8,0:0|0:0,0:0:0:0:
260,339,91894,6,0,P|192:358|127:329,1,130,12|8,0:0|0:0,0:0:0:0:
69,278,92684,1,0,0:0:0:0:
154,245,92947,2,0,L|161:108,1,130,8|8,0:0|0:0,0:0:0:0:
90,57,93736,1,2,0:0:0:0:
175,25,93999,2,0,B|233:55|233:55|301:30,1,130,12|8,0:0|0:0,0:0:0:0:
448,128,95052,2,0,B|390:98|390:98|322:123,1,130,8|8,0:0|0:0,0:0:0:0:
257,177,95842,1,2,0:0:0:0:
340,213,96105,6,0,L|336:350,1,130,12|8,0:0|0:0,0:0:0:0:
249,370,96894,1,0,0:0:0:0:
166,334,97157,2,0,L|170:197,1,130,8|8,0:0|0:0,0:0:0:0:
110,134,97947,1,2,0:0:0:0:
172,68,98210,2,0,L|172:3,2,65,12|4|12,0:0|0:0|0:0,0:0:0:0:
232,136,98999,2,0,L|296:136,1,65,4|8,0:0|0:0,0:0:0:0:
349,62,99526,2,0,P|382:56|416:65,2,65,4|8|12,0:0|0:0|0:0,0:0:0:0:
381,147,100315,6,0,B|361:209|361:209|386:282,1,130,12|8,0:0|0:0,0:0:0:0:
458,319,101105,1,0,0:0:0:0:
375,357,101368,2,0,L|237:355,1,130,8|8,0:0|0:0,0:0:0:0:
161,319,102157,1,2,0:0:0:0:
89,378,102420,2,0,P|69:318|93:259,1,130,12|8,0:0|0:0,0:0:0:0:
174,218,103210,1,0,0:0:0:0:
95,171,103473,2,0,L|15:126,1,65,8|0,0:0|0:0,0:0:0:0:
78,57,103999,2,0,L|158:102,1,65,8|2,0:0|0:0,0:0:0:0:
215,131,104526,6,0,L|340:93,1,130,12|8,0:0|0:0,0:0:0:0:
427,114,105315,1,0,0:0:0:0:
368,183,105578,2,0,L|243:221,1,130,8|8,0:0|0:0,0:0:0:0:
154,199,106368,1,2,0:0:0:0:
66,223,106631,2,0,B|40:284|40:284|65:346,1,130,12|12,0:0|0:0,0:0:0:0:
241,341,107684,2,0,B|266:279|266:279|242:218,1,130,12|12,0:0|0:0,0:0:0:0:
328,59,108736,6,0,B|303:121|303:121|327:182,1,130,12|8,0:0|0:0,0:0:0:0:
398,124,109526,1,0,0:0:0:0:
466,63,109789,2,0,B|491:125|491:125|467:186,1,130,8|8,0:0|0:0,0:0:0:0:
504,267,110578,1,0,0:0:0:0:
469,351,110842,2,0,L|340:351,1,130,12|8,0:0|0:0,0:0:0:0:
157,346,111894,2,0,L|-3:346,1,130,8|8,0:0|0:0,0:0:0:0:
0,258,112684,1,2,0:0:0:0:
88,238,112947,6,0,B|109:176|109:176|76:94,1,130,12|8,0:0|0:0,0:0:0:0:
0,90,113736,1,0,0:0:0:0:
67,29,113999,2,0,L|206:43,1,130,8|8,0:0|0:0,0:0:0:0:
243,120,114789,1,2,0:0:0:0:
320,73,115052,2,0,L|384:66,2,65,12|4|12,0:0|0:0|0:0,0:0:0:0:
325,164,115842,2,0,L|389:157,1,65,4|8,0:0|0:0,0:0:0:0:
478,176,116368,2,0,P|481:141|462:101,2,65,4|8|12,0:0|0:0|0:0,0:0:0:0:
416,242,117157,6,0,P|439:306|405:377,1,130,12|8,0:0|0:0,0:0:0:0:
348,304,117947,1,0,0:0:0:0:
277,362,118210,2,0,P|257:301|280:241,1,130,8|8,0:0|0:0,0:0:0:0:
348,182,118999,1,2,0:0:0:0:
262,151,119262,2,0,L|107:109,1,130,12|8,0:0|0:0,0:0:0:0:
50,146,120052,1,0,0:0:0:0:
84,230,120315,2,0,L|47:299,1,65,8|0,0:0|0:0,0:0:0:0:
118,350,120842,2,0,L|155:281,1,65,8|2,0:0|0:0,0:0:0:0:
224,342,121368,6,0,B|275:372|341:347|296:329|367:308|415:327,2,195,12|0|8,0:0|0:0|0:0,0:0:0:0:
179,262,123210,1,2,0:0:0:0:
269,259,123473,2,0,B|292:199|292:199|266:138,1,130,12|12,0:0|0:0,0:0:0:0:
85,151,124526,2,0,B|59:90|59:90|82:30,1,130,12|12,0:0|0:0,0:0:0:0:
154,87,125315,1,12,0:0:0:0:
244,88,125578,6,0,B|331:68|331:68|411:98|411:98|494:79,2,260,12|0|8,0:0|0:0|0:0,0:0:0:0:
316,255,128210,1,8,0:0:0:0:
146,320,128736,2,0,P|129:258|173:169,2,130,0|8|4,0:0|0:0|0:0,0:0:0:0:
256,192,130052,12,4,131894,0:0:0:0:
98,279,132947,5,4,0:0:0:0:
273,327,133473,2,0,L|360:327,1,65,8|2,0:0|0:0,0:0:0:0:
415,279,133999,5,4,0:0:0:0:
